<?xml version="1.0" standalone="no"?>
<!DOCTYPE svg PUBLIC "-//W3C//DTD SVG 1.1//EN" "http://www.w3.org/Graphics/SVG/1.1/DTD/svg11.dtd" >
<svg xmlns="http://www.w3.org/2000/svg" xmlns:xlink="http://www.w3.org/1999/xlink" version="1.1">
<metadata>
Created by FontForge 20170731 at Fri Jan 24 01:42:53 2020
 By Aleksey,,,
Copyright 2020 The Inter Project Authors (https://github.com/rsms/inter)
</metadata>
<defs>
<font id="Inter-ExtraBold" horiz-adv-x="0" >
  <font-face 
    font-family="Inter ExtraBold"
    font-weight="800"
    font-stretch="normal"
    units-per-em="2816"
    panose-1="2 11 5 2 3 0 0 0 0 4"
    ascent="2252"
    descent="-564"
    x-height="1536"
    cap-height="2048"
    bbox="-2316.01 -912 7274 3376"
    underline-thickness="192"
    underline-position="-752"
    unicode-range="U+0020-1F852"
  />
<missing-glyph horiz-adv-x="3008" 
d="M306 -640v512h2396v-512h-2396zM306 1472v512h2396v-512h-2396zM306 2176v512h2396v-512h-2396zM306 64v512h2396v-512h-2396zM306 768v512h2396v-512h-2396z" />
    <glyph glyph-name="uni2295" unicode="&#x2b;&#x20dd;" horiz-adv-x="3912" 
d="M1755 296v1448h403v-1448h-403zM1232 818v403h1448v-403h-1448zM1956 -900q-319 0 -607.5 97t-529 273.5t-417 417t-273.5 529t-97 607.5t97 607.5t273.5 529t417 417t529 273.5t607.5 97t607.5 -97t529 -273.5t417 -417t273.5 -529t97 -607.5t-97 -607.5t-273.5 -529
t-417 -417t-529 -273.5t-607.5 -97zM1956 -598q270 0 513 82t445.5 231t351 351.5t230.5 445.5t82 512t-82 512t-230.5 446t-351 351.5t-445.5 230.5t-513 82q-269 0 -512 -82t-445.5 -230.5t-351.5 -351.5t-230.5 -446t-81.5 -512t81.5 -512t230.5 -445.5t351.5 -351.5
t445.5 -231t512 -82z" />
    <glyph glyph-name="uni2296" unicode="&#x20dd;&#x2212;" horiz-adv-x="3912" 
d="M2676 1225v-403h-1440v403h1440zM1956 -900q-319 0 -607.5 97t-529 273.5t-417 417t-273.5 529t-97 607.5t97 607.5t273.5 529t417 417t529 273.5t607.5 97t607.5 -97t529 -273.5t417 -417t273.5 -529t97 -607.5t-97 -607.5t-273.5 -529t-417 -417t-529 -273.5
t-607.5 -97zM1956 -598q270 0 513 82t445.5 231t351 351.5t230.5 445.5t82 512t-82 512t-230.5 446t-351 351.5t-445.5 230.5t-513 82q-269 0 -512 -82t-445.5 -230.5t-351.5 -351.5t-230.5 -446t-81.5 -512t81.5 -512t230.5 -445.5t351.5 -351.5t445.5 -231t512 -82z" />
    <glyph glyph-name="uni2297" unicode="&#xd7;&#x20dd;" horiz-adv-x="3912" 
d="M2416 256l-1218 1215l299 302l1218 -1218zM1497 256l-299 299l1218 1218l299 -302zM1956 -900q-319 0 -607.5 97t-529 273.5t-417 417t-273.5 529t-97 607.5t97 607.5t273.5 529t417 417t529 273.5t607.5 97t607.5 -97t529 -273.5t417 -417t273.5 -529t97 -607.5
t-97 -607.5t-273.5 -529t-417 -417t-529 -273.5t-607.5 -97zM1956 -598q270 0 513 82t445.5 231t351 351.5t230.5 445.5t82 512t-82 512t-230.5 446t-351 351.5t-445.5 230.5t-513 82q-269 0 -512 -82t-445.5 -230.5t-351.5 -351.5t-230.5 -446t-81.5 -512t81.5 -512
t230.5 -445.5t351.5 -351.5t445.5 -231t512 -82z" />
    <glyph glyph-name="uni2460" unicode="&#x31;&#x20dd;" horiz-adv-x="3912" 
d="M2254 2048v-2048h-494v1586h-12l-458 -280v428l505 314h459zM1956 -900q-319 0 -607.5 97t-529 273.5t-417 417t-273.5 529t-97 607.5t97 607.5t273.5 529t417 417t529 273.5t607.5 97t607.5 -97t529 -273.5t417 -417t273.5 -529t97 -607.5t-97 -607.5t-273.5 -529
t-417 -417t-529 -273.5t-607.5 -97zM1956 -598q270 0 513 82t445.5 231t351 351.5t230.5 445.5t82 512t-82 512t-230.5 446t-351 351.5t-445.5 230.5t-513 82q-269 0 -512 -82t-445.5 -230.5t-351.5 -351.5t-230.5 -446t-81.5 -512t81.5 -512t230.5 -445.5t351.5 -351.5
t445.5 -231t512 -82z" />
    <glyph glyph-name="uni2461" unicode="&#x32;&#x20dd;" horiz-adv-x="3912" 
d="M1214 0v356l747 654q84 76 143 139.5t90 128t31 140.5q0 85 -37 145.5t-102 93.5t-149 33q-85 0 -149 -34.5t-99.5 -99.5t-35.5 -158h-469q0 209 94 361t264.5 234.5t396.5 82.5q233 0 405 -78t266.5 -217.5t94.5 -323.5q0 -117 -47 -232t-168.5 -254t-344.5 -333
l-245 -226v-13h830v-399h-1516zM1956 -900q-319 0 -607.5 97t-529 273.5t-417 417t-273.5 529t-97 607.5t97 607.5t273.5 529t417 417t529 273.5t607.5 97t607.5 -97t529 -273.5t417 -417t273.5 -529t97 -607.5t-97 -607.5t-273.5 -529t-417 -417t-529 -273.5t-607.5 -97z
M1956 -598q270 0 513 82t445.5 231t351 351.5t230.5 445.5t82 512t-82 512t-230.5 446t-351 351.5t-445.5 230.5t-513 82q-269 0 -512 -82t-445.5 -230.5t-351.5 -351.5t-230.5 -446t-81.5 -512t81.5 -512t230.5 -445.5t351.5 -351.5t445.5 -231t512 -82z" />
    <glyph glyph-name="uni2462" unicode="&#x33;&#x20dd;" horiz-adv-x="3912" 
d="M1949 -28q-234 0 -414.5 80.5t-284.5 222.5t-106 327h498q3 -67 43 -118.5t109 -80.5t157 -29t155.5 31.5t105.5 87t37 127.5q1 72 -41 128t-118.5 87t-180.5 31h-199v352h199q91 0 160.5 30t108.5 84.5t38 125.5q1 69 -32.5 121.5t-93 81.5t-137.5 29q-82 0 -148.5 -29
t-105.5 -82t-41 -123h-473q2 183 102 322.5t272.5 218.5t393.5 79q220 0 387 -77t260 -209.5t93 -299.5q1 -173 -112.5 -285t-291.5 -138v-16q238 -28 359.5 -154t120.5 -315q0 -178 -104.5 -315.5t-290 -216t-425.5 -78.5zM1956 -900q-319 0 -607.5 97t-529 273.5t-417 417
t-273.5 529t-97 607.5t97 607.5t273.5 529t417 417t529 273.5t607.5 97t607.5 -97t529 -273.5t417 -417t273.5 -529t97 -607.5t-97 -607.5t-273.5 -529t-417 -417t-529 -273.5t-607.5 -97zM1956 -598q270 0 513 82t445.5 231t351 351.5t230.5 445.5t82 512t-82 512
t-230.5 446t-351 351.5t-445.5 230.5t-513 82q-269 0 -512 -82t-445.5 -230.5t-351.5 -351.5t-230.5 -446t-81.5 -512t81.5 -512t230.5 -445.5t351.5 -351.5t445.5 -231t512 -82z" />
    <glyph glyph-name="uni2463" unicode="&#x34;&#x20dd;" horiz-adv-x="3912" 
d="M999 340v386l839 1322h343v-524h-199l-491 -778v-16h1215v-390h-1707zM1988 0v458l10 169v1421h463v-2048h-473zM1956 -900q-319 0 -607.5 97t-529 273.5t-417 417t-273.5 529t-97 607.5t97 607.5t273.5 529t417 417t529 273.5t607.5 97t607.5 -97t529 -273.5t417 -417
t273.5 -529t97 -607.5t-97 -607.5t-273.5 -529t-417 -417t-529 -273.5t-607.5 -97zM1956 -598q270 0 513 82t445.5 231t351 351.5t230.5 445.5t82 512t-82 512t-230.5 446t-351 351.5t-445.5 230.5t-513 82q-269 0 -512 -82t-445.5 -230.5t-351.5 -351.5t-230.5 -446
t-81.5 -512t81.5 -512t230.5 -445.5t351.5 -351.5t445.5 -231t512 -82z" />
    <glyph glyph-name="uni2464" unicode="&#x35;&#x20dd;" horiz-adv-x="3912" 
d="M1947 -28q-224 0 -398 81t-274.5 223t-104.5 326h480q6 -113 92 -181.5t205 -68.5q93 0 165 41t113 115.5t40 171.5q1 99 -40.5 173t-114 115.5t-166.5 41.5q-89 1 -168.5 -39t-120.5 -109l-437 82l89 1104h1314v-399h-907l-47 -483h12q51 85 164.5 140.5t258.5 55.5
q184 0 328.5 -85.5t228 -236.5t83.5 -346q0 -211 -99.5 -374t-278 -255.5t-417.5 -92.5zM1956 -900q-319 0 -607.5 97t-529 273.5t-417 417t-273.5 529t-97 607.5t97 607.5t273.5 529t417 417t529 273.5t607.5 97t607.5 -97t529 -273.5t417 -417t273.5 -529t97 -607.5
t-97 -607.5t-273.5 -529t-417 -417t-529 -273.5t-607.5 -97zM1956 -598q270 0 513 82t445.5 231t351 351.5t230.5 445.5t82 512t-82 512t-230.5 446t-351 351.5t-445.5 230.5t-513 82q-269 0 -512 -82t-445.5 -230.5t-351.5 -351.5t-230.5 -446t-81.5 -512t81.5 -512
t230.5 -445.5t351.5 -351.5t445.5 -231t512 -82z" />
    <glyph glyph-name="uni2465" unicode="&#x36;&#x20dd;" horiz-adv-x="3912" 
d="M1970 -28q-168 0 -321.5 54.5t-273 174t-188.5 314t-70 474.5q1 256 62 458.5t174.5 344.5t272 216.5t354.5 74.5q215 0 379.5 -83.5t263.5 -226t117 -317.5h-487q-22 103 -96.5 154.5t-176.5 51.5q-188 0 -280.5 -164t-94.5 -443h13q42 92 121 158t181.5 101.5
t217.5 35.5q184 0 325 -85t221 -232.5t79 -337.5q1 -214 -100 -377.5t-279.5 -254.5t-413.5 -91zM1967 352q91 0 163 43t113 117t40 167q1 94 -39.5 167t-112 116t-163.5 43q-67 0 -125 -25t-100.5 -69.5t-66.5 -104t-25 -128.5q1 -91 42 -165t112 -117.5t162 -43.5z
M1956 -900q-319 0 -607.5 97t-529 273.5t-417 417t-273.5 529t-97 607.5t97 607.5t273.5 529t417 417t529 273.5t607.5 97t607.5 -97t529 -273.5t417 -417t273.5 -529t97 -607.5t-97 -607.5t-273.5 -529t-417 -417t-529 -273.5t-607.5 -97zM1956 -598q270 0 513 82
t445.5 231t351 351.5t230.5 445.5t82 512t-82 512t-230.5 446t-351 351.5t-445.5 230.5t-513 82q-269 0 -512 -82t-445.5 -230.5t-351.5 -351.5t-230.5 -446t-81.5 -512t81.5 -512t230.5 -445.5t351.5 -351.5t445.5 -231t512 -82z" />
    <glyph glyph-name="uni2466" unicode="&#x37;&#x20dd;" horiz-adv-x="3912" 
d="M1400 0l826 1636v13h-966v399h1478v-402l-829 -1646h-509zM1956 -900q-319 0 -607.5 97t-529 273.5t-417 417t-273.5 529t-97 607.5t97 607.5t273.5 529t417 417t529 273.5t607.5 97t607.5 -97t529 -273.5t417 -417t273.5 -529t97 -607.5t-97 -607.5t-273.5 -529
t-417 -417t-529 -273.5t-607.5 -97zM1956 -598q270 0 513 82t445.5 231t351 351.5t230.5 445.5t82 512t-82 512t-230.5 446t-351 351.5t-445.5 230.5t-513 82q-269 0 -512 -82t-445.5 -230.5t-351.5 -351.5t-230.5 -446t-81.5 -512t81.5 -512t230.5 -445.5t351.5 -351.5
t445.5 -231t512 -82z" />
    <glyph glyph-name="uni2467" unicode="&#x38;&#x20dd;" horiz-adv-x="3912" 
d="M1956 -28q-239 0 -426.5 76.5t-294 208t-106.5 297.5q0 127 61 233t165.5 176.5t233.5 90.5v16q-169 31 -276.5 157t-107.5 295q0 160 97.5 285t267 197t386.5 72t386.5 -72t267 -197t97.5 -285q0 -170 -108.5 -295.5t-275.5 -156.5v-16q128 -20 232.5 -90.5t166 -176.5
t61.5 -233q0 -166 -107 -297.5t-293.5 -208t-426.5 -76.5zM1956 323q91 0 160 34.5t108.5 96.5t39.5 140q0 80 -40 142t-109.5 97.5t-158.5 35.5q-88 0 -158 -35.5t-110 -97.5t-40 -142q0 -78 39.5 -139.5t109 -96.5t159.5 -35zM1956 1218q78 0 138.5 32t95 89t34.5 129
t-34.5 127t-94.5 86.5t-139 31.5q-78 0 -139 -31.5t-95 -86.5t-34 -127t34.5 -128.5t95.5 -89t138 -32.5zM1956 -900q-319 0 -607.5 97t-529 273.5t-417 417t-273.5 529t-97 607.5t97 607.5t273.5 529t417 417t529 273.5t607.5 97t607.5 -97t529 -273.5t417 -417t273.5 -529
t97 -607.5t-97 -607.5t-273.5 -529t-417 -417t-529 -273.5t-607.5 -97zM1956 -598q270 0 513 82t445.5 231t351 351.5t230.5 445.5t82 512t-82 512t-230.5 446t-351 351.5t-445.5 230.5t-513 82q-269 0 -512 -82t-445.5 -230.5t-351.5 -351.5t-230.5 -446t-81.5 -512
t81.5 -512t230.5 -445.5t351.5 -351.5t445.5 -231t512 -82z" />
    <glyph glyph-name="uni2468" unicode="&#x39;&#x20dd;" horiz-adv-x="3912" 
d="M1936 2083q168 0 321 -54.5t273 -174t189 -314t69 -474.5q0 -256 -61.5 -458.5t-174 -344.5t-271.5 -216.5t-355 -74.5q-216 0 -380.5 83.5t-263 225.5t-117.5 318h487q23 -102 97 -153.5t177 -51.5q188 0 281 163t93 443h-12q-43 -92 -121.5 -158t-181.5 -101t-217 -35
q-184 0 -325 84t-221 232t-79 338q-1 214 99 377t279 255t415 91zM1939 1703q-92 0 -163.5 -43t-112.5 -117t-40 -167q-1 -93 39.5 -166.5t112 -116.5t162.5 -43q68 0 125.5 25.5t100.5 69.5t67 103.5t25 128.5q-1 91 -42 165t-112.5 117.5t-161.5 43.5zM1956 -900
q-319 0 -607.5 97t-529 273.5t-417 417t-273.5 529t-97 607.5t97 607.5t273.5 529t417 417t529 273.5t607.5 97t607.5 -97t529 -273.5t417 -417t273.5 -529t97 -607.5t-97 -607.5t-273.5 -529t-417 -417t-529 -273.5t-607.5 -97zM1956 -598q270 0 513 82t445.5 231
t351 351.5t230.5 445.5t82 512t-82 512t-230.5 446t-351 351.5t-445.5 230.5t-513 82q-269 0 -512 -82t-445.5 -230.5t-351.5 -351.5t-230.5 -446t-81.5 -512t81.5 -512t230.5 -445.5t351.5 -351.5t445.5 -231t512 -82z" />
    <glyph glyph-name="uni24B6" unicode="A&#x20dd;" horiz-adv-x="3912" 
d="M1468 0h-532l691 2048h659l691 -2048h-532l-481 1532h-16zM1397 806h1112v-376h-1112v376zM1956 -900q-319 0 -607.5 97t-529 273.5t-417 417t-273.5 529t-97 607.5t97 607.5t273.5 529t417 417t529 273.5t607.5 97t607.5 -97t529 -273.5t417 -417t273.5 -529t97 -607.5
t-97 -607.5t-273.5 -529t-417 -417t-529 -273.5t-607.5 -97zM1956 -598q270 0 513 82t445.5 231t351 351.5t230.5 445.5t82 512t-82 512t-230.5 446t-351 351.5t-445.5 230.5t-513 82q-269 0 -512 -82t-445.5 -230.5t-351.5 -351.5t-230.5 -446t-81.5 -512t81.5 -512
t230.5 -445.5t351.5 -351.5t445.5 -231t512 -82z" />
    <glyph glyph-name="uni24B7" unicode="B&#x20dd;" horiz-adv-x="3912" 
d="M1222 0v2048h854q230 0 385.5 -65t234 -182t78.5 -271q0 -117 -49 -208.5t-135 -151.5t-199 -84v-20q124 -6 229.5 -67t169.5 -169.5t64 -256.5q0 -165 -84 -294.5t-243 -204t-386 -74.5h-919zM1717 399h306q161 0 237.5 61t76.5 170q0 79 -37 136.5t-105 89t-163 31.5
h-315v-488zM1717 1206h274q81 0 144 27t98.5 78t35.5 123q0 103 -73 162t-197 59h-282v-449zM1956 -900q-319 0 -607.5 97t-529 273.5t-417 417t-273.5 529t-97 607.5t97 607.5t273.5 529t417 417t529 273.5t607.5 97t607.5 -97t529 -273.5t417 -417t273.5 -529t97 -607.5
t-97 -607.5t-273.5 -529t-417 -417t-529 -273.5t-607.5 -97zM1956 -598q270 0 513 82t445.5 231t351 351.5t230.5 445.5t82 512t-82 512t-230.5 446t-351 351.5t-445.5 230.5t-513 82q-269 0 -512 -82t-445.5 -230.5t-351.5 -351.5t-230.5 -446t-81.5 -512t81.5 -512
t230.5 -445.5t351.5 -351.5t445.5 -231t512 -82z" />
    <glyph glyph-name="uni24B8" unicode="C&#x20dd;" horiz-adv-x="3912" 
d="M2896 1306h-500q-10 77 -41 139t-82 106t-120.5 67.5t-153.5 23.5q-149 0 -256.5 -73t-165 -211t-57.5 -334q0 -204 58.5 -341.5t165 -207t252.5 -69.5q82 0 149.5 21t119 61.5t85 99t46.5 132.5l500 -3q-13 -136 -78.5 -268t-179.5 -240.5t-277.5 -172.5t-374.5 -64
q-278 0 -497.5 122.5t-346.5 357.5t-127 572q0 338 129 573t349 357t493 122q186 0 344 -51.5t278 -150t195 -241.5t93 -327zM1956 -900q-319 0 -607.5 97t-529 273.5t-417 417t-273.5 529t-97 607.5t97 607.5t273.5 529t417 417t529 273.5t607.5 97t607.5 -97t529 -273.5
t417 -417t273.5 -529t97 -607.5t-97 -607.5t-273.5 -529t-417 -417t-529 -273.5t-607.5 -97zM1956 -598q270 0 513 82t445.5 231t351 351.5t230.5 445.5t82 512t-82 512t-230.5 446t-351 351.5t-445.5 230.5t-513 82q-269 0 -512 -82t-445.5 -230.5t-351.5 -351.5
t-230.5 -446t-81.5 -512t81.5 -512t230.5 -445.5t351.5 -351.5t445.5 -231t512 -82z" />
    <glyph glyph-name="uni24B9" unicode="D&#x20dd;" horiz-adv-x="3912" 
d="M2006 0h-757v2048h756q313 0 539.5 -122.5t349.5 -352t123 -548.5q0 -320 -122.5 -550t-349.5 -352.5t-539 -122.5zM1744 422h243q172 0 291.5 58.5t181 191t61.5 353.5t-62 352.5t-182.5 190t-296.5 58.5h-236v-1204zM1956 -900q-319 0 -607.5 97t-529 273.5t-417 417
t-273.5 529t-97 607.5t97 607.5t273.5 529t417 417t529 273.5t607.5 97t607.5 -97t529 -273.5t417 -417t273.5 -529t97 -607.5t-97 -607.5t-273.5 -529t-417 -417t-529 -273.5t-607.5 -97zM1956 -598q270 0 513 82t445.5 231t351 351.5t230.5 445.5t82 512t-82 512
t-230.5 446t-351 351.5t-445.5 230.5t-513 82q-269 0 -512 -82t-445.5 -230.5t-351.5 -351.5t-230.5 -446t-81.5 -512t81.5 -512t230.5 -445.5t351.5 -351.5t445.5 -231t512 -82z" />
    <glyph glyph-name="uni24BA" unicode="E&#x20dd;" horiz-adv-x="3912" 
d="M1240 0v2048h1428v-402h-933v-420h860v-403h-860v-421h933v-402h-1428zM1956 -900q-319 0 -607.5 97t-529 273.5t-417 417t-273.5 529t-97 607.5t97 607.5t273.5 529t417 417t529 273.5t607.5 97t607.5 -97t529 -273.5t417 -417t273.5 -529t97 -607.5t-97 -607.5
t-273.5 -529t-417 -417t-529 -273.5t-607.5 -97zM1956 -598q270 0 513 82t445.5 231t351 351.5t230.5 445.5t82 512t-82 512t-230.5 446t-351 351.5t-445.5 230.5t-513 82q-269 0 -512 -82t-445.5 -230.5t-351.5 -351.5t-230.5 -446t-81.5 -512t81.5 -512t230.5 -445.5
t351.5 -351.5t445.5 -231t512 -82z" />
    <glyph glyph-name="uni24BB" unicode="F&#x20dd;" horiz-adv-x="3912" 
d="M1257 0v2048h1398v-402h-903v-420h814v-403h-814v-823h-495zM1956 -900q-319 0 -607.5 97t-529 273.5t-417 417t-273.5 529t-97 607.5t97 607.5t273.5 529t417 417t529 273.5t607.5 97t607.5 -97t529 -273.5t417 -417t273.5 -529t97 -607.5t-97 -607.5t-273.5 -529
t-417 -417t-529 -273.5t-607.5 -97zM1956 -598q270 0 513 82t445.5 231t351 351.5t230.5 445.5t82 512t-82 512t-230.5 446t-351 351.5t-445.5 230.5t-513 82q-269 0 -512 -82t-445.5 -230.5t-351.5 -351.5t-230.5 -446t-81.5 -512t81.5 -512t230.5 -445.5t351.5 -351.5
t445.5 -231t512 -82z" />
    <glyph glyph-name="uni24BC" unicode="G&#x20dd;" horiz-adv-x="3912" 
d="M2378 1379q-17 63 -50 111.5t-81 82.5t-110 51.5t-136 17.5q-149 0 -257.5 -72t-167.5 -209.5t-59 -333.5q0 -197 57 -336t165 -212t262 -73q136 0 230.5 44.5t143.5 126.5t49 193l92 -11h-498v361h883v-271q0 -275 -116.5 -471t-320 -301t-467.5 -105q-293 0 -515 127
t-346 362.5t-124 559.5q0 252 75 447.5t209.5 331.5t312 206t382.5 70q178 0 331.5 -51t272 -144t192.5 -221t92 -281h-501zM1956 -900q-319 0 -607.5 97t-529 273.5t-417 417t-273.5 529t-97 607.5t97 607.5t273.5 529t417 417t529 273.5t607.5 97t607.5 -97t529 -273.5
t417 -417t273.5 -529t97 -607.5t-97 -607.5t-273.5 -529t-417 -417t-529 -273.5t-607.5 -97zM1956 -598q270 0 513 82t445.5 231t351 351.5t230.5 445.5t82 512t-82 512t-230.5 446t-351 351.5t-445.5 230.5t-513 82q-269 0 -512 -82t-445.5 -230.5t-351.5 -351.5
t-230.5 -446t-81.5 -512t81.5 -512t230.5 -445.5t351.5 -351.5t445.5 -231t512 -82z" />
    <glyph glyph-name="uni24BD" unicode="H&#x20dd;" horiz-adv-x="3912" 
d="M1045 0v2048h495v-822h807v822h494v-2048h-494v823h-807v-823h-495zM1956 -900q-319 0 -607.5 97t-529 273.5t-417 417t-273.5 529t-97 607.5t97 607.5t273.5 529t417 417t529 273.5t607.5 97t607.5 -97t529 -273.5t417 -417t273.5 -529t97 -607.5t-97 -607.5
t-273.5 -529t-417 -417t-529 -273.5t-607.5 -97zM1956 -598q270 0 513 82t445.5 231t351 351.5t230.5 445.5t82 512t-82 512t-230.5 446t-351 351.5t-445.5 230.5t-513 82q-269 0 -512 -82t-445.5 -230.5t-351.5 -351.5t-230.5 -446t-81.5 -512t81.5 -512t230.5 -445.5
t351.5 -351.5t445.5 -231t512 -82z" />
    <glyph glyph-name="uni24BE" unicode="I&#x20dd;" horiz-adv-x="3912" 
d="M2204 2048v-2048h-495v2048h495zM1956 -900q-319 0 -607.5 97t-529 273.5t-417 417t-273.5 529t-97 607.5t97 607.5t273.5 529t417 417t529 273.5t607.5 97t607.5 -97t529 -273.5t417 -417t273.5 -529t97 -607.5t-97 -607.5t-273.5 -529t-417 -417t-529 -273.5
t-607.5 -97zM1956 -598q270 0 513 82t445.5 231t351 351.5t230.5 445.5t82 512t-82 512t-230.5 446t-351 351.5t-445.5 230.5t-513 82q-269 0 -512 -82t-445.5 -230.5t-351.5 -351.5t-230.5 -446t-81.5 -512t81.5 -512t230.5 -445.5t351.5 -351.5t445.5 -231t512 -82z" />
    <glyph glyph-name="uni24BF" unicode="J&#x20dd;" horiz-adv-x="3912" 
d="M2133 2048h488v-1416q-1 -199 -95 -347.5t-259.5 -230.5t-382.5 -82q-192 0 -348.5 67t-249 208t-91.5 361h493q3 -79 30.5 -134.5t76.5 -83.5t117 -28q71 0 120 30.5t74.5 90.5t26.5 149v1416zM1956 -900q-319 0 -607.5 97t-529 273.5t-417 417t-273.5 529t-97 607.5
t97 607.5t273.5 529t417 417t529 273.5t607.5 97t607.5 -97t529 -273.5t417 -417t273.5 -529t97 -607.5t-97 -607.5t-273.5 -529t-417 -417t-529 -273.5t-607.5 -97zM1956 -598q270 0 513 82t445.5 231t351 351.5t230.5 445.5t82 512t-82 512t-230.5 446t-351 351.5
t-445.5 230.5t-513 82q-269 0 -512 -82t-445.5 -230.5t-351.5 -351.5t-230.5 -446t-81.5 -512t81.5 -512t230.5 -445.5t351.5 -351.5t445.5 -231t512 -82z" />
    <glyph glyph-name="uni24C0" unicode="K&#x20dd;" horiz-adv-x="3912" 
d="M1095 0v2048h495v-866h27l677 866h583l-726 -914l739 -1134h-592l-510 805l-198 -250v-555h-495zM1956 -900q-319 0 -607.5 97t-529 273.5t-417 417t-273.5 529t-97 607.5t97 607.5t273.5 529t417 417t529 273.5t607.5 97t607.5 -97t529 -273.5t417 -417t273.5 -529
t97 -607.5t-97 -607.5t-273.5 -529t-417 -417t-529 -273.5t-607.5 -97zM1956 -598q270 0 513 82t445.5 231t351 351.5t230.5 445.5t82 512t-82 512t-230.5 446t-351 351.5t-445.5 230.5t-513 82q-269 0 -512 -82t-445.5 -230.5t-351.5 -351.5t-230.5 -446t-81.5 -512
t81.5 -512t230.5 -445.5t351.5 -351.5t445.5 -231t512 -82z" />
    <glyph glyph-name="uni24C1" unicode="L&#x20dd;" horiz-adv-x="3912" 
d="M1326 0v2048h495v-1646h852v-402h-1347zM1956 -900q-319 0 -607.5 97t-529 273.5t-417 417t-273.5 529t-97 607.5t97 607.5t273.5 529t417 417t529 273.5t607.5 97t607.5 -97t529 -273.5t417 -417t273.5 -529t97 -607.5t-97 -607.5t-273.5 -529t-417 -417t-529 -273.5
t-607.5 -97zM1956 -598q270 0 513 82t445.5 231t351 351.5t230.5 445.5t82 512t-82 512t-230.5 446t-351 351.5t-445.5 230.5t-513 82q-269 0 -512 -82t-445.5 -230.5t-351.5 -351.5t-230.5 -446t-81.5 -512t81.5 -512t230.5 -445.5t351.5 -351.5t445.5 -231t512 -82z" />
    <glyph glyph-name="uni24C2" unicode="M&#x20dd;" horiz-adv-x="3912" 
d="M811 2048h613l520 -1268h24l520 1268h613v-2048h-482v1258h-17l-492 -1245h-308l-492 1252h-17v-1265h-482v2048zM1956 -900q-319 0 -607.5 97t-529 273.5t-417 417t-273.5 529t-97 607.5t97 607.5t273.5 529t417 417t529 273.5t607.5 97t607.5 -97t529 -273.5t417 -417
t273.5 -529t97 -607.5t-97 -607.5t-273.5 -529t-417 -417t-529 -273.5t-607.5 -97zM1956 -598q270 0 513 82t445.5 231t351 351.5t230.5 445.5t82 512t-82 512t-230.5 446t-351 351.5t-445.5 230.5t-513 82q-269 0 -512 -82t-445.5 -230.5t-351.5 -351.5t-230.5 -446
t-81.5 -512t81.5 -512t230.5 -445.5t351.5 -351.5t445.5 -231t512 -82z" />
    <glyph glyph-name="uni24C3" unicode="N&#x20dd;" horiz-adv-x="3912" 
d="M2828 2048v-2048h-420l-815 1182h-13v-1182h-495v2048h426l806 -1180h17v1180h494zM1956 -900q-319 0 -607.5 97t-529 273.5t-417 417t-273.5 529t-97 607.5t97 607.5t273.5 529t417 417t529 273.5t607.5 97t607.5 -97t529 -273.5t417 -417t273.5 -529t97 -607.5
t-97 -607.5t-273.5 -529t-417 -417t-529 -273.5t-607.5 -97zM1956 -598q270 0 513 82t445.5 231t351 351.5t230.5 445.5t82 512t-82 512t-230.5 446t-351 351.5t-445.5 230.5t-513 82q-269 0 -512 -82t-445.5 -230.5t-351.5 -351.5t-230.5 -446t-81.5 -512t81.5 -512
t230.5 -445.5t351.5 -351.5t445.5 -231t512 -82z" />
    <glyph glyph-name="uni24C4" unicode="O&#x20dd;" horiz-adv-x="3912" 
d="M2934 1024q0 -338 -130 -573t-351.5 -357t-496.5 -122q-276 0 -497 123t-350.5 357.5t-129.5 571.5q0 338 129.5 573t350.5 357t497 122q275 0 496.5 -122t351.5 -357t130 -573zM2428 1024q0 200 -56.5 338t-162 209t-253.5 71q-147 0 -253 -71t-162.5 -209t-56.5 -338
t56.5 -338t162.5 -209t253 -71q148 0 253.5 71t162 209t56.5 338zM1956 -900q-319 0 -607.5 97t-529 273.5t-417 417t-273.5 529t-97 607.5t97 607.5t273.5 529t417 417t529 273.5t607.5 97t607.5 -97t529 -273.5t417 -417t273.5 -529t97 -607.5t-97 -607.5t-273.5 -529
t-417 -417t-529 -273.5t-607.5 -97zM1956 -598q270 0 513 82t445.5 231t351 351.5t230.5 445.5t82 512t-82 512t-230.5 446t-351 351.5t-445.5 230.5t-513 82q-269 0 -512 -82t-445.5 -230.5t-351.5 -351.5t-230.5 -446t-81.5 -512t81.5 -512t230.5 -445.5t351.5 -351.5
t445.5 -231t512 -82z" />
    <glyph glyph-name="uni24C5" unicode="P&#x20dd;" horiz-adv-x="3912" 
d="M1243 0v2048h846q230 0 397.5 -89.5t258.5 -249t91 -370.5q0 -212 -92.5 -370.5t-263.5 -245.5t-406 -87h-522v390h430q112 0 187.5 39t114.5 109.5t39 164.5q0 95 -39 164.5t-115 107.5t-187 38h-244v-1649h-495zM1956 -900q-319 0 -607.5 97t-529 273.5t-417 417
t-273.5 529t-97 607.5t97 607.5t273.5 529t417 417t529 273.5t607.5 97t607.5 -97t529 -273.5t417 -417t273.5 -529t97 -607.5t-97 -607.5t-273.5 -529t-417 -417t-529 -273.5t-607.5 -97zM1956 -598q270 0 513 82t445.5 231t351 351.5t230.5 445.5t82 512t-82 512
t-230.5 446t-351 351.5t-445.5 230.5t-513 82q-269 0 -512 -82t-445.5 -230.5t-351.5 -351.5t-230.5 -446t-81.5 -512t81.5 -512t230.5 -445.5t351.5 -351.5t445.5 -231t512 -82z" />
    <glyph glyph-name="uni24C6" unicode="Q&#x20dd;" horiz-adv-x="3912" 
d="M1782 736h400l170 -217l223 -256l343 -423h-448l-240 287l-142 204zM2932 1024q0 -338 -130 -573t-351.5 -357t-496.5 -122q-276 0 -497 123t-350.5 357.5t-129.5 571.5q0 338 129.5 573t350.5 357t497 122q275 0 496.5 -122t351.5 -357t130 -573zM2426 1024
q0 200 -56.5 338t-162 209t-253.5 71q-147 0 -253 -71t-162.5 -209t-56.5 -338t56.5 -338t162.5 -209t253 -71q148 0 253.5 71t162 209t56.5 338zM1956 -900q-319 0 -607.5 97t-529 273.5t-417 417t-273.5 529t-97 607.5t97 607.5t273.5 529t417 417t529 273.5t607.5 97
t607.5 -97t529 -273.5t417 -417t273.5 -529t97 -607.5t-97 -607.5t-273.5 -529t-417 -417t-529 -273.5t-607.5 -97zM1956 -598q270 0 513 82t445.5 231t351 351.5t230.5 445.5t82 512t-82 512t-230.5 446t-351 351.5t-445.5 230.5t-513 82q-269 0 -512 -82t-445.5 -230.5
t-351.5 -351.5t-230.5 -446t-81.5 -512t81.5 -512t230.5 -445.5t351.5 -351.5t445.5 -231t512 -82z" />
    <glyph glyph-name="uni24C7" unicode="R&#x20dd;" horiz-adv-x="3912" 
d="M1200 0v2048h846q230 0 397.5 -82.5t258.5 -236t91 -363.5q0 -213 -93 -361.5t-264 -226t-405 -77.5h-535v390h443q112 0 187.5 29.5t114.5 90t39 155.5t-39 157.5t-115 94t-187 31.5h-244v-1649h-495zM2353 936l510 -936h-540l-500 936h530zM1956 -900q-319 0 -607.5 97
t-529 273.5t-417 417t-273.5 529t-97 607.5t97 607.5t273.5 529t417 417t529 273.5t607.5 97t607.5 -97t529 -273.5t417 -417t273.5 -529t97 -607.5t-97 -607.5t-273.5 -529t-417 -417t-529 -273.5t-607.5 -97zM1956 -598q270 0 513 82t445.5 231t351 351.5t230.5 445.5
t82 512t-82 512t-230.5 446t-351 351.5t-445.5 230.5t-513 82q-269 0 -512 -82t-445.5 -230.5t-351.5 -351.5t-230.5 -446t-81.5 -512t81.5 -512t230.5 -445.5t351.5 -351.5t445.5 -231t512 -82z" />
    <glyph glyph-name="uni24C8" unicode="S&#x20dd;" horiz-adv-x="3912" 
d="M2288 1434q-10 110 -88.5 171.5t-223.5 61.5q-96 0 -160 -25t-96 -68.5t-33 -99.5q-2 -46 18.5 -81t60 -61.5t95.5 -46.5t126 -35l176 -40q152 -33 268.5 -88t196 -131t120.5 -175t42 -222q-1 -194 -98 -333t-278.5 -213t-437.5 -74q-257 0 -448 77t-297 234t-109 397
h474q6 -99 53 -165t129.5 -100t191.5 -34q100 0 170.5 27t108.5 75t39 110q-1 58 -36 99.5t-107.5 72t-184.5 56.5l-214 50q-266 61 -419 197.5t-152 369.5q-1 190 102 333t285 223t415 80q238 0 413.5 -80.5t272.5 -225.5t99 -336h-474zM1956 -900q-319 0 -607.5 97
t-529 273.5t-417 417t-273.5 529t-97 607.5t97 607.5t273.5 529t417 417t529 273.5t607.5 97t607.5 -97t529 -273.5t417 -417t273.5 -529t97 -607.5t-97 -607.5t-273.5 -529t-417 -417t-529 -273.5t-607.5 -97zM1956 -598q270 0 513 82t445.5 231t351 351.5t230.5 445.5
t82 512t-82 512t-230.5 446t-351 351.5t-445.5 230.5t-513 82q-269 0 -512 -82t-445.5 -230.5t-351.5 -351.5t-230.5 -446t-81.5 -512t81.5 -512t230.5 -445.5t351.5 -351.5t445.5 -231t512 -82z" />
    <glyph glyph-name="uni24C9" unicode="T&#x20dd;" horiz-adv-x="3912" 
d="M1090 1646v402h1731v-402h-621v-1646h-488v1646h-622zM1956 -900q-319 0 -607.5 97t-529 273.5t-417 417t-273.5 529t-97 607.5t97 607.5t273.5 529t417 417t529 273.5t607.5 97t607.5 -97t529 -273.5t417 -417t273.5 -529t97 -607.5t-97 -607.5t-273.5 -529t-417 -417
t-529 -273.5t-607.5 -97zM1956 -598q270 0 513 82t445.5 231t351 351.5t230.5 445.5t82 512t-82 512t-230.5 446t-351 351.5t-445.5 230.5t-513 82q-269 0 -512 -82t-445.5 -230.5t-351.5 -351.5t-230.5 -446t-81.5 -512t81.5 -512t230.5 -445.5t351.5 -351.5t445.5 -231
t512 -82z" />
    <glyph glyph-name="uni24CA" unicode="U&#x20dd;" horiz-adv-x="3912" 
d="M2328 2048h494v-1321q0 -229 -109 -398.5t-304 -262t-453 -92.5q-261 0 -456 92.5t-303 262t-108 398.5v1321h495v-1278q0 -106 46.5 -189t130.5 -130t195 -47t194.5 47t130.5 130t47 189v1278zM1956 -900q-319 0 -607.5 97t-529 273.5t-417 417t-273.5 529t-97 607.5
t97 607.5t273.5 529t417 417t529 273.5t607.5 97t607.5 -97t529 -273.5t417 -417t273.5 -529t97 -607.5t-97 -607.5t-273.5 -529t-417 -417t-529 -273.5t-607.5 -97zM1956 -598q270 0 513 82t445.5 231t351 351.5t230.5 445.5t82 512t-82 512t-230.5 446t-351 351.5
t-445.5 230.5t-513 82q-269 0 -512 -82t-445.5 -230.5t-351.5 -351.5t-230.5 -446t-81.5 -512t81.5 -512t230.5 -445.5t351.5 -351.5t445.5 -231t512 -82z" />
    <glyph glyph-name="uni24CB" unicode="V&#x20dd;" horiz-adv-x="3912" 
d="M1490 2048l458 -1500h17l458 1500h554l-691 -2048h-659l-691 2048h554zM1956 -900q-319 0 -607.5 97t-529 273.5t-417 417t-273.5 529t-97 607.5t97 607.5t273.5 529t417 417t529 273.5t607.5 97t607.5 -97t529 -273.5t417 -417t273.5 -529t97 -607.5t-97 -607.5
t-273.5 -529t-417 -417t-529 -273.5t-607.5 -97zM1956 -598q270 0 513 82t445.5 231t351 351.5t230.5 445.5t82 512t-82 512t-230.5 446t-351 351.5t-445.5 230.5t-513 82q-269 0 -512 -82t-445.5 -230.5t-351.5 -351.5t-230.5 -446t-81.5 -512t81.5 -512t230.5 -445.5
t351.5 -351.5t445.5 -231t512 -82z" />
    <glyph glyph-name="uni24CC" unicode="W&#x20dd;" horiz-adv-x="3912" 
d="M1103 0l-596 2048h547l309 -1342h17l353 1342h446l353 -1345h17l310 1345h546l-595 -2048h-477l-369 1242h-16l-369 -1242h-476zM1956 -900q-319 0 -607.5 97t-529 273.5t-417 417t-273.5 529t-97 607.5t97 607.5t273.5 529t417 417t529 273.5t607.5 97t607.5 -97
t529 -273.5t417 -417t273.5 -529t97 -607.5t-97 -607.5t-273.5 -529t-417 -417t-529 -273.5t-607.5 -97zM1956 -598q270 0 513 82t445.5 231t351 351.5t230.5 445.5t82 512t-82 512t-230.5 446t-351 351.5t-445.5 230.5t-513 82q-269 0 -512 -82t-445.5 -230.5
t-351.5 -351.5t-230.5 -446t-81.5 -512t81.5 -512t230.5 -445.5t351.5 -351.5t445.5 -231t512 -82z" />
    <glyph glyph-name="uni24CD" unicode="X&#x20dd;" horiz-adv-x="3912" 
d="M1574 2048l374 -647h16l378 647h554l-618 -1024l638 -1024h-568l-384 654h-16l-384 -654h-564l635 1024l-619 1024h558zM1956 -900q-319 0 -607.5 97t-529 273.5t-417 417t-273.5 529t-97 607.5t97 607.5t273.5 529t417 417t529 273.5t607.5 97t607.5 -97t529 -273.5
t417 -417t273.5 -529t97 -607.5t-97 -607.5t-273.5 -529t-417 -417t-529 -273.5t-607.5 -97zM1956 -598q270 0 513 82t445.5 231t351 351.5t230.5 445.5t82 512t-82 512t-230.5 446t-351 351.5t-445.5 230.5t-513 82q-269 0 -512 -82t-445.5 -230.5t-351.5 -351.5
t-230.5 -446t-81.5 -512t81.5 -512t230.5 -445.5t351.5 -351.5t445.5 -231t512 -82z" />
    <glyph glyph-name="uni24CE" unicode="Y&#x20dd;" horiz-adv-x="3912" 
d="M961 2048h553l433 -857h18l433 857h553l-749 -1364v-684h-492v684zM1956 -900q-319 0 -607.5 97t-529 273.5t-417 417t-273.5 529t-97 607.5t97 607.5t273.5 529t417 417t529 273.5t607.5 97t607.5 -97t529 -273.5t417 -417t273.5 -529t97 -607.5t-97 -607.5t-273.5 -529
t-417 -417t-529 -273.5t-607.5 -97zM1956 -598q270 0 513 82t445.5 231t351 351.5t230.5 445.5t82 512t-82 512t-230.5 446t-351 351.5t-445.5 230.5t-513 82q-269 0 -512 -82t-445.5 -230.5t-351.5 -351.5t-230.5 -446t-81.5 -512t81.5 -512t230.5 -445.5t351.5 -351.5
t445.5 -231t512 -82z" />
    <glyph glyph-name="uni24CF" unicode="Z&#x20dd;" horiz-adv-x="3912" 
d="M1146 0v282l995 1364h-994v402h1620v-282l-995 -1364h994v-402h-1620zM1956 -900q-319 0 -607.5 97t-529 273.5t-417 417t-273.5 529t-97 607.5t97 607.5t273.5 529t417 417t529 273.5t607.5 97t607.5 -97t529 -273.5t417 -417t273.5 -529t97 -607.5t-97 -607.5
t-273.5 -529t-417 -417t-529 -273.5t-607.5 -97zM1956 -598q270 0 513 82t445.5 231t351 351.5t230.5 445.5t82 512t-82 512t-230.5 446t-351 351.5t-445.5 230.5t-513 82q-269 0 -512 -82t-445.5 -230.5t-351.5 -351.5t-230.5 -446t-81.5 -512t81.5 -512t230.5 -445.5
t351.5 -351.5t445.5 -231t512 -82z" />
    <glyph glyph-name="uni24EA" unicode="&#x30;&#x20dd;" horiz-adv-x="3912" 
d="M1956 -50q-268 0 -462 127.5t-299 367t-104 576.5t105.5 572.5t298 359t461.5 123.5t462.5 -123.5t299.5 -359.5t104 -572q0 -338 -105 -578t-298.5 -366.5t-462.5 -126.5zM1956 355q160 0 259 163.5t98 502.5q0 222 -45 366.5t-125 215.5t-187 71q-159 0 -257 -160.5
t-99 -492.5q-1 -225 43.5 -373t125.5 -220.5t187 -72.5zM1956 -900q-319 0 -607.5 97t-529 273.5t-417 417t-273.5 529t-97 607.5t97 607.5t273.5 529t417 417t529 273.5t607.5 97t607.5 -97t529 -273.5t417 -417t273.5 -529t97 -607.5t-97 -607.5t-273.5 -529t-417 -417
t-529 -273.5t-607.5 -97zM1956 -598q270 0 513 82t445.5 231t351 351.5t230.5 445.5t82 512t-82 512t-230.5 446t-351 351.5t-445.5 230.5t-513 82q-269 0 -512 -82t-445.5 -230.5t-351.5 -351.5t-230.5 -446t-81.5 -512t81.5 -512t230.5 -445.5t351.5 -351.5t445.5 -231
t512 -82z" />
    <glyph glyph-name="uni2A38" unicode="&#xf7;&#x20dd;" horiz-adv-x="3912" 
d="M2676 1212v-377h-1440v377h1440zM1956 193q-109 0 -186 77t-77 186q0 108 77 184t186 76q108 0 184 -76t76 -184q0 -109 -76 -186t-184 -77zM1956 1332q-72 0 -132 35.5t-95.5 95t-35.5 132.5q0 108 77.5 183.5t185.5 75.5t184 -75.5t76 -183.5q0 -109 -76 -186t-184 -77
zM1956 -900q-319 0 -607.5 97t-529 273.5t-417 417t-273.5 529t-97 607.5t97 607.5t273.5 529t417 417t529 273.5t607.5 97t607.5 -97t529 -273.5t417 -417t273.5 -529t97 -607.5t-97 -607.5t-273.5 -529t-417 -417t-529 -273.5t-607.5 -97zM1956 -598q270 0 513 82
t445.5 231t351 351.5t230.5 445.5t82 512t-82 512t-230.5 446t-351 351.5t-445.5 230.5t-513 82q-269 0 -512 -82t-445.5 -230.5t-351.5 -351.5t-230.5 -446t-81.5 -512t81.5 -512t230.5 -445.5t351.5 -351.5t445.5 -231t512 -82z" />
    <glyph glyph-name="uniE12B" unicode="&#x20dd;&#xe06b;" horiz-adv-x="3912" 
d="M2255 1826l176 -78l-781 -1521l-168 87zM1956 -47q-268 1 -462 128t-299 367t-104 576q1 337 105.5 573t298 359t461.5 123t462.5 -123.5t299.5 -359.5t104 -572q0 -338 -105 -578t-298.5 -366.5t-462.5 -126.5zM1956 358q160 0 259 164t98 502q0 222 -45 366.5t-125 216
t-187 71.5q-159 0 -257 -160.5t-99 -493.5q-1 -225 43.5 -373t125.5 -220.5t187 -72.5zM1956 -900q-319 0 -607.5 97t-529 273.5t-417 417t-273.5 529t-97 607.5t97 607.5t273.5 529t417 417t529 273.5t607.5 97t607.5 -97t529 -273.5t417 -417t273.5 -529t97 -607.5
t-97 -607.5t-273.5 -529t-417 -417t-529 -273.5t-607.5 -97zM1956 -598q270 0 513 82t445.5 231t351 351.5t230.5 445.5t82 512t-82 512t-230.5 446t-351 351.5t-445.5 230.5t-513 82q-269 0 -512 -82t-445.5 -230.5t-351.5 -351.5t-230.5 -446t-81.5 -512t81.5 -512
t230.5 -445.5t351.5 -351.5t445.5 -231t512 -82z" />
    <glyph glyph-name="uniE12C" unicode="&#x20dd;&#xe06c;" horiz-adv-x="3912" 
d="M2287 2048v-2048h-494v1461h-19q-26 -35 -80 -70.5t-137.5 -58.5t-195.5 -23v390q92 0 171 31.5t137.5 83t91.5 113t34 121.5h492zM1956 -900q-319 0 -607.5 97t-529 273.5t-417 417t-273.5 529t-97 607.5t97 607.5t273.5 529t417 417t529 273.5t607.5 97t607.5 -97
t529 -273.5t417 -417t273.5 -529t97 -607.5t-97 -607.5t-273.5 -529t-417 -417t-529 -273.5t-607.5 -97zM1956 -598q270 0 513 82t445.5 231t351 351.5t230.5 445.5t82 512t-82 512t-230.5 446t-351 351.5t-445.5 230.5t-513 82q-269 0 -512 -82t-445.5 -230.5
t-351.5 -351.5t-230.5 -446t-81.5 -512t81.5 -512t230.5 -445.5t351.5 -351.5t445.5 -231t512 -82z" />
    <glyph glyph-name="uniE12D" unicode="&#x20dd;&#xe06d;" horiz-adv-x="3912" 
d="M1143 602h499q3 -68 45 -119.5t111 -80t153 -28.5q90 0 157 31.5t104.5 88t37.5 130.5q0 76 -40.5 133t-116.5 89t-182 32h-241v334l436 424v13h-860v399h1456v-356l-552 -520v-16q172 -19 290.5 -75t190.5 -136t105 -173t33 -186q0 -184 -108 -322t-293 -215t-418 -77
q-238 0 -418.5 80t-282.5 222t-106 328zM1956 -900q-319 0 -607.5 97t-529 273.5t-417 417t-273.5 529t-97 607.5t97 607.5t273.5 529t417 417t529 273.5t607.5 97t607.5 -97t529 -273.5t417 -417t273.5 -529t97 -607.5t-97 -607.5t-273.5 -529t-417 -417t-529 -273.5
t-607.5 -97zM1956 -598q270 0 513 82t445.5 231t351 351.5t230.5 445.5t82 512t-82 512t-230.5 446t-351 351.5t-445.5 230.5t-513 82q-269 0 -512 -82t-445.5 -230.5t-351.5 -351.5t-230.5 -446t-81.5 -512t81.5 -512t230.5 -445.5t351.5 -351.5t445.5 -231t512 -82z" />
    <glyph glyph-name="uniE12E" unicode="&#x20dd;&#xe06e;" horiz-adv-x="3912" 
d="M1059 340v386l746 1322h474l-729 -1302v-16h1216v-390h-1707zM2048 0v454l16 173v653h447v-1280h-463zM1956 -900q-319 0 -607.5 97t-529 273.5t-417 417t-273.5 529t-97 607.5t97 607.5t273.5 529t417 417t529 273.5t607.5 97t607.5 -97t529 -273.5t417 -417t273.5 -529
t97 -607.5t-97 -607.5t-273.5 -529t-417 -417t-529 -273.5t-607.5 -97zM1956 -598q270 0 513 82t445.5 231t351 351.5t230.5 445.5t82 512t-82 512t-230.5 446t-351 351.5t-445.5 230.5t-513 82q-269 0 -512 -82t-445.5 -230.5t-351.5 -351.5t-230.5 -446t-81.5 -512
t81.5 -512t230.5 -445.5t351.5 -351.5t445.5 -231t512 -82z" />
    <glyph glyph-name="uniE12F" unicode="&#x20dd;&#xe06f;" horiz-adv-x="3912" 
d="M1181 670q0 112 28.5 220.5t84.5 219t138 229.5l479 709h490l-483 -708q39 7 80 12.5t85 5.5q189 0 335.5 -84t229.5 -235t83 -350q0 -217 -99 -378.5t-272 -250t-394 -88.5q-211 0 -389.5 80.5t-287.5 236t-108 381.5zM1666 670q0 -93 37.5 -165t104 -113t154.5 -41
q87 0 153 41t103 113t37 165t-38 164.5t-104 112.5t-151 41q-88 0 -154.5 -40.5t-104 -112.5t-37.5 -165zM1956 -900q-319 0 -607.5 97t-529 273.5t-417 417t-273.5 529t-97 607.5t97 607.5t273.5 529t417 417t529 273.5t607.5 97t607.5 -97t529 -273.5t417 -417t273.5 -529
t97 -607.5t-97 -607.5t-273.5 -529t-417 -417t-529 -273.5t-607.5 -97zM1956 -598q270 0 513 82t445.5 231t351 351.5t230.5 445.5t82 512t-82 512t-230.5 446t-351 351.5t-445.5 230.5t-513 82q-269 0 -512 -82t-445.5 -230.5t-351.5 -351.5t-230.5 -446t-81.5 -512
t81.5 -512t230.5 -445.5t351.5 -351.5t445.5 -231t512 -82z" />
    <glyph glyph-name="uniE130" unicode="&#x20dd;&#xe070;" horiz-adv-x="3912" 
d="M1180 1359q0 217 99 378.5t271.5 250t395.5 88.5q209 0 387.5 -79.5t288 -235t109.5 -384.5q-1 -111 -30 -219.5t-85 -219t-136 -229.5l-480 -709h-489l482 711q-38 -9 -79.5 -15t-85.5 -6q-190 0 -336.5 84t-229 235t-82.5 350zM1656 1378q0 -93 37.5 -165t103.5 -112.5
t152 -40.5q87 0 153.5 40.5t104.5 112.5t38 165t-37.5 165t-104.5 113t-154 41q-86 0 -152 -41t-103.5 -113t-37.5 -165zM1956 -900q-319 0 -607.5 97t-529 273.5t-417 417t-273.5 529t-97 607.5t97 607.5t273.5 529t417 417t529 273.5t607.5 97t607.5 -97t529 -273.5
t417 -417t273.5 -529t97 -607.5t-97 -607.5t-273.5 -529t-417 -417t-529 -273.5t-607.5 -97zM1956 -598q270 0 513 82t445.5 231t351 351.5t230.5 445.5t82 512t-82 512t-230.5 446t-351 351.5t-445.5 230.5t-513 82q-269 0 -512 -82t-445.5 -230.5t-351.5 -351.5
t-230.5 -446t-81.5 -512t81.5 -512t230.5 -445.5t351.5 -351.5t445.5 -231t512 -82z" />
    <glyph glyph-name="uniE131" unicode="&#x21;&#x20dd;" horiz-adv-x="3912" 
d="M2208 2048l-46 -1421h-411l-46 1421h503zM1956 -29q-107 0 -183.5 76t-76.5 184q0 106 76.5 181.5t183.5 75.5q103 0 181.5 -75.5t78.5 -181.5q0 -72 -36.5 -131t-95 -94t-128.5 -35zM1956 -900q-319 0 -607.5 97t-529 273.5t-417 417t-273.5 529t-97 607.5t97 607.5
t273.5 529t417 417t529 273.5t607.5 97t607.5 -97t529 -273.5t417 -417t273.5 -529t97 -607.5t-97 -607.5t-273.5 -529t-417 -417t-529 -273.5t-607.5 -97zM1956 -598q270 0 513 82t445.5 231t351 351.5t230.5 445.5t82 512t-82 512t-230.5 446t-351 351.5t-445.5 230.5
t-513 82q-269 0 -512 -82t-445.5 -230.5t-351.5 -351.5t-230.5 -446t-81.5 -512t81.5 -512t230.5 -445.5t351.5 -351.5t445.5 -231t512 -82z" />
    <glyph glyph-name="uniE132" unicode="&#x3f;&#x20dd;" horiz-adv-x="3912" 
d="M1712 627v41q0 170 28.5 271t83.5 162.5t134 112.5q63 40 112.5 81.5t78.5 89.5t29 109q0 59 -28 104t-76.5 69.5t-107.5 24.5t-110.5 -27t-84 -76.5t-33.5 -119.5h-460q3 210 97.5 344t250.5 198.5t344 64.5q206 0 366.5 -64t252.5 -189t92 -306q0 -119 -40 -210
t-111.5 -160.5t-167.5 -126.5q-75 -44 -124.5 -92t-74.5 -109.5t-25 -150.5v-41h-426zM1933 -29q-108 0 -184.5 76t-75.5 184q-1 106 75.5 181.5t184.5 75.5q103 0 181 -75.5t79 -181.5q-1 -72 -37.5 -131t-95 -94t-127.5 -35zM1956 -900q-319 0 -607.5 97t-529 273.5
t-417 417t-273.5 529t-97 607.5t97 607.5t273.5 529t417 417t529 273.5t607.5 97t607.5 -97t529 -273.5t417 -417t273.5 -529t97 -607.5t-97 -607.5t-273.5 -529t-417 -417t-529 -273.5t-607.5 -97zM1956 -598q270 0 513 82t445.5 231t351 351.5t230.5 445.5t82 512t-82 512
t-230.5 446t-351 351.5t-445.5 230.5t-513 82q-269 0 -512 -82t-445.5 -230.5t-351.5 -351.5t-230.5 -446t-81.5 -512t81.5 -512t230.5 -445.5t351.5 -351.5t445.5 -231t512 -82z" />
    <glyph glyph-name="uniE133" unicode="&#x23;&#x20dd;" horiz-adv-x="3912" 
d="M1968 0l336 2048h360l-336 -2048h-360zM1055 488l61 360h1624l-61 -360h-1624zM1248 0l336 2048h360l-336 -2048h-360zM1172 1200l61 360h1624l-61 -360h-1624zM1956 -900q-319 0 -607.5 97t-529 273.5t-417 417t-273.5 529t-97 607.5t97 607.5t273.5 529t417 417
t529 273.5t607.5 97t607.5 -97t529 -273.5t417 -417t273.5 -529t97 -607.5t-97 -607.5t-273.5 -529t-417 -417t-529 -273.5t-607.5 -97zM1956 -598q270 0 513 82t445.5 231t351 351.5t230.5 445.5t82 512t-82 512t-230.5 446t-351 351.5t-445.5 230.5t-513 82
q-269 0 -512 -82t-445.5 -230.5t-351.5 -351.5t-230.5 -446t-81.5 -512t81.5 -512t230.5 -445.5t351.5 -351.5t445.5 -231t512 -82z" />
    <glyph glyph-name="uniE134" unicode="&#x2d;&#x20dd;" horiz-adv-x="3912" 
d="M2430 1213v-377h-948v377h948zM1956 -900q-319 0 -607.5 97t-529 273.5t-417 417t-273.5 529t-97 607.5t97 607.5t273.5 529t417 417t529 273.5t607.5 97t607.5 -97t529 -273.5t417 -417t273.5 -529t97 -607.5t-97 -607.5t-273.5 -529t-417 -417t-529 -273.5t-607.5 -97z
M1956 -598q270 0 513 82t445.5 231t351 351.5t230.5 445.5t82 512t-82 512t-230.5 446t-351 351.5t-445.5 230.5t-513 82q-269 0 -512 -82t-445.5 -230.5t-351.5 -351.5t-230.5 -446t-81.5 -512t81.5 -512t230.5 -445.5t351.5 -351.5t445.5 -231t512 -82z" />
    <glyph glyph-name="uniE135" unicode="&#x3c;&#x20dd;" horiz-adv-x="3912" 
d="M1192 810v416l1448 608v-455l-956 -357l15 22v-53l-15 23l956 -358v-454zM1956 -900q-319 0 -607.5 97t-529 273.5t-417 417t-273.5 529t-97 607.5t97 607.5t273.5 529t417 417t529 273.5t607.5 97t607.5 -97t529 -273.5t417 -417t273.5 -529t97 -607.5t-97 -607.5
t-273.5 -529t-417 -417t-529 -273.5t-607.5 -97zM1956 -598q270 0 513 82t445.5 231t351 351.5t230.5 445.5t82 512t-82 512t-230.5 446t-351 351.5t-445.5 230.5t-513 82q-269 0 -512 -82t-445.5 -230.5t-351.5 -351.5t-230.5 -446t-81.5 -512t81.5 -512t230.5 -445.5
t351.5 -351.5t445.5 -231t512 -82z" />
    <glyph glyph-name="uniE136" unicode="&#x3e;&#x20dd;" horiz-adv-x="3912" 
d="M2720 810l-1448 -608v454l956 358l-14 -23v53l14 -22l-956 357v455l1448 -608v-416zM1956 -900q-319 0 -607.5 97t-529 273.5t-417 417t-273.5 529t-97 607.5t97 607.5t273.5 529t417 417t529 273.5t607.5 97t607.5 -97t529 -273.5t417 -417t273.5 -529t97 -607.5
t-97 -607.5t-273.5 -529t-417 -417t-529 -273.5t-607.5 -97zM1956 -598q270 0 513 82t445.5 231t351 351.5t230.5 445.5t82 512t-82 512t-230.5 446t-351 351.5t-445.5 230.5t-513 82q-269 0 -512 -82t-445.5 -230.5t-351.5 -351.5t-230.5 -446t-81.5 -512t81.5 -512
t230.5 -445.5t351.5 -351.5t445.5 -231t512 -82z" />
    <glyph glyph-name="uniE137" unicode="&#x3d;&#x20dd;" horiz-adv-x="3912" 
d="M1241 1167v401h1431v-401h-1431zM1241 479v401h1431v-401h-1431zM1956 -900q-319 0 -607.5 97t-529 273.5t-417 417t-273.5 529t-97 607.5t97 607.5t273.5 529t417 417t529 273.5t607.5 97t607.5 -97t529 -273.5t417 -417t273.5 -529t97 -607.5t-97 -607.5t-273.5 -529
t-417 -417t-529 -273.5t-607.5 -97zM1956 -598q270 0 513 82t445.5 231t351 351.5t230.5 445.5t82 512t-82 512t-230.5 446t-351 351.5t-445.5 230.5t-513 82q-269 0 -512 -82t-445.5 -230.5t-351.5 -351.5t-230.5 -446t-81.5 -512t81.5 -512t230.5 -445.5t351.5 -351.5
t445.5 -231t512 -82z" />
    <glyph glyph-name="uniE138" unicode="&#x20dd;&#x2191;" horiz-adv-x="3912" 
d="M1770 0v1358l-501 -503l-260 258l949 947l947 -947l-256 -258l-503 503v-1358h-376zM1956 -900q-319 0 -607.5 97t-529 273.5t-417 417t-273.5 529t-97 607.5t97 607.5t273.5 529t417 417t529 273.5t607.5 97t607.5 -97t529 -273.5t417 -417t273.5 -529t97 -607.5
t-97 -607.5t-273.5 -529t-417 -417t-529 -273.5t-607.5 -97zM1956 -598q270 0 513 82t445.5 231t351 351.5t230.5 445.5t82 512t-82 512t-230.5 446t-351 351.5t-445.5 230.5t-513 82q-269 0 -512 -82t-445.5 -230.5t-351.5 -351.5t-230.5 -446t-81.5 -512t81.5 -512
t230.5 -445.5t351.5 -351.5t445.5 -231t512 -82z" />
    <glyph glyph-name="uniE139" unicode="&#x20dd;&#x2193;" horiz-adv-x="3912" 
d="M2144 2048v-1358l501 503l260 -258l-949 -947l-947 947l256 258l503 -503v1358h376zM1956 -900q-319 0 -607.5 97t-529 273.5t-417 417t-273.5 529t-97 607.5t97 607.5t273.5 529t417 417t529 273.5t607.5 97t607.5 -97t529 -273.5t417 -417t273.5 -529t97 -607.5
t-97 -607.5t-273.5 -529t-417 -417t-529 -273.5t-607.5 -97zM1956 -598q270 0 513 82t445.5 231t351 351.5t230.5 445.5t82 512t-82 512t-230.5 446t-351 351.5t-445.5 230.5t-513 82q-269 0 -512 -82t-445.5 -230.5t-351.5 -351.5t-230.5 -446t-81.5 -512t81.5 -512
t230.5 -445.5t351.5 -351.5t445.5 -231t512 -82z" />
    <glyph glyph-name="uniE13A" unicode="&#x20dd;&#x2190;" horiz-adv-x="3912" 
d="M1973 -21l-1045 1045l1045 1045l258 -256l-601 -601h1356v-376h-1356l601 -600zM1956 -900q-319 0 -607.5 97t-529 273.5t-417 417t-273.5 529t-97 607.5t97 607.5t273.5 529t417 417t529 273.5t607.5 97t607.5 -97t529 -273.5t417 -417t273.5 -529t97 -607.5t-97 -607.5
t-273.5 -529t-417 -417t-529 -273.5t-607.5 -97zM1956 -598q270 0 513 82t445.5 231t351 351.5t230.5 445.5t82 512t-82 512t-230.5 446t-351 351.5t-445.5 230.5t-513 82q-269 0 -512 -82t-445.5 -230.5t-351.5 -351.5t-230.5 -446t-81.5 -512t81.5 -512t230.5 -445.5
t351.5 -351.5t445.5 -231t512 -82z" />
    <glyph glyph-name="uniE13B" unicode="&#x20dd;&#x2192;" horiz-adv-x="3912" 
d="M1941 -21l-258 256l601 601h-1356v376h1356l-601 600l258 257l1045 -1045zM1956 -900q-319 0 -607.5 97t-529 273.5t-417 417t-273.5 529t-97 607.5t97 607.5t273.5 529t417 417t529 273.5t607.5 97t607.5 -97t529 -273.5t417 -417t273.5 -529t97 -607.5t-97 -607.5
t-273.5 -529t-417 -417t-529 -273.5t-607.5 -97zM1956 -598q270 0 513 82t445.5 231t351 351.5t230.5 445.5t82 512t-82 512t-230.5 446t-351 351.5t-445.5 230.5t-513 82q-269 0 -512 -82t-445.5 -230.5t-351.5 -351.5t-230.5 -446t-81.5 -512t81.5 -512t230.5 -445.5
t351.5 -351.5t445.5 -231t512 -82z" />
    <glyph glyph-name="uniE13C" unicode="&#x20dd;&#x2713;" horiz-adv-x="3912" 
d="M940 956l325 325l442 -433l1005 1001l326 -325l-1331 -1324zM1956 -900q-319 0 -607.5 97t-529 273.5t-417 417t-273.5 529t-97 607.5t97 607.5t273.5 529t417 417t529 273.5t607.5 97t607.5 -97t529 -273.5t417 -417t273.5 -529t97 -607.5t-97 -607.5t-273.5 -529
t-417 -417t-529 -273.5t-607.5 -97zM1956 -598q270 0 513 82t445.5 231t351 351.5t230.5 445.5t82 512t-82 512t-230.5 446t-351 351.5t-445.5 230.5t-513 82q-269 0 -512 -82t-445.5 -230.5t-351.5 -351.5t-230.5 -446t-81.5 -512t81.5 -512t230.5 -445.5t351.5 -351.5
t445.5 -231t512 -82z" />
    <glyph glyph-name="uniE13D" unicode="&#x20dd;&#x2717;" horiz-adv-x="3912" 
d="M1462 206l-326 325l1318 1311l325 -326zM2450 206l-1317 1310l325 326l1318 -1311zM1956 -900q-319 0 -607.5 97t-529 273.5t-417 417t-273.5 529t-97 607.5t97 607.5t273.5 529t417 417t529 273.5t607.5 97t607.5 -97t529 -273.5t417 -417t273.5 -529t97 -607.5
t-97 -607.5t-273.5 -529t-417 -417t-529 -273.5t-607.5 -97zM1956 -598q270 0 513 82t445.5 231t351 351.5t230.5 445.5t82 512t-82 512t-230.5 446t-351 351.5t-445.5 230.5t-513 82q-269 0 -512 -82t-445.5 -230.5t-351.5 -351.5t-230.5 -446t-81.5 -512t81.5 -512
t230.5 -445.5t351.5 -351.5t445.5 -231t512 -82z" />
    <glyph glyph-name="uniE13E" unicode="&#x30;&#x20de;" horiz-adv-x="3912" 
d="M1956 -50q-268 0 -462 127.5t-299 367t-104 576.5t105.5 572.5t298 359t461.5 123.5t462.5 -123.5t299.5 -359.5t104 -572q0 -338 -105 -578t-298.5 -366.5t-462.5 -126.5zM1956 355q160 0 259 163.5t98 502.5q0 222 -45 366.5t-125 215.5t-187 71q-159 0 -257 -160.5
t-99 -492.5q-1 -225 43.5 -373t125.5 -220.5t187 -72.5zM444 -832q-168 0 -256 88t-88 256v3024q0 168 88 256t256 88h3024q168 0 256 -88t88 -256v-3024q0 -168 -88 -256t-256 -88h-3024zM431 -530h3051q13 0 20.5 8t7.5 21v3050q0 14 -7.5 21.5t-20.5 7.5h-3051
q-12 0 -20 -7.5t-8 -21.5v-3050q0 -13 8 -21t20 -8z" />
    <glyph glyph-name="uniE13F" unicode="&#x31;&#x20de;" horiz-adv-x="3912" 
d="M2254 2048v-2048h-494v1586h-12l-458 -280v428l505 314h459zM444 -832q-168 0 -256 88t-88 256v3024q0 168 88 256t256 88h3024q168 0 256 -88t88 -256v-3024q0 -168 -88 -256t-256 -88h-3024zM431 -530h3051q13 0 20.5 8t7.5 21v3050q0 14 -7.5 21.5t-20.5 7.5h-3051
q-12 0 -20 -7.5t-8 -21.5v-3050q0 -13 8 -21t20 -8z" />
    <glyph glyph-name="uniE140" unicode="&#x32;&#x20de;" horiz-adv-x="3912" 
d="M1214 0v356l747 654q84 76 143 139.5t90 128t31 140.5q0 85 -37 145.5t-102 93.5t-149 33q-85 0 -149 -34.5t-99.5 -99.5t-35.5 -158h-469q0 209 94 361t264.5 234.5t396.5 82.5q233 0 405 -78t266.5 -217.5t94.5 -323.5q0 -117 -47 -232t-168.5 -254t-344.5 -333
l-245 -226v-13h830v-399h-1516zM444 -832q-168 0 -256 88t-88 256v3024q0 168 88 256t256 88h3024q168 0 256 -88t88 -256v-3024q0 -168 -88 -256t-256 -88h-3024zM431 -530h3051q13 0 20.5 8t7.5 21v3050q0 14 -7.5 21.5t-20.5 7.5h-3051q-12 0 -20 -7.5t-8 -21.5v-3050
q0 -13 8 -21t20 -8z" />
    <glyph glyph-name="uniE141" unicode="&#x33;&#x20de;" horiz-adv-x="3912" 
d="M1941 -28q-234 0 -414.5 80.5t-284.5 222.5t-106 327h498q3 -67 43 -118.5t109 -80.5t157 -29t155.5 31.5t105.5 87t37 127.5q1 72 -41 128t-118.5 87t-180.5 31h-199v352h199q91 0 160.5 30t108.5 84.5t38 125.5q1 69 -32.5 121.5t-93 81.5t-137.5 29q-82 0 -148.5 -29
t-105.5 -82t-41 -123h-473q2 183 102 322.5t272.5 218.5t393.5 79q220 0 387 -77t260 -209.5t93 -299.5q1 -173 -112.5 -285t-291.5 -138v-16q238 -28 359.5 -154t120.5 -315q0 -178 -104.5 -315.5t-290 -216t-425.5 -78.5zM444 -832q-168 0 -256 88t-88 256v3024
q0 168 88 256t256 88h3024q168 0 256 -88t88 -256v-3024q0 -168 -88 -256t-256 -88h-3024zM431 -530h3051q13 0 20.5 8t7.5 21v3050q0 14 -7.5 21.5t-20.5 7.5h-3051q-12 0 -20 -7.5t-8 -21.5v-3050q0 -13 8 -21t20 -8z" />
    <glyph glyph-name="uniE142" unicode="&#x34;&#x20de;" horiz-adv-x="3912" 
d="M1055 340v386l839 1322h343v-524h-199l-491 -778v-16h1215v-390h-1707zM2044 0v458l10 169v1421h463v-2048h-473zM444 -832q-168 0 -256 88t-88 256v3024q0 168 88 256t256 88h3024q168 0 256 -88t88 -256v-3024q0 -168 -88 -256t-256 -88h-3024zM431 -530h3051
q13 0 20.5 8t7.5 21v3050q0 14 -7.5 21.5t-20.5 7.5h-3051q-12 0 -20 -7.5t-8 -21.5v-3050q0 -13 8 -21t20 -8z" />
    <glyph glyph-name="uniE143" unicode="&#x35;&#x20de;" horiz-adv-x="3912" 
d="M1947 -28q-224 0 -398 81t-274.5 223t-104.5 326h480q6 -113 92 -181.5t205 -68.5q93 0 165 41t113 115.5t40 171.5q1 99 -40.5 173t-114 115.5t-166.5 41.5q-89 1 -168.5 -39t-120.5 -109l-437 82l89 1104h1314v-399h-907l-47 -483h12q51 85 164.5 140.5t258.5 55.5
q184 0 328.5 -85.5t228 -236.5t83.5 -346q0 -211 -99.5 -374t-278 -255.5t-417.5 -92.5zM444 -832q-168 0 -256 88t-88 256v3024q0 168 88 256t256 88h3024q168 0 256 -88t88 -256v-3024q0 -168 -88 -256t-256 -88h-3024zM431 -530h3051q13 0 20.5 8t7.5 21v3050
q0 14 -7.5 21.5t-20.5 7.5h-3051q-12 0 -20 -7.5t-8 -21.5v-3050q0 -13 8 -21t20 -8z" />
    <glyph glyph-name="uniE144" unicode="&#x36;&#x20de;" horiz-adv-x="3912" 
d="M1966 -28q-168 0 -321.5 54.5t-273 174t-188.5 314t-70 474.5q1 256 62 458.5t174.5 344.5t272 216.5t354.5 74.5q215 0 379.5 -83.5t263.5 -226t117 -317.5h-487q-22 103 -96.5 154.5t-176.5 51.5q-188 0 -280.5 -164t-94.5 -443h13q42 92 121 158t181.5 101.5
t217.5 35.5q184 0 325 -85t221 -232.5t79 -337.5q1 -214 -100 -377.5t-279.5 -254.5t-413.5 -91zM1963 352q91 0 163 43t113 117t40 167q1 94 -39.5 167t-112 116t-163.5 43q-67 0 -125 -25t-100.5 -69.5t-66.5 -104t-25 -128.5q1 -91 42 -165t112 -117.5t162 -43.5z
M444 -832q-168 0 -256 88t-88 256v3024q0 168 88 256t256 88h3024q168 0 256 -88t88 -256v-3024q0 -168 -88 -256t-256 -88h-3024zM431 -530h3051q13 0 20.5 8t7.5 21v3050q0 14 -7.5 21.5t-20.5 7.5h-3051q-12 0 -20 -7.5t-8 -21.5v-3050q0 -13 8 -21t20 -8z" />
    <glyph glyph-name="uniE145" unicode="&#x37;&#x20de;" horiz-adv-x="3912" 
d="M1397 0l826 1636v13h-966v399h1478v-402l-829 -1646h-509zM444 -832q-168 0 -256 88t-88 256v3024q0 168 88 256t256 88h3024q168 0 256 -88t88 -256v-3024q0 -168 -88 -256t-256 -88h-3024zM431 -530h3051q13 0 20.5 8t7.5 21v3050q0 14 -7.5 21.5t-20.5 7.5h-3051
q-12 0 -20 -7.5t-8 -21.5v-3050q0 -13 8 -21t20 -8z" />
    <glyph glyph-name="uniE146" unicode="&#x38;&#x20de;" horiz-adv-x="3912" 
d="M1956 -28q-239 0 -426.5 76.5t-294 208t-106.5 297.5q0 127 61 233t165.5 176.5t233.5 90.5v16q-169 31 -276.5 157t-107.5 295q0 160 97.5 285t267 197t386.5 72t386.5 -72t267 -197t97.5 -285q0 -170 -108.5 -295.5t-275.5 -156.5v-16q128 -20 232.5 -90.5t166 -176.5
t61.5 -233q0 -166 -107 -297.5t-293.5 -208t-426.5 -76.5zM1956 323q91 0 160 34.5t108.5 96.5t39.5 140q0 80 -40 142t-109.5 97.5t-158.5 35.5q-88 0 -158 -35.5t-110 -97.5t-40 -142q0 -78 39.5 -139.5t109 -96.5t159.5 -35zM1956 1218q78 0 138.5 32t95 89t34.5 129
t-34.5 127t-94.5 86.5t-139 31.5q-78 0 -139 -31.5t-95 -86.5t-34 -127t34.5 -128.5t95.5 -89t138 -32.5zM444 -832q-168 0 -256 88t-88 256v3024q0 168 88 256t256 88h3024q168 0 256 -88t88 -256v-3024q0 -168 -88 -256t-256 -88h-3024zM431 -530h3051q13 0 20.5 8t7.5 21
v3050q0 14 -7.5 21.5t-20.5 7.5h-3051q-12 0 -20 -7.5t-8 -21.5v-3050q0 -13 8 -21t20 -8z" />
    <glyph glyph-name="uniE147" unicode="&#x39;&#x20de;" horiz-adv-x="3912" 
d="M1938 2083q168 0 321 -54.5t273 -174t189 -314t69 -474.5q0 -256 -61.5 -458.5t-174 -344.5t-271.5 -216.5t-355 -74.5q-216 0 -380.5 83.5t-263 225.5t-117.5 318h487q23 -102 97 -153.5t177 -51.5q188 0 281 163t93 443h-12q-43 -92 -121.5 -158t-181.5 -101t-217 -35
q-184 0 -325 84t-221 232t-79 338q-1 214 99 377t279 255t415 91zM1941 1703q-92 0 -163.5 -43t-112.5 -117t-40 -167q-1 -93 39.5 -166.5t112 -116.5t162.5 -43q68 0 125.5 25.5t100.5 69.5t67 103.5t25 128.5q-1 91 -42 165t-112.5 117.5t-161.5 43.5zM444 -832
q-168 0 -256 88t-88 256v3024q0 168 88 256t256 88h3024q168 0 256 -88t88 -256v-3024q0 -168 -88 -256t-256 -88h-3024zM431 -530h3051q13 0 20.5 8t7.5 21v3050q0 14 -7.5 21.5t-20.5 7.5h-3051q-12 0 -20 -7.5t-8 -21.5v-3050q0 -13 8 -21t20 -8z" />
    <glyph glyph-name="uniE148" unicode="&#x20de;&#xe06b;" horiz-adv-x="3912" 
d="M2255 1826l176 -78l-781 -1521l-168 87zM1956 -47q-268 1 -462 128t-299 367t-104 576q1 337 105.5 573t298 359t461.5 123t462.5 -123.5t299.5 -359.5t104 -572q0 -338 -105 -578t-298.5 -366.5t-462.5 -126.5zM1956 358q160 0 259 164t98 502q0 222 -45 366.5t-125 216
t-187 71.5q-159 0 -257 -160.5t-99 -493.5q-1 -225 43.5 -373t125.5 -220.5t187 -72.5zM444 -832q-168 0 -256 88t-88 256v3024q0 168 88 256t256 88h3024q168 0 256 -88t88 -256v-3024q0 -168 -88 -256t-256 -88h-3024zM431 -530h3051q13 0 20.5 8t7.5 21v3050
q0 14 -7.5 21.5t-20.5 7.5h-3051q-12 0 -20 -7.5t-8 -21.5v-3050q0 -13 8 -21t20 -8z" />
    <glyph glyph-name="uniE149" unicode="&#x20de;&#xe06c;" horiz-adv-x="3912" 
d="M2287 2048v-2048h-494v1461h-19q-26 -35 -80 -70.5t-137.5 -58.5t-195.5 -23v390q92 0 171 31.5t137.5 83t91.5 113t34 121.5h492zM444 -832q-168 0 -256 88t-88 256v3024q0 168 88 256t256 88h3024q168 0 256 -88t88 -256v-3024q0 -168 -88 -256t-256 -88h-3024z
M431 -530h3051q13 0 20.5 8t7.5 21v3050q0 14 -7.5 21.5t-20.5 7.5h-3051q-12 0 -20 -7.5t-8 -21.5v-3050q0 -13 8 -21t20 -8z" />
    <glyph glyph-name="uniE14A" unicode="&#x20de;&#xe06d;" horiz-adv-x="3912" 
d="M1127 602h499q3 -68 45 -119.5t111 -80t153 -28.5q90 0 157 31.5t104.5 88t37.5 130.5q0 76 -40.5 133t-116.5 89t-182 32h-241v334l436 424v13h-860v399h1456v-356l-552 -520v-16q172 -19 290.5 -75t190.5 -136t105 -173t33 -186q0 -184 -108 -322t-293 -215t-418 -77
q-238 0 -418.5 80t-282.5 222t-106 328zM444 -832q-168 0 -256 88t-88 256v3024q0 168 88 256t256 88h3024q168 0 256 -88t88 -256v-3024q0 -168 -88 -256t-256 -88h-3024zM431 -530h3051q13 0 20.5 8t7.5 21v3050q0 14 -7.5 21.5t-20.5 7.5h-3051q-12 0 -20 -7.5t-8 -21.5
v-3050q0 -13 8 -21t20 -8z" />
    <glyph glyph-name="uniE14B" unicode="&#x20de;&#xe06e;" horiz-adv-x="3912" 
d="M1059 340v386l746 1322h474l-729 -1302v-16h1216v-390h-1707zM2048 0v454l16 173v653h447v-1280h-463zM444 -832q-168 0 -256 88t-88 256v3024q0 168 88 256t256 88h3024q168 0 256 -88t88 -256v-3024q0 -168 -88 -256t-256 -88h-3024zM431 -530h3051q13 0 20.5 8t7.5 21
v3050q0 14 -7.5 21.5t-20.5 7.5h-3051q-12 0 -20 -7.5t-8 -21.5v-3050q0 -13 8 -21t20 -8z" />
    <glyph glyph-name="uniE14C" unicode="&#x20de;&#xe06f;" horiz-adv-x="3912" 
d="M1181 670q0 112 28.5 220.5t84.5 219t138 229.5l479 709h490l-483 -708q39 7 80 12.5t85 5.5q189 0 335.5 -84t229.5 -235t83 -350q0 -217 -99 -378.5t-272 -250t-394 -88.5q-211 0 -389.5 80.5t-287.5 236t-108 381.5zM1666 670q0 -93 37.5 -165t104 -113t154.5 -41
q87 0 153 41t103 113t37 165t-38 164.5t-104 112.5t-151 41q-88 0 -154.5 -40.5t-104 -112.5t-37.5 -165zM444 -832q-168 0 -256 88t-88 256v3024q0 168 88 256t256 88h3024q168 0 256 -88t88 -256v-3024q0 -168 -88 -256t-256 -88h-3024zM431 -530h3051q13 0 20.5 8t7.5 21
v3050q0 14 -7.5 21.5t-20.5 7.5h-3051q-12 0 -20 -7.5t-8 -21.5v-3050q0 -13 8 -21t20 -8z" />
    <glyph glyph-name="uniE14D" unicode="&#x20de;&#xe070;" horiz-adv-x="3912" 
d="M1180 1359q0 217 99 378.5t271.5 250t395.5 88.5q209 0 387.5 -79.5t288 -235t109.5 -384.5q-1 -111 -30 -219.5t-85 -219t-136 -229.5l-480 -709h-489l482 711q-38 -9 -79.5 -15t-85.5 -6q-190 0 -336.5 84t-229 235t-82.5 350zM1656 1378q0 -93 37.5 -165t103.5 -112.5
t152 -40.5q87 0 153.5 40.5t104.5 112.5t38 165t-37.5 165t-104.5 113t-154 41q-86 0 -152 -41t-103.5 -113t-37.5 -165zM444 -832q-168 0 -256 88t-88 256v3024q0 168 88 256t256 88h3024q168 0 256 -88t88 -256v-3024q0 -168 -88 -256t-256 -88h-3024zM431 -530h3051
q13 0 20.5 8t7.5 21v3050q0 14 -7.5 21.5t-20.5 7.5h-3051q-12 0 -20 -7.5t-8 -21.5v-3050q0 -13 8 -21t20 -8z" />
    <glyph glyph-name="uniE14E" unicode="&#x21;&#x20de;" horiz-adv-x="3912" 
d="M2208 2048l-46 -1421h-411l-46 1421h503zM1956 -29q-107 0 -183.5 76t-76.5 184q0 106 76.5 181.5t183.5 75.5q103 0 181.5 -75.5t78.5 -181.5q0 -72 -36.5 -131t-95 -94t-128.5 -35zM444 -832q-168 0 -256 88t-88 256v3024q0 168 88 256t256 88h3024q168 0 256 -88
t88 -256v-3024q0 -168 -88 -256t-256 -88h-3024zM431 -530h3051q13 0 20.5 8t7.5 21v3050q0 14 -7.5 21.5t-20.5 7.5h-3051q-12 0 -20 -7.5t-8 -21.5v-3050q0 -13 8 -21t20 -8z" />
    <glyph glyph-name="uniE14F" unicode="&#x3f;&#x20de;" horiz-adv-x="3912" 
d="M1712 627v41q0 170 28.5 271t83.5 162.5t134 112.5q63 40 112.5 81.5t78.5 89.5t29 109q0 59 -28 104t-76.5 69.5t-107.5 24.5t-110.5 -27t-84 -76.5t-33.5 -119.5h-460q3 210 97.5 344t250.5 198.5t344 64.5q206 0 366.5 -64t252.5 -189t92 -306q0 -119 -40 -210
t-111.5 -160.5t-167.5 -126.5q-75 -44 -124.5 -92t-74.5 -109.5t-25 -150.5v-41h-426zM1933 -29q-108 0 -184.5 76t-75.5 184q-1 106 75.5 181.5t184.5 75.5q103 0 181 -75.5t79 -181.5q-1 -72 -37.5 -131t-95 -94t-127.5 -35zM444 -832q-168 0 -256 88t-88 256v3024
q0 168 88 256t256 88h3024q168 0 256 -88t88 -256v-3024q0 -168 -88 -256t-256 -88h-3024zM431 -530h3051q13 0 20.5 8t7.5 21v3050q0 14 -7.5 21.5t-20.5 7.5h-3051q-12 0 -20 -7.5t-8 -21.5v-3050q0 -13 8 -21t20 -8z" />
    <glyph glyph-name="uniE150" unicode="&#x23;&#x20de;" horiz-adv-x="3912" 
d="M1968 0l336 2048h360l-336 -2048h-360zM1055 488l61 360h1624l-61 -360h-1624zM1248 0l336 2048h360l-336 -2048h-360zM1172 1200l61 360h1624l-61 -360h-1624zM444 -832q-168 0 -256 88t-88 256v3024q0 168 88 256t256 88h3024q168 0 256 -88t88 -256v-3024
q0 -168 -88 -256t-256 -88h-3024zM431 -530h3051q13 0 20.5 8t7.5 21v3050q0 14 -7.5 21.5t-20.5 7.5h-3051q-12 0 -20 -7.5t-8 -21.5v-3050q0 -13 8 -21t20 -8z" />
    <glyph glyph-name="uniE151" unicode="&#x2d;&#x20de;" horiz-adv-x="3912" 
d="M2430 1213v-377h-948v377h948zM444 -832q-168 0 -256 88t-88 256v3024q0 168 88 256t256 88h3024q168 0 256 -88t88 -256v-3024q0 -168 -88 -256t-256 -88h-3024zM431 -530h3051q13 0 20.5 8t7.5 21v3050q0 14 -7.5 21.5t-20.5 7.5h-3051q-12 0 -20 -7.5t-8 -21.5v-3050
q0 -13 8 -21t20 -8z" />
    <glyph glyph-name="uniE152" unicode="&#x3c;&#x20de;" horiz-adv-x="3912" 
d="M1192 810v416l1448 608v-455l-956 -357l15 22v-53l-15 23l956 -358v-454zM444 -832q-168 0 -256 88t-88 256v3024q0 168 88 256t256 88h3024q168 0 256 -88t88 -256v-3024q0 -168 -88 -256t-256 -88h-3024zM431 -530h3051q13 0 20.5 8t7.5 21v3050q0 14 -7.5 21.5
t-20.5 7.5h-3051q-12 0 -20 -7.5t-8 -21.5v-3050q0 -13 8 -21t20 -8z" />
    <glyph glyph-name="uniE153" unicode="&#x3e;&#x20de;" horiz-adv-x="3912" 
d="M2720 810l-1448 -608v454l956 358l-14 -23v53l14 -22l-956 357v455l1448 -608v-416zM444 -832q-168 0 -256 88t-88 256v3024q0 168 88 256t256 88h3024q168 0 256 -88t88 -256v-3024q0 -168 -88 -256t-256 -88h-3024zM431 -530h3051q13 0 20.5 8t7.5 21v3050
q0 14 -7.5 21.5t-20.5 7.5h-3051q-12 0 -20 -7.5t-8 -21.5v-3050q0 -13 8 -21t20 -8z" />
    <glyph glyph-name="uniE154" unicode="&#x3d;&#x20de;" horiz-adv-x="3912" 
d="M1241 1167v401h1431v-401h-1431zM1241 479v401h1431v-401h-1431zM444 -832q-168 0 -256 88t-88 256v3024q0 168 88 256t256 88h3024q168 0 256 -88t88 -256v-3024q0 -168 -88 -256t-256 -88h-3024zM431 -530h3051q13 0 20.5 8t7.5 21v3050q0 14 -7.5 21.5t-20.5 7.5
h-3051q-12 0 -20 -7.5t-8 -21.5v-3050q0 -13 8 -21t20 -8z" />
    <glyph glyph-name="uniE155" unicode="&#x2b;&#x20de;" horiz-adv-x="3912" 
d="M1755 296v1448h403v-1448h-403zM1232 818v403h1448v-403h-1448zM444 -832q-168 0 -256 88t-88 256v3024q0 168 88 256t256 88h3024q168 0 256 -88t88 -256v-3024q0 -168 -88 -256t-256 -88h-3024zM431 -530h3051q13 0 20.5 8t7.5 21v3050q0 14 -7.5 21.5t-20.5 7.5h-3051
q-12 0 -20 -7.5t-8 -21.5v-3050q0 -13 8 -21t20 -8z" />
    <glyph glyph-name="uniE156" unicode="&#x20de;&#x2212;" horiz-adv-x="3912" 
d="M2676 1225v-403h-1440v403h1440zM444 -832q-168 0 -256 88t-88 256v3024q0 168 88 256t256 88h3024q168 0 256 -88t88 -256v-3024q0 -168 -88 -256t-256 -88h-3024zM431 -530h3051q13 0 20.5 8t7.5 21v3050q0 14 -7.5 21.5t-20.5 7.5h-3051q-12 0 -20 -7.5t-8 -21.5
v-3050q0 -13 8 -21t20 -8z" />
    <glyph glyph-name="uniE157" unicode="&#xd7;&#x20de;" horiz-adv-x="3912" 
d="M2416 256l-1218 1215l299 302l1218 -1218zM1497 256l-299 299l1218 1218l299 -302zM444 -832q-168 0 -256 88t-88 256v3024q0 168 88 256t256 88h3024q168 0 256 -88t88 -256v-3024q0 -168 -88 -256t-256 -88h-3024zM431 -530h3051q13 0 20.5 8t7.5 21v3050
q0 14 -7.5 21.5t-20.5 7.5h-3051q-12 0 -20 -7.5t-8 -21.5v-3050q0 -13 8 -21t20 -8z" />
    <glyph glyph-name="uniE158" unicode="&#xf7;&#x20de;" horiz-adv-x="3912" 
d="M2676 1212v-377h-1440v377h1440zM1956 193q-109 0 -186 77t-77 186q0 108 77 184t186 76q108 0 184 -76t76 -184q0 -109 -76 -186t-184 -77zM1956 1332q-72 0 -132 35.5t-95.5 95t-35.5 132.5q0 108 77.5 183.5t185.5 75.5t184 -75.5t76 -183.5q0 -109 -76 -186t-184 -77
zM444 -832q-168 0 -256 88t-88 256v3024q0 168 88 256t256 88h3024q168 0 256 -88t88 -256v-3024q0 -168 -88 -256t-256 -88h-3024zM431 -530h3051q13 0 20.5 8t7.5 21v3050q0 14 -7.5 21.5t-20.5 7.5h-3051q-12 0 -20 -7.5t-8 -21.5v-3050q0 -13 8 -21t20 -8z" />
    <glyph glyph-name="uniE159" unicode="&#x20de;&#x2191;" horiz-adv-x="3912" 
d="M1770 0v1358l-501 -503l-260 258l949 947l947 -947l-256 -258l-503 503v-1358h-376zM444 -832q-168 0 -256 88t-88 256v3024q0 168 88 256t256 88h3024q168 0 256 -88t88 -256v-3024q0 -168 -88 -256t-256 -88h-3024zM431 -530h3051q13 0 20.5 8t7.5 21v3050
q0 14 -7.5 21.5t-20.5 7.5h-3051q-12 0 -20 -7.5t-8 -21.5v-3050q0 -13 8 -21t20 -8z" />
    <glyph glyph-name="uniE15A" unicode="&#x20de;&#x2193;" horiz-adv-x="3912" 
d="M2144 2048v-1358l501 503l260 -258l-949 -947l-947 947l256 258l503 -503v1358h376zM444 -832q-168 0 -256 88t-88 256v3024q0 168 88 256t256 88h3024q168 0 256 -88t88 -256v-3024q0 -168 -88 -256t-256 -88h-3024zM431 -530h3051q13 0 20.5 8t7.5 21v3050
q0 14 -7.5 21.5t-20.5 7.5h-3051q-12 0 -20 -7.5t-8 -21.5v-3050q0 -13 8 -21t20 -8z" />
    <glyph glyph-name="uniE15B" unicode="&#x20de;&#x2190;" horiz-adv-x="3912" 
d="M1973 -21l-1045 1045l1045 1045l258 -256l-601 -601h1356v-376h-1356l601 -600zM444 -832q-168 0 -256 88t-88 256v3024q0 168 88 256t256 88h3024q168 0 256 -88t88 -256v-3024q0 -168 -88 -256t-256 -88h-3024zM431 -530h3051q13 0 20.5 8t7.5 21v3050q0 14 -7.5 21.5
t-20.5 7.5h-3051q-12 0 -20 -7.5t-8 -21.5v-3050q0 -13 8 -21t20 -8z" />
    <glyph glyph-name="uniE15C" unicode="&#x20de;&#x2192;" horiz-adv-x="3912" 
d="M1941 -21l-258 256l601 601h-1356v376h1356l-601 600l258 257l1045 -1045zM444 -832q-168 0 -256 88t-88 256v3024q0 168 88 256t256 88h3024q168 0 256 -88t88 -256v-3024q0 -168 -88 -256t-256 -88h-3024zM431 -530h3051q13 0 20.5 8t7.5 21v3050q0 14 -7.5 21.5
t-20.5 7.5h-3051q-12 0 -20 -7.5t-8 -21.5v-3050q0 -13 8 -21t20 -8z" />
    <glyph glyph-name="uniE15D" unicode="&#x20de;&#x2713;" horiz-adv-x="3912" 
d="M940 950l325 325l442 -433l1005 1001l326 -325l-1331 -1324zM444 -832q-168 0 -256 88t-88 256v3024q0 168 88 256t256 88h3024q168 0 256 -88t88 -256v-3024q0 -168 -88 -256t-256 -88h-3024zM431 -530h3051q13 0 20.5 8t7.5 21v3050q0 14 -7.5 21.5t-20.5 7.5h-3051
q-12 0 -20 -7.5t-8 -21.5v-3050q0 -13 8 -21t20 -8z" />
    <glyph glyph-name="uniE15E" unicode="&#x20de;&#x2717;" horiz-adv-x="3912" 
d="M1462 206l-326 325l1318 1311l325 -326zM2450 206l-1317 1310l325 326l1318 -1311zM444 -832q-168 0 -256 88t-88 256v3024q0 168 88 256t256 88h3024q168 0 256 -88t88 -256v-3024q0 -168 -88 -256t-256 -88h-3024zM431 -530h3051q13 0 20.5 8t7.5 21v3050
q0 14 -7.5 21.5t-20.5 7.5h-3051q-12 0 -20 -7.5t-8 -21.5v-3050q0 -13 8 -21t20 -8z" />
    <glyph glyph-name="u1F130" unicode="A&#x20de;" horiz-adv-x="3912" 
d="M1468 0h-532l691 2048h659l691 -2048h-532l-481 1532h-16zM1397 806h1112v-376h-1112v376zM444 -832q-168 0 -256 88t-88 256v3024q0 168 88 256t256 88h3024q168 0 256 -88t88 -256v-3024q0 -168 -88 -256t-256 -88h-3024zM431 -530h3051q13 0 20.5 8t7.5 21v3050
q0 14 -7.5 21.5t-20.5 7.5h-3051q-12 0 -20 -7.5t-8 -21.5v-3050q0 -13 8 -21t20 -8z" />
    <glyph glyph-name="u1F131" unicode="B&#x20de;" horiz-adv-x="3912" 
d="M1181 0v2048h854q230 0 385.5 -65t234 -182t78.5 -271q0 -117 -49 -208.5t-135 -151.5t-199 -84v-20q124 -6 229.5 -67t169.5 -169.5t64 -256.5q0 -165 -84 -294.5t-243 -204t-386 -74.5h-919zM1676 399h306q161 0 237.5 61t76.5 170q0 79 -37 136.5t-105 89t-163 31.5
h-315v-488zM1676 1206h274q81 0 144 27t98.5 78t35.5 123q0 103 -73 162t-197 59h-282v-449zM444 -832q-168 0 -256 88t-88 256v3024q0 168 88 256t256 88h3024q168 0 256 -88t88 -256v-3024q0 -168 -88 -256t-256 -88h-3024zM431 -530h3051q13 0 20.5 8t7.5 21v3050
q0 14 -7.5 21.5t-20.5 7.5h-3051q-12 0 -20 -7.5t-8 -21.5v-3050q0 -13 8 -21t20 -8z" />
    <glyph glyph-name="u1F132" unicode="C&#x20de;" horiz-adv-x="3912" 
d="M2896 1306h-500q-10 77 -41 139t-82 106t-120.5 67.5t-153.5 23.5q-149 0 -256.5 -73t-165 -211t-57.5 -334q0 -204 58.5 -341.5t165 -207t252.5 -69.5q82 0 149.5 21t119 61.5t85 99t46.5 132.5l500 -3q-13 -136 -78.5 -268t-179.5 -240.5t-277.5 -172.5t-374.5 -64
q-278 0 -497.5 122.5t-346.5 357.5t-127 572q0 338 129 573t349 357t493 122q186 0 344 -51.5t278 -150t195 -241.5t93 -327zM444 -832q-168 0 -256 88t-88 256v3024q0 168 88 256t256 88h3024q168 0 256 -88t88 -256v-3024q0 -168 -88 -256t-256 -88h-3024zM431 -530h3051
q13 0 20.5 8t7.5 21v3050q0 14 -7.5 21.5t-20.5 7.5h-3051q-12 0 -20 -7.5t-8 -21.5v-3050q0 -13 8 -21t20 -8z" />
    <glyph glyph-name="u1F133" unicode="D&#x20de;" horiz-adv-x="3912" 
d="M1857 0h-757v2048h756q313 0 539.5 -122.5t349.5 -352t123 -548.5q0 -320 -122.5 -550t-349.5 -352.5t-539 -122.5zM1595 422h243q172 0 291.5 58.5t181 191t61.5 353.5t-62 352.5t-182.5 190t-296.5 58.5h-236v-1204zM444 -832q-168 0 -256 88t-88 256v3024
q0 168 88 256t256 88h3024q168 0 256 -88t88 -256v-3024q0 -168 -88 -256t-256 -88h-3024zM431 -530h3051q13 0 20.5 8t7.5 21v3050q0 14 -7.5 21.5t-20.5 7.5h-3051q-12 0 -20 -7.5t-8 -21.5v-3050q0 -13 8 -21t20 -8z" />
    <glyph glyph-name="u1F134" unicode="E&#x20de;" horiz-adv-x="3912" 
d="M1240 0v2048h1428v-402h-933v-420h860v-403h-860v-421h933v-402h-1428zM444 -832q-168 0 -256 88t-88 256v3024q0 168 88 256t256 88h3024q168 0 256 -88t88 -256v-3024q0 -168 -88 -256t-256 -88h-3024zM431 -530h3051q13 0 20.5 8t7.5 21v3050q0 14 -7.5 21.5
t-20.5 7.5h-3051q-12 0 -20 -7.5t-8 -21.5v-3050q0 -13 8 -21t20 -8z" />
    <glyph glyph-name="u1F135" unicode="F&#x20de;" horiz-adv-x="3912" 
d="M1277 0v2048h1398v-402h-903v-420h814v-403h-814v-823h-495zM444 -832q-168 0 -256 88t-88 256v3024q0 168 88 256t256 88h3024q168 0 256 -88t88 -256v-3024q0 -168 -88 -256t-256 -88h-3024zM431 -530h3051q13 0 20.5 8t7.5 21v3050q0 14 -7.5 21.5t-20.5 7.5h-3051
q-12 0 -20 -7.5t-8 -21.5v-3050q0 -13 8 -21t20 -8z" />
    <glyph glyph-name="u1F136" unicode="G&#x20de;" horiz-adv-x="3912" 
d="M2378 1379q-17 63 -50 111.5t-81 82.5t-110 51.5t-136 17.5q-149 0 -257.5 -72t-167.5 -209.5t-59 -333.5q0 -197 57 -336t165 -212t262 -73q136 0 230.5 44.5t143.5 126.5t49 193l92 -11h-498v361h883v-271q0 -275 -116.5 -471t-320 -301t-467.5 -105q-293 0 -515 127
t-346 362.5t-124 559.5q0 252 75 447.5t209.5 331.5t312 206t382.5 70q178 0 331.5 -51t272 -144t192.5 -221t92 -281h-501zM444 -832q-168 0 -256 88t-88 256v3024q0 168 88 256t256 88h3024q168 0 256 -88t88 -256v-3024q0 -168 -88 -256t-256 -88h-3024zM431 -530h3051
q13 0 20.5 8t7.5 21v3050q0 14 -7.5 21.5t-20.5 7.5h-3051q-12 0 -20 -7.5t-8 -21.5v-3050q0 -13 8 -21t20 -8z" />
    <glyph glyph-name="u1F137" unicode="H&#x20de;" horiz-adv-x="3912" 
d="M1058 0v2048h495v-822h807v822h494v-2048h-494v823h-807v-823h-495zM444 -832q-168 0 -256 88t-88 256v3024q0 168 88 256t256 88h3024q168 0 256 -88t88 -256v-3024q0 -168 -88 -256t-256 -88h-3024zM431 -530h3051q13 0 20.5 8t7.5 21v3050q0 14 -7.5 21.5t-20.5 7.5
h-3051q-12 0 -20 -7.5t-8 -21.5v-3050q0 -13 8 -21t20 -8z" />
    <glyph glyph-name="u1F138" unicode="I&#x20de;" horiz-adv-x="3912" 
d="M2204 2048v-2048h-495v2048h495zM444 -832q-168 0 -256 88t-88 256v3024q0 168 88 256t256 88h3024q168 0 256 -88t88 -256v-3024q0 -168 -88 -256t-256 -88h-3024zM431 -530h3051q13 0 20.5 8t7.5 21v3050q0 14 -7.5 21.5t-20.5 7.5h-3051q-12 0 -20 -7.5t-8 -21.5
v-3050q0 -13 8 -21t20 -8z" />
    <glyph glyph-name="u1F139" unicode="J&#x20de;" horiz-adv-x="3912" 
d="M2141 2048h488v-1416q-1 -199 -95 -347.5t-259.5 -230.5t-382.5 -82q-192 0 -348.5 67t-249 208t-91.5 361h493q3 -79 30.5 -134.5t76.5 -83.5t117 -28q71 0 120 30.5t74.5 90.5t26.5 149v1416zM444 -832q-168 0 -256 88t-88 256v3024q0 168 88 256t256 88h3024
q168 0 256 -88t88 -256v-3024q0 -168 -88 -256t-256 -88h-3024zM431 -530h3051q13 0 20.5 8t7.5 21v3050q0 14 -7.5 21.5t-20.5 7.5h-3051q-12 0 -20 -7.5t-8 -21.5v-3050q0 -13 8 -21t20 -8z" />
    <glyph glyph-name="u1F13A" unicode="K&#x20de;" horiz-adv-x="3912" 
d="M1083 0v2048h495v-866h27l677 866h583l-726 -914l739 -1134h-592l-510 805l-198 -250v-555h-495zM444 -832q-168 0 -256 88t-88 256v3024q0 168 88 256t256 88h3024q168 0 256 -88t88 -256v-3024q0 -168 -88 -256t-256 -88h-3024zM431 -530h3051q13 0 20.5 8t7.5 21v3050
q0 14 -7.5 21.5t-20.5 7.5h-3051q-12 0 -20 -7.5t-8 -21.5v-3050q0 -13 8 -21t20 -8z" />
    <glyph glyph-name="u1F13B" unicode="L&#x20de;" horiz-adv-x="3912" 
d="M1306 0v2048h495v-1646h852v-402h-1347zM444 -832q-168 0 -256 88t-88 256v3024q0 168 88 256t256 88h3024q168 0 256 -88t88 -256v-3024q0 -168 -88 -256t-256 -88h-3024zM431 -530h3051q13 0 20.5 8t7.5 21v3050q0 14 -7.5 21.5t-20.5 7.5h-3051q-12 0 -20 -7.5
t-8 -21.5v-3050q0 -13 8 -21t20 -8z" />
    <glyph glyph-name="u1F13C" unicode="M&#x20de;" horiz-adv-x="3912" 
d="M811 2048h613l520 -1268h24l520 1268h613v-2048h-482v1258h-17l-492 -1245h-308l-492 1252h-17v-1265h-482v2048zM444 -832q-168 0 -256 88t-88 256v3024q0 168 88 256t256 88h3024q168 0 256 -88t88 -256v-3024q0 -168 -88 -256t-256 -88h-3024zM431 -530h3051
q13 0 20.5 8t7.5 21v3050q0 14 -7.5 21.5t-20.5 7.5h-3051q-12 0 -20 -7.5t-8 -21.5v-3050q0 -13 8 -21t20 -8z" />
    <glyph glyph-name="u1F13D" unicode="N&#x20de;" horiz-adv-x="3912" 
d="M2828 2048v-2048h-420l-815 1182h-13v-1182h-495v2048h426l806 -1180h17v1180h494zM444 -832q-168 0 -256 88t-88 256v3024q0 168 88 256t256 88h3024q168 0 256 -88t88 -256v-3024q0 -168 -88 -256t-256 -88h-3024zM431 -530h3051q13 0 20.5 8t7.5 21v3050
q0 14 -7.5 21.5t-20.5 7.5h-3051q-12 0 -20 -7.5t-8 -21.5v-3050q0 -13 8 -21t20 -8z" />
    <glyph glyph-name="u1F13E" unicode="O&#x20de;" horiz-adv-x="3912" 
d="M2934 1024q0 -338 -130 -573t-351.5 -357t-496.5 -122q-276 0 -497 123t-350.5 357.5t-129.5 571.5q0 338 129.5 573t350.5 357t497 122q275 0 496.5 -122t351.5 -357t130 -573zM2428 1024q0 200 -56.5 338t-162 209t-253.5 71q-147 0 -253 -71t-162.5 -209t-56.5 -338
t56.5 -338t162.5 -209t253 -71q148 0 253.5 71t162 209t56.5 338zM444 -832q-168 0 -256 88t-88 256v3024q0 168 88 256t256 88h3024q168 0 256 -88t88 -256v-3024q0 -168 -88 -256t-256 -88h-3024zM431 -530h3051q13 0 20.5 8t7.5 21v3050q0 14 -7.5 21.5t-20.5 7.5h-3051
q-12 0 -20 -7.5t-8 -21.5v-3050q0 -13 8 -21t20 -8z" />
    <glyph glyph-name="u1F13F" unicode="P&#x20de;" horiz-adv-x="3912" 
d="M1217 0v2048h846q230 0 397.5 -89.5t258.5 -249t91 -370.5q0 -212 -92.5 -370.5t-263.5 -245.5t-406 -87h-522v390h430q112 0 187.5 39t114.5 109.5t39 164.5q0 95 -39 164.5t-115 107.5t-187 38h-244v-1649h-495zM444 -832q-168 0 -256 88t-88 256v3024q0 168 88 256
t256 88h3024q168 0 256 -88t88 -256v-3024q0 -168 -88 -256t-256 -88h-3024zM431 -530h3051q13 0 20.5 8t7.5 21v3050q0 14 -7.5 21.5t-20.5 7.5h-3051q-12 0 -20 -7.5t-8 -21.5v-3050q0 -13 8 -21t20 -8z" />
    <glyph glyph-name="u1F140" unicode="Q&#x20de;" horiz-adv-x="3912" 
d="M1782 736h400l170 -217l223 -256l343 -423h-448l-240 287l-142 204zM2932 1024q0 -338 -130 -573t-351.5 -357t-496.5 -122q-276 0 -497 123t-350.5 357.5t-129.5 571.5q0 338 129.5 573t350.5 357t497 122q275 0 496.5 -122t351.5 -357t130 -573zM2426 1024
q0 200 -56.5 338t-162 209t-253.5 71q-147 0 -253 -71t-162.5 -209t-56.5 -338t56.5 -338t162.5 -209t253 -71q148 0 253.5 71t162 209t56.5 338zM444 -832q-168 0 -256 88t-88 256v3024q0 168 88 256t256 88h3024q168 0 256 -88t88 -256v-3024q0 -168 -88 -256t-256 -88
h-3024zM431 -530h3051q13 0 20.5 8t7.5 21v3050q0 14 -7.5 21.5t-20.5 7.5h-3051q-12 0 -20 -7.5t-8 -21.5v-3050q0 -13 8 -21t20 -8z" />
    <glyph glyph-name="u1F141" unicode="R&#x20de;" horiz-adv-x="3912" 
d="M1172 0v2048h846q230 0 397.5 -82.5t258.5 -236t91 -363.5q0 -213 -93 -361.5t-264 -226t-405 -77.5h-535v390h443q112 0 187.5 29.5t114.5 90t39 155.5t-39 157.5t-115 94t-187 31.5h-244v-1649h-495zM2325 936l510 -936h-540l-500 936h530zM444 -832q-168 0 -256 88
t-88 256v3024q0 168 88 256t256 88h3024q168 0 256 -88t88 -256v-3024q0 -168 -88 -256t-256 -88h-3024zM431 -530h3051q13 0 20.5 8t7.5 21v3050q0 14 -7.5 21.5t-20.5 7.5h-3051q-12 0 -20 -7.5t-8 -21.5v-3050q0 -13 8 -21t20 -8z" />
    <glyph glyph-name="u1F142" unicode="S&#x20de;" horiz-adv-x="3912" 
d="M2288 1434q-10 110 -88.5 171.5t-223.5 61.5q-96 0 -160 -25t-96 -68.5t-33 -99.5q-2 -46 18.5 -81t60 -61.5t95.5 -46.5t126 -35l176 -40q152 -33 268.5 -88t196 -131t120.5 -175t42 -222q-1 -194 -98 -333t-278.5 -213t-437.5 -74q-257 0 -448 77t-297 234t-109 397
h474q6 -99 53 -165t129.5 -100t191.5 -34q100 0 170.5 27t108.5 75t39 110q-1 58 -36 99.5t-107.5 72t-184.5 56.5l-214 50q-266 61 -419 197.5t-152 369.5q-1 190 102 333t285 223t415 80q238 0 413.5 -80.5t272.5 -225.5t99 -336h-474zM444 -832q-168 0 -256 88t-88 256
v3024q0 168 88 256t256 88h3024q168 0 256 -88t88 -256v-3024q0 -168 -88 -256t-256 -88h-3024zM431 -530h3051q13 0 20.5 8t7.5 21v3050q0 14 -7.5 21.5t-20.5 7.5h-3051q-12 0 -20 -7.5t-8 -21.5v-3050q0 -13 8 -21t20 -8z" />
    <glyph glyph-name="u1F143" unicode="T&#x20de;" horiz-adv-x="3912" 
d="M1090 1646v402h1731v-402h-621v-1646h-488v1646h-622zM444 -832q-168 0 -256 88t-88 256v3024q0 168 88 256t256 88h3024q168 0 256 -88t88 -256v-3024q0 -168 -88 -256t-256 -88h-3024zM431 -530h3051q13 0 20.5 8t7.5 21v3050q0 14 -7.5 21.5t-20.5 7.5h-3051
q-12 0 -20 -7.5t-8 -21.5v-3050q0 -13 8 -21t20 -8z" />
    <glyph glyph-name="u1F144" unicode="U&#x20de;" horiz-adv-x="3912" 
d="M2328 2048h494v-1321q0 -229 -109 -398.5t-304 -262t-453 -92.5q-261 0 -456 92.5t-303 262t-108 398.5v1321h495v-1278q0 -106 46.5 -189t130.5 -130t195 -47t194.5 47t130.5 130t47 189v1278zM444 -832q-168 0 -256 88t-88 256v3024q0 168 88 256t256 88h3024
q168 0 256 -88t88 -256v-3024q0 -168 -88 -256t-256 -88h-3024zM431 -530h3051q13 0 20.5 8t7.5 21v3050q0 14 -7.5 21.5t-20.5 7.5h-3051q-12 0 -20 -7.5t-8 -21.5v-3050q0 -13 8 -21t20 -8z" />
    <glyph glyph-name="u1F145" unicode="V&#x20de;" horiz-adv-x="3912" 
d="M1490 2048l458 -1500h17l458 1500h554l-691 -2048h-659l-691 2048h554zM444 -832q-168 0 -256 88t-88 256v3024q0 168 88 256t256 88h3024q168 0 256 -88t88 -256v-3024q0 -168 -88 -256t-256 -88h-3024zM431 -530h3051q13 0 20.5 8t7.5 21v3050q0 14 -7.5 21.5
t-20.5 7.5h-3051q-12 0 -20 -7.5t-8 -21.5v-3050q0 -13 8 -21t20 -8z" />
    <glyph glyph-name="u1F146" unicode="W&#x20de;" horiz-adv-x="3912" 
d="M1103 0l-596 2048h547l309 -1342h17l353 1342h446l353 -1345h17l310 1345h546l-595 -2048h-477l-369 1242h-16l-369 -1242h-476zM444 -832q-168 0 -256 88t-88 256v3024q0 168 88 256t256 88h3024q168 0 256 -88t88 -256v-3024q0 -168 -88 -256t-256 -88h-3024zM431 -530
h3051q13 0 20.5 8t7.5 21v3050q0 14 -7.5 21.5t-20.5 7.5h-3051q-12 0 -20 -7.5t-8 -21.5v-3050q0 -13 8 -21t20 -8z" />
    <glyph glyph-name="u1F147" unicode="X&#x20de;" horiz-adv-x="3912" 
d="M1574 2048l374 -647h16l378 647h554l-618 -1024l638 -1024h-568l-384 654h-16l-384 -654h-564l635 1024l-619 1024h558zM444 -832q-168 0 -256 88t-88 256v3024q0 168 88 256t256 88h3024q168 0 256 -88t88 -256v-3024q0 -168 -88 -256t-256 -88h-3024zM431 -530h3051
q13 0 20.5 8t7.5 21v3050q0 14 -7.5 21.5t-20.5 7.5h-3051q-12 0 -20 -7.5t-8 -21.5v-3050q0 -13 8 -21t20 -8z" />
    <glyph glyph-name="u1F148" unicode="Y&#x20de;" horiz-adv-x="3912" 
d="M961 2048h553l433 -857h18l433 857h553l-749 -1364v-684h-492v684zM444 -832q-168 0 -256 88t-88 256v3024q0 168 88 256t256 88h3024q168 0 256 -88t88 -256v-3024q0 -168 -88 -256t-256 -88h-3024zM431 -530h3051q13 0 20.5 8t7.5 21v3050q0 14 -7.5 21.5t-20.5 7.5
h-3051q-12 0 -20 -7.5t-8 -21.5v-3050q0 -13 8 -21t20 -8z" />
    <glyph glyph-name="u1F149" unicode="Z&#x20de;" horiz-adv-x="3912" 
d="M1146 0v282l995 1364h-994v402h1620v-282l-995 -1364h994v-402h-1620zM444 -832q-168 0 -256 88t-88 256v3024q0 168 88 256t256 88h3024q168 0 256 -88t88 -256v-3024q0 -168 -88 -256t-256 -88h-3024zM431 -530h3051q13 0 20.5 8t7.5 21v3050q0 14 -7.5 21.5t-20.5 7.5
h-3051q-12 0 -20 -7.5t-8 -21.5v-3050q0 -13 8 -21t20 -8z" />
    <glyph glyph-name=".notdef" horiz-adv-x="3008" 
d="M306 -640v512h2396v-512h-2396zM306 1472v512h2396v-512h-2396zM306 2176v512h2396v-512h-2396zM306 64v512h2396v-512h-2396zM306 768v512h2396v-512h-2396z" />
    <glyph glyph-name=".null" 
 />
    <glyph glyph-name="nonmarkingreturn" horiz-adv-x="938" 
 />
    <glyph glyph-name="uni0020" unicode=" " horiz-adv-x="606" 
 />
    <glyph glyph-name="uni0021" unicode="!" horiz-adv-x="957" 
d="M730 2048l-46 -1421h-411l-46 1421h503zM478 -29q-107 0 -183.5 76t-76.5 184q0 106 76.5 181.5t183.5 75.5q103 0 181.5 -75.5t78.5 -181.5q0 -72 -36.5 -131t-95 -94t-128.5 -35z" />
    <glyph glyph-name="uni0022" unicode="&#x22;" horiz-adv-x="1094" 
d="M452 2048v-803h-332v803h332zM970 2048v-803h-332v803h332z" />
    <glyph glyph-name="uni0023" unicode="#" horiz-adv-x="1846" 
d="M935 0l336 2048h360l-336 -2048h-360zM22 488l61 360h1624l-61 -360h-1624zM215 0l336 2048h360l-336 -2048h-360zM139 1200l61 360h1624l-61 -360h-1624z" />
    <glyph glyph-name="uni0024" unicode="$" horiz-adv-x="1860" 
d="M806 -256l32 2560h260l-32 -2560h-260zM1262 1434q-10 110 -88.5 171.5t-223.5 61.5q-96 0 -160 -25t-96 -68.5t-33 -99.5q-2 -46 18.5 -81t60 -61.5t95.5 -46.5t126 -35l176 -40q152 -33 268.5 -88t196 -131t120.5 -175t42 -222q-1 -194 -98 -333t-278.5 -213
t-437.5 -74q-257 0 -448 77t-297 234t-109 397h474q6 -99 53 -165t129.5 -100t191.5 -34q100 0 170.5 27t108.5 75t39 110q-1 58 -36 99.5t-107.5 72t-184.5 56.5l-214 50q-266 61 -419 197.5t-152 369.5q-1 190 102 333t285 223t415 80q238 0 413.5 -80.5t272.5 -225.5
t99 -336h-474z" />
    <glyph glyph-name="uni0025" unicode="%" horiz-adv-x="2464" 
d="M1298 384v108q0 126 54.5 233t158.5 172t254 65q153 0 258 -64.5t158.5 -171t52.5 -234.5v-108q1 -126 -53 -233t-159.5 -172t-256.5 -65q-152 0 -255.5 65t-157.5 172t-54 233zM1617 492v-108q1 -64 32 -123t116 -59q87 0 118 57.5t29 124.5v108q2 67 -27.5 126.5
t-119.5 59.5q-84 0 -115.5 -59.5t-32.5 -126.5zM236 1556v108q1 128 56 234.5t159 171t252 64.5q153 0 258 -64.5t159 -171t53 -234.5v-108q1 -128 -53.5 -234t-160 -169t-256.5 -63t-255 64t-157.5 170t-54.5 232zM558 1664v-108q2 -67 32.5 -124.5t112.5 -57.5
q88 0 118.5 57.5t28.5 124.5v108q2 67 -27 126.5t-120 59.5q-84 0 -113.5 -61t-31.5 -125zM341 0l1408 2048h273l-1408 -2048h-273z" />
    <glyph glyph-name="uni0026" unicode="&#x26;" horiz-adv-x="1931" 
d="M799 -31q-216 0 -372.5 77t-240.5 207.5t-84 290.5q0 118 46.5 208.5t129 167t192.5 150.5l430 275q73 46 103.5 97t30.5 102q0 55 -42.5 100t-125.5 44q-53 0 -92 -22t-60.5 -59t-21.5 -84q0 -61 35 -125t94.5 -136t132.5 -159l981 -1103h-498l-821 891q-70 78 -147 175
t-130 212.5t-53 251.5q0 153 72 277t202.5 197.5t304.5 73.5q168 0 290 -69t188 -183t66 -250q0 -144 -71 -264.5t-201 -213.5l-421 -301q-67 -48 -105 -102.5t-38 -118.5q0 -66 31.5 -115t89.5 -77t136 -28q104 0 208 49.5t190 140t138 215t52 273.5h394q0 -184 -39 -341.5
t-116.5 -282t-191.5 -206.5q-36 -20 -70 -38t-70 -38q-118 -85 -255.5 -122t-270.5 -37z" />
    <glyph glyph-name="uni0027" unicode="'" horiz-adv-x="576" 
d="M452 2048v-803h-332v803h332z" />
    <glyph glyph-name="uni0028" unicode="(" horiz-adv-x="1196" 
d="M252 806q0 371 100 682.5t312 578.5h474q-80 -99 -149 -241t-119.5 -311t-79 -350t-28.5 -359q0 -236 49 -476.5t134 -446t193 -337.5h-474q-212 267 -312 578.5t-100 681.5z" />
    <glyph glyph-name="uni0029" unicode=")" horiz-adv-x="1196" 
d="M944 806q0 -370 -100 -681.5t-312 -578.5h-474q81 99 149.5 241t119 311t79 350t28.5 358q0 237 -49 477.5t-134 446t-193 337.5h474q212 -267 312 -578.5t100 -682.5z" />
    <glyph glyph-name="uni002A" unicode="*" horiz-adv-x="1651" 
d="M678 896l29 370l-308 -211l-147 258l334 159l-334 159l147 258l308 -211l-29 370h295l-29 -370l308 211l147 -258l-334 -159l334 -159l-147 -258l-308 211l29 -370h-295z" />
    <glyph glyph-name="uni002B" unicode="+" horiz-adv-x="1933" 
d="M765 102v1448h403v-1448h-403zM242 624v403h1448v-403h-1448z" />
    <glyph glyph-name="uni002C" unicode="," horiz-adv-x="874" 
d="M654 280l-9 -111q-12 -138 -48.5 -269.5t-77.5 -236.5t-65 -163h-308q16 58 43.5 163t51.5 237t27 268l2 112h384z" />
    <glyph glyph-name="uni002D" unicode="-" horiz-adv-x="1328" 
d="M1138 1017v-377h-948v377h948z" />
    <glyph glyph-name="uni002E" unicode="." horiz-adv-x="859" 
d="M430 -29q-108 0 -184.5 76t-75.5 184q-1 106 75.5 181.5t184.5 75.5q102 0 180.5 -75.5t79.5 -181.5q-1 -72 -37.5 -131t-95 -94t-127.5 -35z" />
    <glyph glyph-name="uni002F" unicode="/" horiz-adv-x="1129" 
d="M1103 2144l-660 -2452h-417l660 2452h417z" />
    <glyph glyph-name="uni0030" unicode="0" horiz-adv-x="1997" 
d="M998 -50q-268 0 -462 127.5t-299 367t-104 576.5t105.5 572.5t298 359t461.5 123.5t462.5 -123.5t299.5 -359.5t104 -572q0 -338 -105 -578t-298.5 -366.5t-462.5 -126.5zM998 355q160 0 259 163.5t98 502.5q0 222 -45 366.5t-125 215.5t-187 71q-159 0 -257 -160.5
t-99 -492.5q-1 -225 43.5 -373t125.5 -220.5t187 -72.5z" />
    <glyph glyph-name="uni0031" unicode="1" horiz-adv-x="1401" 
d="M1098 2048v-2048h-494v1586h-12l-458 -280v428l505 314h459z" />
    <glyph glyph-name="uni0032" unicode="2" horiz-adv-x="1797" 
d="M151 0v356l747 654q84 76 143 139.5t90 128t31 140.5q0 85 -37 145.5t-102 93.5t-149 33q-85 0 -149 -34.5t-99.5 -99.5t-35.5 -158h-469q0 209 94 361t264.5 234.5t396.5 82.5q233 0 405 -78t266.5 -217.5t94.5 -323.5q0 -117 -47 -232t-168.5 -254t-344.5 -333
l-245 -226v-13h830v-399h-1516z" />
    <glyph glyph-name="uni0033" unicode="3" horiz-adv-x="1878" 
d="M930 -28q-234 0 -414.5 80.5t-284.5 222.5t-106 327h498q3 -67 43 -118.5t109 -80.5t157 -29t155.5 31.5t105.5 87t37 127.5q1 72 -41 128t-118.5 87t-180.5 31h-199v352h199q91 0 160.5 30t108.5 84.5t38 125.5q1 69 -32.5 121.5t-93 81.5t-137.5 29q-82 0 -148.5 -29
t-105.5 -82t-41 -123h-473q2 183 102 322.5t272.5 218.5t393.5 79q220 0 387 -77t260 -209.5t93 -299.5q1 -173 -112.5 -285t-291.5 -138v-16q238 -28 359.5 -154t120.5 -315q0 -178 -104.5 -315.5t-290 -216t-425.5 -78.5z" />
    <glyph glyph-name="uni0034" unicode="4" horiz-adv-x="1942" 
d="M126 340v386l839 1322h343v-524h-199l-491 -778v-16h1215v-390h-1707zM1115 0v458l10 169v1421h463v-2048h-473z" />
    <glyph glyph-name="uni0035" unicode="5" horiz-adv-x="1850" 
d="M935 -28q-224 0 -398 81t-274.5 223t-104.5 326h480q6 -113 92 -181.5t205 -68.5q93 0 165 41t113 115.5t40 171.5q1 99 -40.5 173t-114 115.5t-166.5 41.5q-89 1 -168.5 -39t-120.5 -109l-437 82l89 1104h1314v-399h-907l-47 -483h12q51 85 164.5 140.5t258.5 55.5
q184 0 328.5 -85.5t228 -236.5t83.5 -346q0 -211 -99.5 -374t-278 -255.5t-417.5 -92.5z" />
    <glyph glyph-name="uni0036" unicode="6" horiz-adv-x="1894" 
d="M972 -28q-168 0 -321.5 54.5t-273 174t-188.5 314t-70 474.5q1 256 62 458.5t174.5 344.5t272 216.5t354.5 74.5q215 0 379.5 -83.5t263.5 -226t117 -317.5h-487q-22 103 -96.5 154.5t-176.5 51.5q-188 0 -280.5 -164t-94.5 -443h13q42 92 121 158t181.5 101.5
t217.5 35.5q184 0 325 -85t221 -232.5t79 -337.5q1 -214 -100 -377.5t-279.5 -254.5t-413.5 -91zM969 352q91 0 163 43t113 117t40 167q1 94 -39.5 167t-112 116t-163.5 43q-67 0 -125 -25t-100.5 -69.5t-66.5 -104t-25 -128.5q1 -91 42 -165t112 -117.5t162 -43.5z" />
    <glyph glyph-name="uni0037" unicode="7" horiz-adv-x="1698" 
d="M238 0l826 1636v13h-966v399h1478v-402l-829 -1646h-509z" />
    <glyph glyph-name="uni0038" unicode="8" horiz-adv-x="1902" 
d="M951 -28q-239 0 -426.5 76.5t-294 208t-106.5 297.5q0 127 61 233t165.5 176.5t233.5 90.5v16q-169 31 -276.5 157t-107.5 295q0 160 97.5 285t267 197t386.5 72t386.5 -72t267 -197t97.5 -285q0 -170 -108.5 -295.5t-275.5 -156.5v-16q128 -20 232.5 -90.5t166 -176.5
t61.5 -233q0 -166 -107 -297.5t-293.5 -208t-426.5 -76.5zM951 323q91 0 160 34.5t108.5 96.5t39.5 140q0 80 -40 142t-109.5 97.5t-158.5 35.5q-88 0 -158 -35.5t-110 -97.5t-40 -142q0 -78 39.5 -139.5t109 -96.5t159.5 -35zM951 1218q78 0 138.5 32t95 89t34.5 129
t-34.5 127t-94.5 86.5t-139 31.5q-78 0 -139 -31.5t-95 -86.5t-34 -127t34.5 -128.5t95.5 -89t138 -32.5z" />
    <glyph glyph-name="uni0039" unicode="9" horiz-adv-x="1894" 
d="M922 2083q168 0 321 -54.5t273 -174t189 -314t69 -474.5q0 -256 -61.5 -458.5t-174 -344.5t-271.5 -216.5t-355 -74.5q-216 0 -380.5 83.5t-263 225.5t-117.5 318h487q23 -102 97 -153.5t177 -51.5q188 0 281 163t93 443h-12q-43 -92 -121.5 -158t-181.5 -101t-217 -35
q-184 0 -325 84t-221 232t-79 338q-1 214 99 377t279 255t415 91zM925 1703q-92 0 -163.5 -43t-112.5 -117t-40 -167q-1 -93 39.5 -166.5t112 -116.5t162.5 -43q68 0 125.5 25.5t100.5 69.5t67 103.5t25 128.5q-1 91 -42 165t-112.5 117.5t-161.5 43.5z" />
    <glyph glyph-name="uni003A" unicode=":" horiz-adv-x="859" 
d="M430 -29q-108 0 -184.5 76t-75.5 184q-1 106 75.5 181.5t184.5 75.5q102 0 180.5 -75.5t79.5 -181.5q-1 -72 -37.5 -131t-95 -94t-127.5 -35zM430 1025q-108 0 -184.5 76t-75.5 184q-1 106 75.5 181.5t184.5 75.5q102 0 180.5 -75.5t79.5 -181.5q-1 -72 -37.5 -131
t-95 -94t-127.5 -35z" />
    <glyph glyph-name="uni003B" unicode=";" horiz-adv-x="868" 
d="M654 280l-9 -111q-12 -138 -48.5 -269.5t-77.5 -236.5t-65 -163h-308q16 58 43.5 163t51.5 237t27 268l2 112h384zM466 1025q-108 0 -184.5 76t-75.5 184q-1 106 75.5 181.5t184.5 75.5q102 0 180.5 -75.5t79.5 -181.5q-1 -72 -37.5 -131t-95 -94t-127.5 -35z" />
    <glyph glyph-name="uni003C" unicode="&#x3c;" horiz-adv-x="1933" 
d="M242 618v416l1448 608v-455l-956 -357l15 22v-53l-15 23l956 -358v-454z" />
    <glyph glyph-name="uni003D" unicode="=" horiz-adv-x="1933" 
d="M251 969v401h1431v-401h-1431zM251 281v401h1431v-401h-1431z" />
    <glyph glyph-name="uni003E" unicode="&#x3e;" horiz-adv-x="1933" 
d="M1690 618l-1448 -608v454l956 358l-14 -23v53l14 -22l-956 357v455l1448 -608v-416z" />
    <glyph glyph-name="uni003F" unicode="?" horiz-adv-x="1636" 
d="M540 627v41q0 170 28.5 271t83.5 162.5t134 112.5q63 40 112.5 81.5t78.5 89.5t29 109q0 59 -28 104t-76.5 69.5t-107.5 24.5t-110.5 -27t-84 -76.5t-33.5 -119.5h-460q3 210 97.5 344t250.5 198.5t344 64.5q206 0 366.5 -64t252.5 -189t92 -306q0 -119 -40 -210
t-111.5 -160.5t-167.5 -126.5q-75 -44 -124.5 -92t-74.5 -109.5t-25 -150.5v-41h-426zM761 -29q-108 0 -184.5 76t-75.5 184q-1 106 75.5 181.5t184.5 75.5q103 0 181 -75.5t79 -181.5q-1 -72 -37.5 -131t-95 -94t-127.5 -35z" />
    <glyph glyph-name="uni0040" unicode="@" horiz-adv-x="2991" 
d="M1550 -607q-324 0 -578 87.5t-430 256t-268 409.5t-93 549q1 305 93.5 555.5t271 432t438 280.5t592.5 99q304 0 546 -86t412.5 -248t260.5 -391t89 -517q1 -197 -38 -353t-118.5 -267t-200 -174.5t-283.5 -75.5q-132 -11 -200 16t-96 78.5t-39 115.5h-12
q-23 -61 -100.5 -108.5t-184.5 -72t-220 -17.5q-114 8 -222 54.5t-194.5 137t-137 228.5t-51.5 325q1 187 52.5 321.5t135 224t183.5 139t196 64.5q116 20 224 3t182.5 -55t92.5 -82h15v112h346v-1000q2 -65 26 -94t62 -29q58 0 102.5 57.5t69 177t23.5 304.5
q1 206 -53.5 352.5t-147.5 242.5t-211.5 150.5t-250.5 76.5t-260 22q-255 0 -441 -76.5t-308 -211.5t-181.5 -312.5t-60.5 -380.5q1 -231 66 -408.5t191 -297.5t311.5 -181.5t425.5 -61.5q117 0 228 15t202.5 38t150.5 48l114 -325q-63 -39 -173.5 -72.5t-252 -54
t-296.5 -20.5zM1526 333q119 0 188 44.5t98 131.5t26 213q0 104 -26 184t-94 126t-196 46q-110 0 -186.5 -43t-117 -123t-40.5 -193q0 -99 33 -187.5t109 -143.5t206 -55z" />
    <glyph glyph-name="uni0041" unicode="A" horiz-adv-x="2173" 
d="M598 0h-532l691 2048h659l691 -2048h-532l-481 1532h-16zM527 806h1112v-376h-1112v376z" />
    <glyph glyph-name="uni0042" unicode="B" horiz-adv-x="1870" 
d="M155 0v2048h854q230 0 385.5 -65t234 -182t78.5 -271q0 -117 -49 -208.5t-135 -151.5t-199 -84v-20q124 -6 229.5 -67t169.5 -169.5t64 -256.5q0 -165 -84 -294.5t-243 -204t-386 -74.5h-919zM650 399h306q161 0 237.5 61t76.5 170q0 79 -37 136.5t-105 89t-163 31.5
h-315v-488zM650 1206h274q81 0 144 27t98.5 78t35.5 123q0 103 -73 162t-197 59h-282v-449z" />
    <glyph glyph-name="uni0043" unicode="C" horiz-adv-x="2141" 
d="M2014 1306h-500q-10 77 -41 139t-82 106t-120.5 67.5t-153.5 23.5q-149 0 -256.5 -73t-165 -211t-57.5 -334q0 -204 58.5 -341.5t165 -207t252.5 -69.5q82 0 149.5 21t119 61.5t85 99t46.5 132.5l500 -3q-13 -136 -78.5 -268t-179.5 -240.5t-277.5 -172.5t-374.5 -64
q-278 0 -497.5 122.5t-346.5 357.5t-127 572q0 338 129 573t349 357t493 122q186 0 344 -51.5t278 -150t195 -241.5t93 -327z" />
    <glyph glyph-name="uni0044" unicode="D" horiz-adv-x="2056" 
d="M912 0h-757v2048h756q313 0 539.5 -122.5t349.5 -352t123 -548.5q0 -320 -122.5 -550t-349.5 -352.5t-539 -122.5zM650 422h243q172 0 291.5 58.5t181 191t61.5 353.5t-62 352.5t-182.5 190t-296.5 58.5h-236v-1204z" />
    <glyph glyph-name="uni0045" unicode="E" horiz-adv-x="1738" 
d="M155 0v2048h1428v-402h-933v-420h860v-403h-860v-421h933v-402h-1428z" />
    <glyph glyph-name="uni0046" unicode="F" horiz-adv-x="1646" 
d="M155 0v2048h1398v-402h-903v-420h814v-403h-814v-823h-495z" />
    <glyph glyph-name="uni0047" unicode="G" horiz-adv-x="2159" 
d="M1499 1379q-17 63 -50 111.5t-81 82.5t-110 51.5t-136 17.5q-149 0 -257.5 -72t-167.5 -209.5t-59 -333.5q0 -197 57 -336t165 -212t262 -73q136 0 230.5 44.5t143.5 126.5t49 193l92 -11h-498v361h883v-271q0 -275 -116.5 -471t-320 -301t-467.5 -105q-293 0 -515 127
t-346 362.5t-124 559.5q0 252 75 447.5t209.5 331.5t312 206t382.5 70q178 0 331.5 -51t272 -144t192.5 -221t92 -281h-501z" />
    <glyph glyph-name="uni0048" unicode="H" horiz-adv-x="2106" 
d="M155 0v2048h495v-822h807v822h494v-2048h-494v823h-807v-823h-495z" />
    <glyph glyph-name="uni0049" unicode="I" horiz-adv-x="805" 
d="M650 2048v-2048h-495v2048h495z" />
    <glyph glyph-name="uni004A" unicode="J" horiz-adv-x="1630" 
d="M987 2048h488v-1416q-1 -199 -95 -347.5t-259.5 -230.5t-382.5 -82q-192 0 -348.5 67t-249 208t-91.5 361h493q3 -79 30.5 -134.5t76.5 -83.5t117 -28q71 0 120 30.5t74.5 90.5t26.5 149v1416z" />
    <glyph glyph-name="uni004B" unicode="K" horiz-adv-x="1977" 
d="M155 0v2048h495v-866h27l677 866h583l-726 -914l739 -1134h-592l-510 805l-198 -250v-555h-495z" />
    <glyph glyph-name="uni004C" unicode="L" horiz-adv-x="1603" 
d="M155 0v2048h495v-1646h852v-402h-1347z" />
    <glyph glyph-name="uni004D" unicode="M" horiz-adv-x="2600" 
d="M155 2048h613l520 -1268h24l520 1268h613v-2048h-482v1258h-17l-492 -1245h-308l-492 1252h-17v-1265h-482v2048z" />
    <glyph glyph-name="uni004E" unicode="N" horiz-adv-x="2053" 
d="M1898 2048v-2048h-420l-815 1182h-13v-1182h-495v2048h426l806 -1180h17v1180h494z" />
    <glyph glyph-name="uni004F" unicode="O" horiz-adv-x="2221" 
d="M2088 1024q0 -338 -130 -573t-351.5 -357t-496.5 -122q-276 0 -497 123t-350.5 357.5t-129.5 571.5q0 338 129.5 573t350.5 357t497 122q275 0 496.5 -122t351.5 -357t130 -573zM1582 1024q0 200 -56.5 338t-162 209t-253.5 71q-147 0 -253 -71t-162.5 -209t-56.5 -338
t56.5 -338t162.5 -209t253 -71q148 0 253.5 71t162 209t56.5 338z" />
    <glyph glyph-name="uni0050" unicode="P" horiz-adv-x="1836" 
d="M155 0v2048h846q230 0 397.5 -89.5t258.5 -249t91 -370.5q0 -212 -92.5 -370.5t-263.5 -245.5t-406 -87h-522v390h430q112 0 187.5 39t114.5 109.5t39 164.5q0 95 -39 164.5t-115 107.5t-187 38h-244v-1649h-495z" />
    <glyph glyph-name="uni0051" unicode="Q" horiz-adv-x="2224" 
d="M938 736h400l170 -217l223 -256l343 -423h-448l-240 287l-142 204zM2088 1024q0 -338 -130 -573t-351.5 -357t-496.5 -122q-276 0 -497 123t-350.5 357.5t-129.5 571.5q0 338 129.5 573t350.5 357t497 122q275 0 496.5 -122t351.5 -357t130 -573zM1582 1024
q0 200 -56.5 338t-162 209t-253.5 71q-147 0 -253 -71t-162.5 -209t-56.5 -338t56.5 -338t162.5 -209t253 -71q148 0 253.5 71t162 209t56.5 338z" />
    <glyph glyph-name="uni0052" unicode="R" horiz-adv-x="1864" 
d="M155 0v2048h846q230 0 397.5 -82.5t258.5 -236t91 -363.5q0 -213 -93 -361.5t-264 -226t-405 -77.5h-535v390h443q112 0 187.5 29.5t114.5 90t39 155.5t-39 157.5t-115 94t-187 31.5h-244v-1649h-495zM1308 936l510 -936h-540l-500 936h530z" />
    <glyph glyph-name="uni0053" unicode="S" horiz-adv-x="1860" 
d="M1262 1434q-10 110 -88.5 171.5t-223.5 61.5q-96 0 -160 -25t-96 -68.5t-33 -99.5q-2 -46 18.5 -81t60 -61.5t95.5 -46.5t126 -35l176 -40q152 -33 268.5 -88t196 -131t120.5 -175t42 -222q-1 -194 -98 -333t-278.5 -213t-437.5 -74q-257 0 -448 77t-297 234t-109 397
h474q6 -99 53 -165t129.5 -100t191.5 -34q100 0 170.5 27t108.5 75t39 110q-1 58 -36 99.5t-107.5 72t-184.5 56.5l-214 50q-266 61 -419 197.5t-152 369.5q-1 190 102 333t285 223t415 80q238 0 413.5 -80.5t272.5 -225.5t99 -336h-474z" />
    <glyph glyph-name="uni0054" unicode="T" horiz-adv-x="1907" 
d="M88 1646v402h1731v-402h-621v-1646h-488v1646h-622z" />
    <glyph glyph-name="uni0055" unicode="U" horiz-adv-x="2043" 
d="M1394 2048h494v-1321q0 -229 -109 -398.5t-304 -262t-453 -92.5q-261 0 -456 92.5t-303 262t-108 398.5v1321h495v-1278q0 -106 46.5 -189t130.5 -130t195 -47t194.5 47t130.5 130t47 189v1278z" />
    <glyph glyph-name="uni0056" unicode="V" horiz-adv-x="2173" 
d="M620 2048l458 -1500h17l458 1500h554l-691 -2048h-659l-691 2048h554z" />
    <glyph glyph-name="uni0057" unicode="W" horiz-adv-x="2998" 
d="M646 0l-596 2048h547l309 -1342h17l353 1342h446l353 -1345h17l310 1345h546l-595 -2048h-477l-369 1242h-16l-369 -1242h-476z" />
    <glyph glyph-name="uni0058" unicode="X" horiz-adv-x="2080" 
d="M656 2048l374 -647h16l378 647h554l-618 -1024l638 -1024h-568l-384 654h-16l-384 -654h-564l635 1024l-619 1024h558z" />
    <glyph glyph-name="uni0059" unicode="Y" horiz-adv-x="2096" 
d="M53 2048h553l433 -857h18l433 857h553l-749 -1364v-684h-492v684z" />
    <glyph glyph-name="uni005A" unicode="Z" horiz-adv-x="1917" 
d="M148 0v282l995 1364h-994v402h1620v-282l-995 -1364h994v-402h-1620z" />
    <glyph glyph-name="uni005B" unicode="[" horiz-adv-x="1196" 
d="M287 -454v2521h855v-359h-381v-1803h381v-359h-855z" />
    <glyph glyph-name="uni005C" unicode="\" horiz-adv-x="1129" 
d="M26 2144h417l660 -2452h-417z" />
    <glyph glyph-name="uni005D" unicode="]" horiz-adv-x="1196" 
d="M909 2067v-2521h-855v359h381v1803h-381v359h855z" />
    <glyph glyph-name="uni005E" unicode="^" horiz-adv-x="1390" 
d="M659 1811h72v-113h-72v113zM86 1120l425 890h368l425 -890h-351l-267 618h18l-266 -618h-352z" />
    <glyph glyph-name="uni005F" unicode="_" horiz-adv-x="1365" 
d="M1366 0v-358h-1367v358h1367z" />
    <glyph glyph-name="uni0060" unicode="`" horiz-adv-x="1400" 
d="M685 1731l-303 451h433l203 -451h-333z" />
    <glyph glyph-name="uni0061" unicode="a" horiz-adv-x="1649" 
d="M588 -26q-147 0 -260.5 49.5t-179 150t-65.5 252.5q0 128 45 216t124 143t182 83.5t220 38.5q131 12 211 25.5t116.5 39t36.5 72.5v5q0 77 -53 119t-143 42q-97 0 -156 -42t-75 -116l-451 16q20 140 103.5 250.5t230 174t352.5 63.5q147 0 271 -34.5t216 -100
t142.5 -160.5t50.5 -217v-1044h-460v214h-12q-41 -78 -104.5 -132t-149 -81t-192.5 -27zM739 294q79 0 142.5 32t101.5 88.5t38 131.5v146q-21 -11 -50.5 -20t-64.5 -17t-72 -14t-71 -11q-69 -11 -117.5 -34t-74 -59.5t-25.5 -86.5q0 -76 54.5 -116t138.5 -40z" />
    <glyph glyph-name="uni0062" unicode="b" horiz-adv-x="1802" 
d="M155 0v2048h489v-775h10q30 70 85.5 135t142 106.5t207.5 41.5q160 0 299.5 -84t225.5 -259t86 -446q0 -261 -82.5 -437t-222 -264t-309.5 -88q-116 0 -201 38t-142.5 100t-88.5 133h-15v-249h-484zM634 768q0 -124 33.5 -216t97 -142.5t152.5 -50.5q90 0 153 50.5
t95.5 142.5t32.5 216t-32.5 215t-95 141t-153.5 50q-90 0 -153 -49t-96.5 -140t-33.5 -217z" />
    <glyph glyph-name="uni0063" unicode="c" horiz-adv-x="1681" 
d="M872 -29q-243 0 -416.5 100t-266.5 278.5t-93 413.5q0 236 93.5 414.5t267 278.5t414.5 100q213 0 371.5 -77t248 -217.5t94.5 -329.5h-457q-14 118 -79.5 185t-170.5 67q-85 0 -149 -47.5t-99.5 -140t-35.5 -228.5t35.5 -229.5t99.5 -141t149 -47.5q68 0 120.5 29
t86.5 85.5t43 137.5h457q-7 -190 -94.5 -332t-245 -220.5t-373.5 -78.5z" />
    <glyph glyph-name="uni0064" unicode="d" horiz-adv-x="1802" 
d="M716 -22q-170 0 -309 88t-222 264t-83 437q0 271 86 446t225.5 259t300.5 84q121 0 207 -41.5t142 -106.5t85 -135h10v775h489v-2048h-484v249h-15q-31 -71 -88 -133t-142.5 -100t-201.5 -38zM886 359q89 0 152 50.5t97 142.5t34 216q0 126 -33.5 217t-97 140t-152.5 49
q-91 0 -154 -50t-95.5 -141t-32.5 -215t33 -216t95.5 -142.5t153.5 -50.5z" />
    <glyph glyph-name="uni0065" unicode="e" horiz-adv-x="1698" 
d="M873 -29q-241 0 -415.5 95.5t-268 273t-93.5 422.5q0 238 94 416.5t265 278t403 99.5q164 0 300 -51t235 -151t154 -246.5t55 -335.5v-122h-1335v284h880q-1 78 -37 139t-98.5 95.5t-143.5 34.5q-82 0 -147 -36.5t-103 -99t-40 -141.5v-289q0 -94 37 -164.5t105 -109.5
t162 -39q65 0 118 18t91 53t57 86l449 -13q-28 -151 -122.5 -262.5t-247.5 -173t-354 -61.5z" />
    <glyph glyph-name="uni0066" unicode="f" horiz-adv-x="1109" 
d="M1028 1536v-360h-988v360h988zM246 0v1614q0 178 67 295.5t186 176t275 58.5q102 0 192.5 -15.5t134.5 -27.5l-78 -358q-27 9 -65.5 15t-72.5 6q-86 0 -118 -38t-32 -104v-1622h-489z" />
    <glyph glyph-name="uni0067" unicode="g" horiz-adv-x="1806" 
d="M871 -595q-219 0 -375 60t-245 163.5t-107 231.5l463 26q13 -41 48.5 -73t93 -50.5t135.5 -18.5q123 0 203.5 58t80.5 196v270h-17q-29 -71 -88 -127t-146.5 -88t-200.5 -32q-168 0 -307.5 78.5t-223 244t-83.5 426.5q0 269 86 443.5t225.5 258.5t300.5 84
q121 0 207.5 -41.5t142.5 -106.5t85 -135h14v263h487v-1542q0 -189 -98 -320.5t-274 -200t-407 -68.5zM886 377q89 0 152 47t97 135t34 211q0 125 -33.5 215.5t-97 139.5t-152.5 49q-91 0 -154 -50t-95.5 -140.5t-32.5 -213.5t33 -211t95.5 -135t153.5 -47z" />
    <glyph glyph-name="uni0068" unicode="h" horiz-adv-x="1789" 
d="M644 876v-876h-489v2048h473v-794h17q52 142 170.5 222t290.5 80q162 0 282 -71.5t186.5 -201.5t65.5 -304v-979h-489v883q1 128 -64 200t-183 72q-77 0 -135.5 -33.5t-91 -95.5t-33.5 -150z" />
    <glyph glyph-name="uni0069" unicode="i" horiz-adv-x="799" 
d="M155 0v1536h489v-1536h-489zM401 1715q-104 0 -178 68.5t-74 165.5q0 96 74 164.5t177 68.5q104 0 177.5 -68.5t73.5 -164.5q0 -97 -73.5 -165.5t-176.5 -68.5z" />
    <glyph glyph-name="uni006A" unicode="j" horiz-adv-x="799" 
d="M155 1536h489v-1594q0 -190 -77.5 -304.5t-221 -164t-339.5 -43.5q-20 1 -40.5 1t-49.5 3v370q18 -2 32 -2.5t28 -0.5q101 0 140 37t39 114v1584zM400 1715q-104 0 -178 68.5t-74 165.5q0 96 74 164.5t177 68.5q104 0 177.5 -68.5t73.5 -164.5q0 -97 -73.5 -165.5
t-176.5 -68.5z" />
    <glyph glyph-name="uni006B" unicode="k" horiz-adv-x="1673" 
d="M596 403l2 583h68l432 550h554l-642 -788h-129zM155 0v2048h489v-2048h-489zM1109 0l-402 638l322 347l645 -985h-565z" />
    <glyph glyph-name="uni006C" unicode="l" horiz-adv-x="799" 
d="M644 2048v-2048h-489v2048h489z" />
    <glyph glyph-name="uni006D" unicode="m" horiz-adv-x="2608" 
d="M155 0v1536h465v-282h17q48 140 162 221t272 81q160 0 274 -82t145 -220h16q43 137 168 219.5t295 82.5q218 0 354 -139.5t136 -382.5v-1034h-489v922q0 115 -59 175.5t-153 60.5q-101 0 -158.5 -65.5t-57.5 -175.5v-917h-470v927q0 107 -58 169t-153 62
q-64 0 -113 -30.5t-76.5 -86.5t-27.5 -132v-909h-489z" />
    <glyph glyph-name="uni006E" unicode="n" horiz-adv-x="1786" 
d="M644 876v-876h-489v1536h465v-282h17q51 141 174 221.5t293 80.5q162 0 281.5 -72.5t186 -202t65.5 -302.5v-979h-489v883q1 128 -64.5 200t-181.5 72q-77 0 -135.5 -33.5t-90 -95.5t-32.5 -150z" />
    <glyph glyph-name="uni006F" unicode="o" horiz-adv-x="1744" 
d="M872 -29q-242 0 -415.5 99.5t-267 278t-93.5 414.5q0 237 93.5 415.5t267 278t415.5 99.5t415.5 -99.5t267 -278t93.5 -415.5q0 -236 -93.5 -414.5t-267 -278t-415.5 -99.5zM875 340q88 0 149 54t93.5 150t32.5 222q0 128 -32.5 224t-93.5 150t-149 54q-91 0 -153.5 -54
t-95 -150t-32.5 -224q0 -126 32.5 -222t95 -150t153.5 -54z" />
    <glyph glyph-name="uni0070" unicode="p" horiz-adv-x="1802" 
d="M155 -576v2112h484v-263h15q30 70 85.5 135t142 106.5t207.5 41.5q160 0 299.5 -84t225.5 -259t86 -446q0 -261 -82.5 -437t-222 -264t-309.5 -88q-116 0 -201 38t-142.5 100t-88.5 133h-10v-825h-489zM634 768q0 -124 33.5 -216t97 -142.5t152.5 -50.5q90 0 153 50.5
t95.5 142.5t32.5 216t-32.5 215t-95 141t-153.5 50q-90 0 -153 -49t-96.5 -140t-33.5 -217z" />
    <glyph glyph-name="uni0071" unicode="q" horiz-adv-x="1802" 
d="M1647 -576h-489v825h-10q-31 -71 -88 -133t-142.5 -100t-201.5 -38q-170 0 -309 88t-222 264t-83 437q0 271 86 446t225.5 259t300.5 84q121 0 207 -41.5t142 -106.5t85 -135h15v263h484v-2112zM1169 768q0 126 -33.5 217t-97 140t-152.5 49q-91 0 -154 -50t-95.5 -141
t-32.5 -215t33 -216t95.5 -142.5t153.5 -50.5q89 0 152 50.5t97 142.5t34 216z" />
    <glyph glyph-name="uni0072" unicode="r" horiz-adv-x="1186" 
d="M155 0v1536h475v-280h16q42 152 137 226.5t221 74.5q34 0 70 -4.5t67 -13.5v-425q-35 12 -91.5 19t-100.5 7q-87 0 -156.5 -38.5t-109 -107t-39.5 -160.5v-834h-489z" />
    <glyph glyph-name="uni0073" unicode="s" horiz-adv-x="1619" 
d="M1496 1067l-449 -12q-7 48 -38 85.5t-80.5 59t-114.5 21.5q-85 0 -144.5 -34t-58.5 -92q-1 -45 36.5 -78t134.5 -53l296 -56q230 -44 342.5 -146t113.5 -270q-1 -158 -93.5 -275t-252.5 -181.5t-366 -64.5q-329 0 -518.5 135.5t-216.5 363.5l483 12q16 -84 83 -128
t171 -44q94 0 153 35t60 93q-1 52 -46 83.5t-141 49.5l-268 51q-231 42 -344 155.5t-112 289.5q-1 154 82 263.5t236 167.5t361 58q312 0 492 -130.5t199 -358.5z" />
    <glyph glyph-name="uni0074" unicode="t" horiz-adv-x="1117" 
d="M1022 1536v-360h-969v360h969zM256 1904h489v-1421q0 -45 14.5 -72.5t42.5 -39t67 -11.5q28 0 59.5 5.5t47.5 9.5l74 -353q-35 -10 -98.5 -25t-151.5 -19q-172 -8 -294.5 40.5t-187 151.5t-62.5 259v1475z" />
    <glyph glyph-name="uni0075" unicode="u" horiz-adv-x="1790" 
d="M1146 663v873h488v-1536h-466v286h-16q-51 -141 -173.5 -223.5t-295.5 -82.5q-157 0 -276 72t-185 201.5t-67 303.5v979h489v-883q1 -125 66 -197t177 -72q73 0 131.5 32.5t93 95t34.5 151.5z" />
    <glyph glyph-name="uni0076" unicode="v" horiz-adv-x="1677" 
d="M1645 1536l-527 -1536h-560l-526 1536h515l283 -1058h16l284 1058h515z" />
    <glyph glyph-name="uni0077" unicode="w" horiz-adv-x="2429" 
d="M442 0l-400 1536h491l207 -984h13l222 984h479l228 -977h13l201 977h491l-401 -1536h-523l-240 895h-17l-240 -895h-524z" />
    <glyph glyph-name="uni0078" unicode="x" horiz-adv-x="1648" 
d="M571 1536l253 -506l262 506h493l-429 -768l445 -768h-489l-282 510l-275 -510h-496l446 768l-424 768h496z" />
    <glyph glyph-name="uni0079" unicode="y" horiz-adv-x="1677" 
d="M454 -574q-88 0 -166 13.5t-134 35.5l108 355q108 -35 182.5 -24.5t114.5 92.5l19 46l-546 1592h512l283 -1096h16l287 1096l515 -1l-579 -1682q-42 -124 -118.5 -220.5t-197 -151.5t-296.5 -55z" />
    <glyph glyph-name="uni007A" unicode="z" horiz-adv-x="1639" 
d="M159 0v279l712 867v10h-687v380h1270v-306l-660 -840v-10h684v-380h-1319z" />
    <glyph glyph-name="uni007B" unicode="{" horiz-adv-x="1196" 
d="M82 796v226q174 0 241.5 69t67.5 219v189q0 201 59.5 316t163 169t239.5 68.5t289 14.5v-359q-120 0 -179.5 -29t-79.5 -88t-20 -149v-256q0 -76 -31 -146t-114 -125t-236.5 -87t-399.5 -32zM1142 -454q-153 0 -289 14.5t-239.5 68.5t-163 169t-59.5 316v188
q0 151 -67.5 219.5t-241.5 68.5v227q246 0 399.5 -32.5t236.5 -87t114 -124.5t31 -146v-256q0 -90 20 -149t79.5 -88t179.5 -29v-359zM82 590v432h399v-432h-399z" />
    <glyph glyph-name="uni007C" unicode="|" horiz-adv-x="1096" 
d="M784 2708v-3368h-472v3368h472z" />
    <glyph glyph-name="uni007D" unicode="}" horiz-adv-x="1196" 
d="M1114 817v-227q-173 0 -241 -68.5t-68 -219.5v-188q0 -201 -59.5 -316t-163 -169t-239 -68.5t-289.5 -14.5v359q120 0 179.5 29t79.5 88t20 149v256q0 76 31 146t114 124.5t236.5 87t399.5 32.5zM54 2067q154 0 289.5 -14.5t239 -68.5t163 -169t59.5 -316v-189
q0 -150 68 -219t241 -69v-226q-246 0 -399.5 32t-236.5 87t-114 125t-31 146v256q0 90 -20 149t-79.5 88t-179.5 29v359zM1114 1022v-432h-399v432h399z" />
    <glyph glyph-name="uni007E" unicode="~" horiz-adv-x="1933" 
d="M210 534q-7 198 43 339t152 216t249 75q91 0 177 -37t196 -134q53 -46 91 -73t90 -27q66 0 111 53.5t41 174.5h363q8 -197 -44 -338t-154.5 -216.5t-245.5 -75.5q-98 0 -185.5 40t-191.5 131q-58 52 -92.5 76t-84.5 24q-67 0 -111 -52.5t-41 -175.5h-363z" />
    <glyph glyph-name="uni00A0" unicode="&#xa0;" horiz-adv-x="606" 
 />
    <glyph glyph-name="uni00A1" unicode="&#xa1;" horiz-adv-x="957" 
d="M478 1560q103 0 181.5 -76t78.5 -184q0 -106 -78.5 -181.5t-181.5 -75.5q-107 0 -183.5 75.5t-76.5 181.5q0 72 35 131t94.5 94t130.5 35zM730 -517h-503l46 1421h411z" />
    <glyph glyph-name="uni00A2" unicode="&#xa2;" horiz-adv-x="1681" 
d="M776 -256v2036h193v-2036h-193zM872 -29q-243 0 -416.5 100t-266.5 278.5t-93 413.5q0 236 93.5 414.5t267 278.5t414.5 100q213 0 371.5 -77t248 -217.5t94.5 -329.5h-457q-14 118 -79.5 185t-170.5 67q-85 0 -149 -47.5t-99.5 -140t-35.5 -228.5t35.5 -229.5t99.5 -141
t149 -47.5q68 0 120.5 29t86.5 85.5t43 137.5h457q-7 -190 -94.5 -332t-245 -220.5t-373.5 -78.5z" />
    <glyph glyph-name="uni00A3" unicode="&#xa3;" horiz-adv-x="1930" 
d="M1735 0h-1532v402h1532v-402zM1351 822h-1153v378h1153v-378zM900 1482l32 -845q5 -141 -65 -227.5t-237 -152.5l-280 145q39 13 58.5 41.5t26 69.5t5.5 92l-31 877q-7 188 74.5 321t231.5 203t347 70q161 0 285 -40.5t209.5 -117.5t130 -185t46.5 -243l-463 -6
q-1 78 -28.5 122.5t-73 62t-101.5 17.5q-52 0 -89.5 -22.5t-58 -68t-19.5 -113.5z" />
    <glyph glyph-name="uni00A4" unicode="&#xa4;" horiz-adv-x="2193" 
d="M1098 -28q-176 0 -330.5 65.5t-271.5 183.5t-183.5 275t-65.5 340q-1 183 65.5 339.5t183.5 273.5t271.5 182t330.5 65q174 0 327.5 -65t270.5 -182t183.5 -273.5t67.5 -339.5q-1 -183 -67.5 -340t-183.5 -275t-270.5 -183.5t-327.5 -65.5zM1098 246q120 0 225.5 45
t185.5 125.5t125.5 187.5t46.5 232q-1 168 -79.5 301.5t-211 211t-292.5 77.5q-164 0 -296.5 -77.5t-210 -211t-76.5 -301.5q-1 -166 76.5 -300t210 -212t296.5 -78zM1717 1253l-202 206l286 284l205 -206zM1801 -39l-286 284l202 202l289 -280zM398 -39l-202 206l286 280
l205 -202zM482 1253l-286 284l202 206l289 -284z" />
    <glyph glyph-name="uni00A5" unicode="&#xa5;" horiz-adv-x="1634" 
d="M540 2048l390 -996l-327 -269l-563 1265h500zM710 1065l384 983h500l-567 -1265zM1053 1079v-1079h-488v1079h488zM1443 1068v-270h-1310v270h1310zM1443 672v-270h-1310v270h1310z" />
    <glyph glyph-name="uni00A6" unicode="&#xa6;" horiz-adv-x="1046" 
d="M306 578h434v-962h-434v962zM740 2048v-958h-434v958h434z" />
    <glyph glyph-name="uni00A7" unicode="&#xa7;" horiz-adv-x="1709" 
d="M1448 1532h-423q-1 59 -49 99.5t-140 40.5q-40 0 -81.5 -10t-68.5 -35t-27 -72q0 -44 29.5 -79t72 -58.5t79.5 -35.5l382 -161q39 -17 99 -49.5t116 -87t88.5 -136t20.5 -196.5q-10 -87 -55.5 -138.5t-99 -77.5t-87.5 -35l-6 -4q88 -78 134 -173t47 -215
q0 -161 -80.5 -278t-220 -180.5t-319.5 -63.5q-193 0 -339.5 70t-228 195.5t-81.5 295.5h424q-1 -77 59.5 -119t172.5 -35q64 3 123.5 28.5t60.5 86.5q0 44 -30 77.5t-70.5 57t-74.5 38.5l-381 157q-42 17 -102 49.5t-116 88t-89 138t-21 197.5q10 88 53 139t97.5 76.5
t94.5 36.5v2q-80 77 -129.5 172t-48.5 217q0 150 76.5 267.5t213 185.5t313.5 68q183 0 320 -70.5t214.5 -194t77.5 -279.5zM1153 723q6 26 -7.5 53t-49 52.5t-96.5 49.5l-315 125q-33 13 -60 8t-45 -23.5t-24 -46.5q-10 -39 28 -80.5t126 -74.5l320 -127q28 -11 53 -6
t44 23t26 47z" />
    <glyph glyph-name="uni00A8" unicode="&#xa8;" horiz-adv-x="1453" 
d="M416 1731q-94 0 -160.5 64t-66.5 154t66.5 153.5t160.5 63.5q93 0 158.5 -63.5t65.5 -153.5t-65.5 -154t-158.5 -64zM1040 1731q-94 0 -160.5 64t-66.5 154t66.5 153.5t160.5 63.5q93 0 158.5 -63.5t65.5 -153.5t-65.5 -154t-158.5 -64z" />
    <glyph glyph-name="uni00A9" unicode="&#xa9;" horiz-adv-x="2576" 
d="M741 1024q0 153 74.5 278.5t200.5 200.5t279 75q134 0 248.5 -59.5t188 -161.5t88.5 -231h-316q-14 67 -73 108.5t-136 41.5q-69 0 -126 -33.5t-91.5 -90.5t-34.5 -127q0 -69 34.5 -126.5t91.5 -92t126 -34.5q77 0 134 41.5t71 108.5h316q-15 -129 -87.5 -231
t-185.5 -161.5t-248 -59.5q-153 0 -279 75t-200.5 200.5t-74.5 278.5zM1288 -32q-218 0 -409.5 82t-337 227.5t-228 336.5t-81.5 410t83.5 410t227.5 336.5t336 227.5t409 82q219 0 410.5 -82t336 -227.5t226.5 -336.5t83 -410t-81 -410t-227 -336.5t-337 -227.5t-411 -82z
M1288 334q144 0 269.5 54t219.5 148.5t147.5 219t53.5 267.5q-1 144 -54.5 269.5t-148 219.5t-219.5 148t-268 54q-142 0 -266.5 -54t-219.5 -149t-149 -220t-55 -268q0 -142 53.5 -266.5t148.5 -219.5t220 -149t268 -54z" />
    <glyph glyph-name="uni00AA" unicode="&#xaa;" horiz-adv-x="1408" 
d="M877 1184v468q0 82 -40.5 129t-126.5 47q-92 0 -143.5 -35t-51.5 -101l-249 17q0 140 122.5 231.5t321.5 91.5q188 0 302 -95.5t114 -284.5v-432q0 -56 7 -120t33 -131h-254q-15 45 -25 100.5t-10 114.5zM940 1581v-160h-206q-123 0 -180.5 -46t-57.5 -106
q0 -55 40 -87.5t126 -32.5q58 0 117.5 25.5t100 62.5t40.5 71l24 -163q-32 -69 -115.5 -131t-229.5 -62q-170 0 -261.5 85.5t-91.5 226.5q0 153 120.5 235t367.5 82h206z" />
    <glyph glyph-name="uni00AB" unicode="&#xab;" horiz-adv-x="1843" 
d="M1005 220h-445l-404 600v20h465zM1005 1448l-384 -620h-465v20l404 600h445zM1712 220h-445l-404 600v20h465zM1712 1448l-384 -620h-465v20l404 600h445z" />
    <glyph glyph-name="uni00AC" unicode="&#xac;" horiz-adv-x="1670" 
d="M1435 1108v-236h-1193v236h1193zM1435 1000v-484h-285v484h285z" />
    <glyph glyph-name="uni00AD" unicode="&#xad;" horiz-adv-x="1328" 
d="M1138 1017v-377h-948v377h948z" />
    <glyph glyph-name="uni00AE" unicode="&#xae;" horiz-adv-x="1862" 
d="M638 916v738h357q78 0 138.5 -30t94 -85t33.5 -132q0 -78 -35 -132.5t-96.5 -83t-141.5 -28.5h-240v145h202q45 0 73 25t28 74q0 51 -28 74.5t-72 23.5h-111v-589h-202zM1118 1254l163 -338h-221l-150 338h208zM931 476q-166 0 -311 62t-255 172t-172 255t-62 311t62 311
t172 255t255 172t311 62t311 -62t255 -172t172 -255t62 -311t-62 -311t-172 -255t-255 -172t-311 -62zM931 694q162 0 294 78.5t210.5 210.5t78.5 293t-78.5 293t-211 210.5t-293.5 78.5t-293 -78.5t-210.5 -210.5t-78.5 -293t78.5 -293t210.5 -210.5t293 -78.5z" />
    <glyph glyph-name="uni00AF" unicode="&#xaf;" horiz-adv-x="1699" 
d="M1343 2048v-242h-987v242h987z" />
    <glyph glyph-name="uni00B0" unicode="&#xb0;" horiz-adv-x="1299" 
d="M650 1058q-139 0 -253 67.5t-181.5 181.5t-67.5 252q0 139 67.5 253t181.5 181.5t253 67.5t252.5 -67.5t181 -181.5t67.5 -253q0 -138 -67.5 -252t-181 -181.5t-252.5 -67.5zM650 1370q52 0 95 25.5t68.5 68.5t25.5 95q0 53 -25.5 96t-68.5 68.5t-95 25.5
q-53 0 -96 -25.5t-68.5 -68.5t-25.5 -95q0 -53 25.5 -96.5t69 -68.5t95.5 -25z" />
    <glyph glyph-name="uni00B1" unicode="&#xb1;" horiz-adv-x="1933" 
d="M242 70v378h1448v-378h-1448zM242 910v365h1448v-365h-1448zM765 586v1014h403v-1014h-403z" />
    <glyph glyph-name="uni00B2" unicode="&#xb2;" horiz-adv-x="1197" 
d="M118 1024v242l493 381q51 40 90 73.5t61.5 68.5t22.5 79q0 66 -55.5 100.5t-133.5 34.5q-84 0 -135 -39t-51 -118h-323q0 200 144.5 311t368.5 111q154 0 267.5 -53t175.5 -143t62 -200q0 -90 -37.5 -167t-115 -149t-198.5 -146l-152 -100v-11h510v-275h-994z" />
    <glyph glyph-name="uni00B3" unicode="&#xb3;" horiz-adv-x="1257" 
d="M623 1008q-155 0 -276 47t-191.5 132t-73.5 197h344q6 -47 61.5 -72t135.5 -25q81 0 139.5 29t58.5 86q0 53 -58 87.5t-161 34.5h-155v250h155q87 0 138 33t51 83q0 52 -45.5 82.5t-118.5 30.5q-80 0 -135.5 -29t-58.5 -75h-323q2 109 71.5 192.5t186.5 130t262 46.5
q148 0 258 -48t170 -129t60 -179q0 -108 -74.5 -171.5t-177.5 -76.5v-11q144 -12 225.5 -83.5t81.5 -189.5q0 -110 -71.5 -193.5t-195.5 -131t-283 -47.5z" />
    <glyph glyph-name="uni00B4" unicode="&#xb4;" horiz-adv-x="1400" 
d="M525 1731l202 451h433l-302 -451h-333z" />
    <glyph glyph-name="uni00B5" unicode="&#xb5;" horiz-adv-x="1918" 
d="M155 -550v2086h489v-873q1 -82 40.5 -145t110.5 -98.5t165 -35.5q93 0 164 35.5t111 99t39 144.5v873h489v-1536h-466v215h-12q-41 -92 -128 -144.5t-197 -52.5q-111 0 -198.5 52.5t-127.5 144.5h-12v-765h-467z" />
    <glyph glyph-name="uni00B6" unicode="&#xb6;" horiz-adv-x="1726" 
d="M1322 1684h-368v-924h-120q-227 0 -383.5 83.5t-237 229t-80.5 331.5q0 184 80.5 329.5t237 230t383.5 84.5h488v-364zM1202 0v2048h369v-2048h-369z" />
    <glyph glyph-name="uni00B7" unicode="&#xb7;" horiz-adv-x="859" 
d="M430 637q-108 0 -184.5 76t-75.5 184q-1 106 75.5 181.5t184.5 75.5q102 0 180.5 -75.5t79.5 -181.5q-1 -72 -37.5 -131t-95 -94t-127.5 -35z" />
    <glyph glyph-name="uni00B8" unicode="&#xb8;" horiz-adv-x="1155" 
d="M482 8h196l-16 -90q110 -16 176 -79.5t67 -165.5q1 -156 -148.5 -246.5t-415.5 -90.5l-2 201q137 0 212 31t78 94q3 58 -45 92.5t-149 47.5z" />
    <glyph glyph-name="uni00B9" unicode="&#xb9;" horiz-adv-x="911" 
d="M393 1024v928h-7l-287 -176v279l317 197h297v-1228h-320z" />
    <glyph glyph-name="uni00BA" unicode="&#xba;" horiz-adv-x="1398" 
d="M204 1436v105q0 143 61 254t172 174t262 63q229 0 362 -138t133 -353v-105q0 -142 -59 -252t-169 -172.5t-263 -62.5q-231 0 -365 137t-134 350zM454 1541v-105q0 -123 62 -203.5t187 -80.5q122 0 182 80.5t60 203.5v105q0 120 -60.5 203.5t-185.5 83.5
q-122 0 -183.5 -83.5t-61.5 -203.5z" />
    <glyph glyph-name="uni00BB" unicode="&#xbb;" horiz-adv-x="1856" 
d="M127 220l384 620h465v-20l-404 -600h-445zM127 1448h445l404 -600v-20h-465zM847 220l384 620h465v-20l-404 -600h-445zM847 1448h445l404 -600v-20h-465z" />
    <glyph glyph-name="uni00BC" unicode="&#xbc;" horiz-adv-x="2472" 
d="M323 0l1408 2048h273l-1408 -2048h-273zM347 960v809h-7l-260 -160v261l288 178h276v-1088h-297zM1366 167v241l501 680h205v-321h-117l-284 -345v-10h739v-245h-1044zM1962 0v238l4 111v739h283v-1088h-287z" />
    <glyph glyph-name="uni00BD" unicode="&#xbd;" horiz-adv-x="2570" 
d="M323 0l1408 2048h273l-1408 -2048h-273zM347 960v809h-7l-260 -160v261l288 178h276v-1088h-297zM1607 0v216l448 338q62 47 108.5 90t46.5 102q0 58 -50.5 87.5t-123.5 29.5q-75 0 -121 -33t-46 -102h-286q0 177 130 276.5t330 99.5q206 0 328 -103t122 -251
q0 -82 -34.5 -151t-105 -131.5t-177.5 -124.5l-137 -84v-11h456v-248h-888z" />
    <glyph glyph-name="uni00BE" unicode="&#xbe;" horiz-adv-x="2733" 
d="M584 0l1408 2048h273l-1408 -2048h-273zM1627 167v241l501 680h205v-321h-117l-284 -345v-10h739v-245h-1044zM2223 0v238l4 111v739h283v-1088h-287zM564 944q-147 0 -255.5 44t-169.5 119t-64 169h308q5 -40 53 -62.5t118 -22.5q80 0 135 27t55 75q0 45 -50.5 75
t-147.5 30h-146v228h146q75 0 121.5 28t46.5 74q0 44 -40.5 72t-112.5 28q-65 0 -116 -24t-55 -64h-291q4 96 67.5 169t169 114t234.5 41q132 0 230 -43t152.5 -115t54.5 -159q0 -88 -61 -147t-160 -72v-11q133 -11 202 -76.5t69 -166.5q0 -97 -65 -171.5t-176.5 -116.5
t-251.5 -42z" />
    <glyph glyph-name="uni00BF" unicode="&#xbf;" horiz-adv-x="1636" 
d="M875 1538q108 0 185 -75.5t75 -184.5q2 -106 -75 -181t-185 -75q-103 0 -180.5 75t-79.5 181q1 73 37.5 132t95.5 93.5t127 34.5zM1096 882v-40q0 -170 -28.5 -271.5t-83 -162.5t-134.5 -112q-62 -41 -112 -82t-79 -89t-29 -109q0 -60 28 -104.5t76.5 -69t107.5 -24.5
t110.5 26.5t84 77t33.5 119.5h460q-3 -210 -97.5 -344.5t-250 -198.5t-344.5 -64q-205 0 -366 64t-253 188.5t-92 306.5q0 120 40 210.5t111.5 160t167.5 125.5q76 46 125 93t74 109.5t25 150.5v40h426z" />
    <glyph glyph-name="uni00C0" unicode="&#xc0;" horiz-adv-x="2173" 
d="M598 0h-532l691 2048h659l691 -2048h-532l-481 1532h-16zM527 806h1112v-376h-1112v376zM923 2243l-303 451h433l203 -451h-333z" />
    <glyph glyph-name="uni00C1" unicode="&#xc1;" horiz-adv-x="2173" 
d="M598 0h-532l691 2048h659l691 -2048h-532l-481 1532h-16zM527 806h1112v-376h-1112v376zM918 2243l202 451h433l-302 -451h-333z" />
    <glyph glyph-name="uni00C2" unicode="&#xc2;" horiz-adv-x="2173" 
d="M598 0h-532l691 2048h659l691 -2048h-532l-481 1532h-16zM527 806h1112v-376h-1112v376zM888 2230h-410v13l433 448h351l432 -448v-13h-409l-199 232z" />
    <glyph glyph-name="uni00C3" unicode="&#xc3;" horiz-adv-x="2173" 
d="M598 0h-532l691 2048h659l691 -2048h-532l-481 1532h-16zM527 806h1112v-376h-1112v376zM807 2248l-255 2q0 203 97 307t236 105q74 0 126.5 -23.5t93 -55t76 -55t75.5 -23.5q57 1 84.5 42.5t28.5 112.5l251 -3q-3 -201 -99 -306.5t-234 -106.5q-76 -1 -129 23t-91.5 55
t-73.5 54.5t-77 23.5q-49 0 -79 -39.5t-30 -112.5z" />
    <glyph glyph-name="uni00C4" unicode="&#xc4;" horiz-adv-x="2173" 
d="M598 0h-532l691 2048h659l691 -2048h-532l-481 1532h-16zM527 806h1112v-376h-1112v376zM776 2243q-94 0 -160.5 64t-66.5 154t66.5 153.5t160.5 63.5q93 0 158.5 -63.5t65.5 -153.5t-65.5 -154t-158.5 -64zM1400 2243q-94 0 -160.5 64t-66.5 154t66.5 153.5t160.5 63.5
q93 0 158.5 -63.5t65.5 -153.5t-65.5 -154t-158.5 -64z" />
    <glyph glyph-name="uni00C5" unicode="&#xc5;" horiz-adv-x="2173" 
d="M598 0h-532l691 2048h659l691 -2048h-532l-481 1532h-16zM527 806h1112v-376h-1112v376zM1086 2149q-88 0 -161.5 41.5t-117 112t-43.5 155.5t43.5 155t117 111.5t161.5 41.5q90 0 163 -41.5t116.5 -111.5t43.5 -155q0 -86 -43.5 -156t-116.5 -111.5t-163 -41.5z
M1086 2330q56 0 96 37.5t40 90.5t-40 90.5t-96 37.5q-55 -1 -95 -38t-40 -90t39.5 -91t95.5 -37z" />
    <glyph glyph-name="uni00C6" unicode="&#xc6;" horiz-adv-x="2938" 
d="M66 0l838 2048h1879v-402h-933v-420h860v-403h-860v-421h933v-402h-1428v1553h-141l-604 -1553h-544zM546 430v376h1096v-376h-1096z" />
    <glyph glyph-name="uni00C7" unicode="&#xc7;" horiz-adv-x="2141" 
d="M2014 1306h-500q-10 77 -41 139t-82 106t-120.5 67.5t-153.5 23.5q-149 0 -256.5 -73t-165 -211t-57.5 -334q0 -204 58.5 -341.5t165 -207t252.5 -69.5q82 0 149.5 21t119 61.5t85 99t46.5 132.5l500 -3q-13 -136 -78.5 -268t-179.5 -240.5t-277.5 -172.5t-374.5 -64
q-278 0 -497.5 122.5t-346.5 357.5t-127 572q0 338 129 573t349 357t493 122q186 0 344 -51.5t278 -150t195 -241.5t93 -327zM997 11h196l-16 -90q110 -16 176 -79.5t67 -165.5q1 -156 -148.5 -246.5t-415.5 -90.5l-2 201q137 0 212 31t78 94q3 58 -45 92.5t-149 47.5z" />
    <glyph glyph-name="uni00C8" unicode="&#xc8;" horiz-adv-x="1738" 
d="M155 0v2048h1428v-402h-933v-420h860v-403h-860v-421h933v-402h-1428zM710 2243l-303 451h433l203 -451h-333z" />
    <glyph glyph-name="uni00C9" unicode="&#xc9;" horiz-adv-x="1738" 
d="M155 0v2048h1428v-402h-933v-420h860v-403h-860v-421h933v-402h-1428zM705 2243l202 451h433l-302 -451h-333z" />
    <glyph glyph-name="uni00CA" unicode="&#xca;" horiz-adv-x="1738" 
d="M155 0v2048h1428v-402h-933v-420h860v-403h-860v-421h933v-402h-1428zM675 2230h-410v13l433 448h351l432 -448v-13h-409l-199 232z" />
    <glyph glyph-name="uni00CB" unicode="&#xcb;" horiz-adv-x="1738" 
d="M155 0v2048h1428v-402h-933v-420h860v-403h-860v-421h933v-402h-1428zM563 2243q-94 0 -160.5 64t-66.5 154t66.5 153.5t160.5 63.5q93 0 158.5 -63.5t65.5 -153.5t-65.5 -154t-158.5 -64zM1187 2243q-94 0 -160.5 64t-66.5 154t66.5 153.5t160.5 63.5q93 0 158.5 -63.5
t65.5 -153.5t-65.5 -154t-158.5 -64z" />
    <glyph glyph-name="uni00CC" unicode="&#xcc;" horiz-adv-x="805" 
d="M650 2048v-2048h-495v2048h495zM240 2243l-303 451h433l203 -451h-333z" />
    <glyph glyph-name="uni00CD" unicode="&#xcd;" horiz-adv-x="805" 
d="M650 2048v-2048h-495v2048h495zM235 2243l202 451h433l-302 -451h-333z" />
    <glyph glyph-name="uni00CE" unicode="&#xce;" horiz-adv-x="805" 
d="M650 2048v-2048h-495v2048h495zM206 2230h-410v13l433 448h351l432 -448v-13h-409l-199 232z" />
    <glyph glyph-name="uni00CF" unicode="&#xcf;" horiz-adv-x="805" 
d="M650 2048v-2048h-495v2048h495zM94 2243q-94 0 -160.5 64t-66.5 154t66.5 153.5t160.5 63.5q93 0 158.5 -63.5t65.5 -153.5t-65.5 -154t-158.5 -64zM718 2243q-94 0 -160.5 64t-66.5 154t66.5 153.5t160.5 63.5q93 0 158.5 -63.5t65.5 -153.5t-65.5 -154t-158.5 -64z" />
    <glyph glyph-name="uni00D0" unicode="&#xd0;" horiz-adv-x="2056" 
d="M912 0h-757v2048h756q313 0 539.5 -122.5t349.5 -352t123 -548.5q0 -320 -122.5 -550t-349.5 -352.5t-539 -122.5zM650 422h243q172 0 291.5 58.5t181 191t61.5 353.5t-62 352.5t-182.5 190t-296.5 58.5h-236v-1204zM-119 952v273h1037v-273h-1037z" />
    <glyph glyph-name="uni00D1" unicode="&#xd1;" horiz-adv-x="2053" 
d="M1898 2048v-2048h-420l-815 1182h-13v-1182h-495v2048h426l806 -1180h17v1180h494zM749 2238l-255 2q0 203 97 307t236 105q74 0 126.5 -23.5t93 -55t76 -55t75.5 -23.5q57 1 84.5 42.5t28.5 112.5l251 -3q-3 -201 -99 -306.5t-234 -106.5q-76 -1 -129 23t-91.5 55
t-73.5 54.5t-77 23.5q-49 0 -79 -39.5t-30 -112.5z" />
    <glyph glyph-name="uni00D2" unicode="&#xd2;" horiz-adv-x="2221" 
d="M2088 1024q0 -338 -130 -573t-351.5 -357t-496.5 -122q-276 0 -497 123t-350.5 357.5t-129.5 571.5q0 338 129.5 573t350.5 357t497 122q275 0 496.5 -122t351.5 -357t130 -573zM1582 1024q0 200 -56.5 338t-162 209t-253.5 71q-147 0 -253 -71t-162.5 -209t-56.5 -338
t56.5 -338t162.5 -209t253 -71q148 0 253.5 71t162 209t56.5 338zM947 2243l-303 451h433l203 -451h-333z" />
    <glyph glyph-name="uni00D3" unicode="&#xd3;" horiz-adv-x="2221" 
d="M2088 1024q0 -338 -130 -573t-351.5 -357t-496.5 -122q-276 0 -497 123t-350.5 357.5t-129.5 571.5q0 338 129.5 573t350.5 357t497 122q275 0 496.5 -122t351.5 -357t130 -573zM1582 1024q0 200 -56.5 338t-162 209t-253.5 71q-147 0 -253 -71t-162.5 -209t-56.5 -338
t56.5 -338t162.5 -209t253 -71q148 0 253.5 71t162 209t56.5 338zM942 2243l202 451h433l-302 -451h-333z" />
    <glyph glyph-name="uni00D4" unicode="&#xd4;" horiz-adv-x="2221" 
d="M2088 1024q0 -338 -130 -573t-351.5 -357t-496.5 -122q-276 0 -497 123t-350.5 357.5t-129.5 571.5q0 338 129.5 573t350.5 357t497 122q275 0 496.5 -122t351.5 -357t130 -573zM1582 1024q0 200 -56.5 338t-162 209t-253.5 71q-147 0 -253 -71t-162.5 -209t-56.5 -338
t56.5 -338t162.5 -209t253 -71q148 0 253.5 71t162 209t56.5 338zM912 2230h-410v13l433 448h351l432 -448v-13h-409l-199 232z" />
    <glyph glyph-name="uni00D5" unicode="&#xd5;" horiz-adv-x="2221" 
d="M2088 1024q0 -338 -130 -573t-351.5 -357t-496.5 -122q-276 0 -497 123t-350.5 357.5t-129.5 571.5q0 338 129.5 573t350.5 357t497 122q275 0 496.5 -122t351.5 -357t130 -573zM1582 1024q0 200 -56.5 338t-162 209t-253.5 71q-147 0 -253 -71t-162.5 -209t-56.5 -338
t56.5 -338t162.5 -209t253 -71q148 0 253.5 71t162 209t56.5 338zM831 2248l-255 2q0 203 97 307t236 105q74 0 126.5 -23.5t93 -55t76 -55t75.5 -23.5q57 1 84.5 42.5t28.5 112.5l251 -3q-3 -201 -99 -306.5t-234 -106.5q-76 -1 -129 23t-91.5 55t-73.5 54.5t-77 23.5
q-49 0 -79 -39.5t-30 -112.5z" />
    <glyph glyph-name="uni00D6" unicode="&#xd6;" horiz-adv-x="2221" 
d="M2088 1024q0 -338 -130 -573t-351.5 -357t-496.5 -122q-276 0 -497 123t-350.5 357.5t-129.5 571.5q0 338 129.5 573t350.5 357t497 122q275 0 496.5 -122t351.5 -357t130 -573zM1582 1024q0 200 -56.5 338t-162 209t-253.5 71q-147 0 -253 -71t-162.5 -209t-56.5 -338
t56.5 -338t162.5 -209t253 -71q148 0 253.5 71t162 209t56.5 338zM800 2243q-94 0 -160.5 64t-66.5 154t66.5 153.5t160.5 63.5q93 0 158.5 -63.5t65.5 -153.5t-65.5 -154t-158.5 -64zM1424 2243q-94 0 -160.5 64t-66.5 154t66.5 153.5t160.5 63.5q93 0 158.5 -63.5
t65.5 -153.5t-65.5 -154t-158.5 -64z" />
    <glyph glyph-name="uni00D7" unicode="&#xd7;" horiz-adv-x="1933" 
d="M1426 67l-1218 1215l299 302l1218 -1218zM507 67l-299 299l1218 1218l299 -302z" />
    <glyph glyph-name="uni00D8" unicode="&#xd8;" horiz-adv-x="2221" 
d="M474 -103l-210 142l1482 2108l209 -142zM2088 1024q0 -338 -130 -573t-351.5 -357t-496.5 -122q-276 0 -497 123t-350.5 357.5t-129.5 571.5q0 338 129.5 573t350.5 357t497 122q275 0 496.5 -122t351.5 -357t130 -573zM1582 1024q0 200 -56.5 338t-162 209t-253.5 71
q-147 0 -253 -71t-162.5 -209t-56.5 -338t56.5 -338t162.5 -209t253 -71q148 0 253.5 71t162 209t56.5 338z" />
    <glyph glyph-name="uni00D9" unicode="&#xd9;" horiz-adv-x="2043" 
d="M1394 2048h494v-1321q0 -229 -109 -398.5t-304 -262t-453 -92.5q-261 0 -456 92.5t-303 262t-108 398.5v1321h495v-1278q0 -106 46.5 -189t130.5 -130t195 -47t194.5 47t130.5 130t47 189v1278zM858 2243l-303 451h433l203 -451h-333z" />
    <glyph glyph-name="uni00DA" unicode="&#xda;" horiz-adv-x="2043" 
d="M1394 2048h494v-1321q0 -229 -109 -398.5t-304 -262t-453 -92.5q-261 0 -456 92.5t-303 262t-108 398.5v1321h495v-1278q0 -106 46.5 -189t130.5 -130t195 -47t194.5 47t130.5 130t47 189v1278zM853 2243l202 451h433l-302 -451h-333z" />
    <glyph glyph-name="uni00DB" unicode="&#xdb;" horiz-adv-x="2043" 
d="M1394 2048h494v-1321q0 -229 -109 -398.5t-304 -262t-453 -92.5q-261 0 -456 92.5t-303 262t-108 398.5v1321h495v-1278q0 -106 46.5 -189t130.5 -130t195 -47t194.5 47t130.5 130t47 189v1278zM823 2230h-410v13l433 448h351l432 -448v-13h-409l-199 232z" />
    <glyph glyph-name="uni00DC" unicode="&#xdc;" horiz-adv-x="2043" 
d="M1394 2048h494v-1321q0 -229 -109 -398.5t-304 -262t-453 -92.5q-261 0 -456 92.5t-303 262t-108 398.5v1321h495v-1278q0 -106 46.5 -189t130.5 -130t195 -47t194.5 47t130.5 130t47 189v1278zM711 2243q-94 0 -160.5 64t-66.5 154t66.5 153.5t160.5 63.5
q93 0 158.5 -63.5t65.5 -153.5t-65.5 -154t-158.5 -64zM1335 2243q-94 0 -160.5 64t-66.5 154t66.5 153.5t160.5 63.5q93 0 158.5 -63.5t65.5 -153.5t-65.5 -154t-158.5 -64z" />
    <glyph glyph-name="uni00DD" unicode="&#xdd;" horiz-adv-x="2096" 
d="M53 2048h553l433 -857h18l433 857h553l-749 -1364v-684h-492v684zM879 2243l202 451h433l-302 -451h-333z" />
    <glyph glyph-name="uni00DE" unicode="&#xde;" horiz-adv-x="1926" 
d="M155 2048h495v-2048h-495v2048zM383 1688h535q256 0 433.5 -82.5t269 -226.5t91.5 -330t-91.5 -329.5t-269 -225t-433.5 -81.5h-535v370h535q116 0 187 38t102.5 97.5t31.5 126.5q0 68 -31.5 130t-102.5 100.5t-187 38.5h-535v374z" />
    <glyph glyph-name="uni00DF" unicode="&#xdf;" horiz-adv-x="1921" 
d="M155 0v1502q0 179 91 307.5t258.5 197.5t393.5 69q209 0 385 -62.5t283 -187t107 -313.5q0 -154 -75.5 -264t-210.5 -146v-23q202 -12 317.5 -156t113.5 -360q0 -185 -87 -310.5t-240 -189.5t-352 -64h-285v390h193q84 0 146.5 28t96.5 79.5t33 120.5q-1 108 -84 170.5
t-225 62.5h-152v368h100q63 0 109.5 30t72.5 80.5t27 112.5q2 102 -66.5 167t-190.5 65q-123 0 -196.5 -69t-73.5 -187v-1418h-489z" />
    <glyph glyph-name="uni00E0" unicode="&#xe0;" horiz-adv-x="1649" 
d="M588 -26q-147 0 -260.5 49.5t-179 150t-65.5 252.5q0 128 45 216t124 143t182 83.5t220 38.5q131 12 211 25.5t116.5 39t36.5 72.5v5q0 77 -53 119t-143 42q-97 0 -156 -42t-75 -116l-451 16q20 140 103.5 250.5t230 174t352.5 63.5q147 0 271 -34.5t216 -100
t142.5 -160.5t50.5 -217v-1044h-460v214h-12q-41 -78 -104.5 -132t-149 -81t-192.5 -27zM739 294q79 0 142.5 32t101.5 88.5t38 131.5v146q-21 -11 -50.5 -20t-64.5 -17t-72 -14t-71 -11q-69 -11 -117.5 -34t-74 -59.5t-25.5 -86.5q0 -76 54.5 -116t138.5 -40zM679 1731
l-303 451h433l203 -451h-333z" />
    <glyph glyph-name="uni00E1" unicode="&#xe1;" horiz-adv-x="1649" 
d="M588 -26q-147 0 -260.5 49.5t-179 150t-65.5 252.5q0 128 45 216t124 143t182 83.5t220 38.5q131 12 211 25.5t116.5 39t36.5 72.5v5q0 77 -53 119t-143 42q-97 0 -156 -42t-75 -116l-451 16q20 140 103.5 250.5t230 174t352.5 63.5q147 0 271 -34.5t216 -100
t142.5 -160.5t50.5 -217v-1044h-460v214h-12q-41 -78 -104.5 -132t-149 -81t-192.5 -27zM739 294q79 0 142.5 32t101.5 88.5t38 131.5v146q-21 -11 -50.5 -20t-64.5 -17t-72 -14t-71 -11q-69 -11 -117.5 -34t-74 -59.5t-25.5 -86.5q0 -76 54.5 -116t138.5 -40zM674 1731
l202 451h433l-302 -451h-333z" />
    <glyph glyph-name="uni00E2" unicode="&#xe2;" horiz-adv-x="1649" 
d="M588 -26q-147 0 -260.5 49.5t-179 150t-65.5 252.5q0 128 45 216t124 143t182 83.5t220 38.5q131 12 211 25.5t116.5 39t36.5 72.5v5q0 77 -53 119t-143 42q-97 0 -156 -42t-75 -116l-451 16q20 140 103.5 250.5t230 174t352.5 63.5q147 0 271 -34.5t216 -100
t142.5 -160.5t50.5 -217v-1044h-460v214h-12q-41 -78 -104.5 -132t-149 -81t-192.5 -27zM739 294q79 0 142.5 32t101.5 88.5t38 131.5v146q-21 -11 -50.5 -20t-64.5 -17t-72 -14t-71 -11q-69 -11 -117.5 -34t-74 -59.5t-25.5 -86.5q0 -76 54.5 -116t138.5 -40zM644 1718
h-410v13l433 448h351l432 -448v-13h-409l-199 232z" />
    <glyph glyph-name="uni00E3" unicode="&#xe3;" horiz-adv-x="1649" 
d="M588 -26q-147 0 -260.5 49.5t-179 150t-65.5 252.5q0 128 45 216t124 143t182 83.5t220 38.5q131 12 211 25.5t116.5 39t36.5 72.5v5q0 77 -53 119t-143 42q-97 0 -156 -42t-75 -116l-451 16q20 140 103.5 250.5t230 174t352.5 63.5q147 0 271 -34.5t216 -100
t142.5 -160.5t50.5 -217v-1044h-460v214h-12q-41 -78 -104.5 -132t-149 -81t-192.5 -27zM739 294q79 0 142.5 32t101.5 88.5t38 131.5v146q-21 -11 -50.5 -20t-64.5 -17t-72 -14t-71 -11q-69 -11 -117.5 -34t-74 -59.5t-25.5 -86.5q0 -76 54.5 -116t138.5 -40zM563 1726
l-255 2q0 203 97 307t236 105q74 0 126.5 -23.5t93 -55t76 -55t75.5 -23.5q57 1 84.5 42.5t28.5 112.5l251 -3q-3 -201 -99 -306.5t-234 -106.5q-76 -1 -129 23t-91.5 55t-73.5 54.5t-77 23.5q-49 0 -79 -39.5t-30 -112.5z" />
    <glyph glyph-name="uni00E4" unicode="&#xe4;" horiz-adv-x="1649" 
d="M588 -26q-147 0 -260.5 49.5t-179 150t-65.5 252.5q0 128 45 216t124 143t182 83.5t220 38.5q131 12 211 25.5t116.5 39t36.5 72.5v5q0 77 -53 119t-143 42q-97 0 -156 -42t-75 -116l-451 16q20 140 103.5 250.5t230 174t352.5 63.5q147 0 271 -34.5t216 -100
t142.5 -160.5t50.5 -217v-1044h-460v214h-12q-41 -78 -104.5 -132t-149 -81t-192.5 -27zM739 294q79 0 142.5 32t101.5 88.5t38 131.5v146q-21 -11 -50.5 -20t-64.5 -17t-72 -14t-71 -11q-69 -11 -117.5 -34t-74 -59.5t-25.5 -86.5q0 -76 54.5 -116t138.5 -40zM532 1731
q-94 0 -160.5 64t-66.5 154t66.5 153.5t160.5 63.5q93 0 158.5 -63.5t65.5 -153.5t-65.5 -154t-158.5 -64zM1156 1731q-94 0 -160.5 64t-66.5 154t66.5 153.5t160.5 63.5q93 0 158.5 -63.5t65.5 -153.5t-65.5 -154t-158.5 -64z" />
    <glyph glyph-name="uni00E5" unicode="&#xe5;" horiz-adv-x="1649" 
d="M588 -26q-147 0 -260.5 49.5t-179 150t-65.5 252.5q0 128 45 216t124 143t182 83.5t220 38.5q131 12 211 25.5t116.5 39t36.5 72.5v5q0 77 -53 119t-143 42q-97 0 -156 -42t-75 -116l-451 16q20 140 103.5 250.5t230 174t352.5 63.5q147 0 271 -34.5t216 -100
t142.5 -160.5t50.5 -217v-1044h-460v214h-12q-41 -78 -104.5 -132t-149 -81t-192.5 -27zM739 294q79 0 142.5 32t101.5 88.5t38 131.5v146q-21 -11 -50.5 -20t-64.5 -17t-72 -14t-71 -11q-69 -11 -117.5 -34t-74 -59.5t-25.5 -86.5q0 -76 54.5 -116t138.5 -40zM842 1698
q-92 0 -168 44t-121.5 117.5t-45.5 162.5q0 90 45.5 164t121.5 118.5t168 44.5q93 0 169 -44.5t121 -118.5t45 -164q0 -89 -45 -162.5t-121 -117.5t-169 -44zM842 1886q61 0 102.5 40.5t41.5 95.5q0 56 -41.5 98t-102.5 41q-60 -1 -102 -42t-42 -97q0 -55 42 -96t102 -40z
" />
    <glyph glyph-name="uni00E6" unicode="&#xe6;" horiz-adv-x="2562" 
d="M1773 -29q-201 0 -358.5 82.5t-222.5 244.5l-33 950q102 164 242.5 236t321.5 72q163 0 299.5 -51t235.5 -151t153.5 -246.5t54.5 -335.5v-122h-1292v284h838q-2 78 -38 139t-98.5 95.5t-142.5 34.5q-83 0 -148 -36.5t-102.5 -99.5t-39.5 -141v-289q0 -94 37 -164.5
t105 -109.5t162 -39q64 0 117.5 18t91.5 53t57 86l449 -13q-28 -151 -123 -262.5t-240 -173t-326 -61.5zM739 294q79 0 142.5 32t101.5 88.5t38 131.5v146q-21 -11 -50.5 -20t-64.5 -17t-72 -14t-71 -11q-69 -11 -117.5 -34t-74 -59.5t-25.5 -86.5q0 -76 54.5 -116
t138.5 -40zM620 -26q-163 0 -284 49.5t-187 150.5t-66 252q0 128 45 215.5t124.5 142.5t182.5 84t219 39q132 12 211.5 26t116 39.5t36.5 71.5v5q0 78 -53 119.5t-143 41.5q-96 0 -156 -42t-75 -116l-451 16q20 140 103.5 250.5t231 174t361.5 63.5q74 0 141 -13.5
t125.5 -41t103 -71.5t71.5 -104l-38 -1084h-29q-45 -86 -134.5 -146t-207.5 -91t-248 -31z" />
    <glyph glyph-name="uni00E7" unicode="&#xe7;" horiz-adv-x="1681" 
d="M872 -29q-243 0 -416.5 100t-266.5 278.5t-93 413.5q0 236 93.5 414.5t267 278.5t414.5 100q213 0 371.5 -77t248 -217.5t94.5 -329.5h-457q-14 118 -79.5 185t-170.5 67q-85 0 -149 -47.5t-99.5 -140t-35.5 -228.5t35.5 -229.5t99.5 -141t149 -47.5q68 0 120.5 29
t86.5 85.5t43 137.5h457q-7 -190 -94.5 -332t-245 -220.5t-373.5 -78.5zM776 8h196l-16 -90q110 -16 176 -79.5t67 -165.5q1 -156 -148.5 -246.5t-415.5 -90.5l-2 201q137 0 212 31t78 94q3 58 -45 92.5t-149 47.5z" />
    <glyph glyph-name="uni00E8" unicode="&#xe8;" horiz-adv-x="1698" 
d="M873 -29q-241 0 -415.5 95.5t-268 273t-93.5 422.5q0 238 94 416.5t265 278t403 99.5q164 0 300 -51t235 -151t154 -246.5t55 -335.5v-122h-1335v284h880q-1 78 -37 139t-98.5 95.5t-143.5 34.5q-82 0 -147 -36.5t-103 -99t-40 -141.5v-289q0 -94 37 -164.5t105 -109.5
t162 -39q65 0 118 18t91 53t57 86l449 -13q-28 -151 -122.5 -262.5t-247.5 -173t-354 -61.5zM686 1731l-303 451h433l203 -451h-333z" />
    <glyph glyph-name="uni00E9" unicode="&#xe9;" horiz-adv-x="1698" 
d="M873 -29q-241 0 -415.5 95.5t-268 273t-93.5 422.5q0 238 94 416.5t265 278t403 99.5q164 0 300 -51t235 -151t154 -246.5t55 -335.5v-122h-1335v284h880q-1 78 -37 139t-98.5 95.5t-143.5 34.5q-82 0 -147 -36.5t-103 -99t-40 -141.5v-289q0 -94 37 -164.5t105 -109.5
t162 -39q65 0 118 18t91 53t57 86l449 -13q-28 -151 -122.5 -262.5t-247.5 -173t-354 -61.5zM681 1731l202 451h433l-302 -451h-333z" />
    <glyph glyph-name="uni00EA" unicode="&#xea;" horiz-adv-x="1698" 
d="M873 -29q-241 0 -415.5 95.5t-268 273t-93.5 422.5q0 238 94 416.5t265 278t403 99.5q164 0 300 -51t235 -151t154 -246.5t55 -335.5v-122h-1335v284h880q-1 78 -37 139t-98.5 95.5t-143.5 34.5q-82 0 -147 -36.5t-103 -99t-40 -141.5v-289q0 -94 37 -164.5t105 -109.5
t162 -39q65 0 118 18t91 53t57 86l449 -13q-28 -151 -122.5 -262.5t-247.5 -173t-354 -61.5zM651 1718h-410v13l433 448h351l432 -448v-13h-409l-199 232z" />
    <glyph glyph-name="uni00EB" unicode="&#xeb;" horiz-adv-x="1698" 
d="M873 -29q-241 0 -415.5 95.5t-268 273t-93.5 422.5q0 238 94 416.5t265 278t403 99.5q164 0 300 -51t235 -151t154 -246.5t55 -335.5v-122h-1335v284h880q-1 78 -37 139t-98.5 95.5t-143.5 34.5q-82 0 -147 -36.5t-103 -99t-40 -141.5v-289q0 -94 37 -164.5t105 -109.5
t162 -39q65 0 118 18t91 53t57 86l449 -13q-28 -151 -122.5 -262.5t-247.5 -173t-354 -61.5zM539 1731q-94 0 -160.5 64t-66.5 154t66.5 153.5t160.5 63.5q93 0 158.5 -63.5t65.5 -153.5t-65.5 -154t-158.5 -64zM1163 1731q-94 0 -160.5 64t-66.5 154t66.5 153.5t160.5 63.5
q93 0 158.5 -63.5t65.5 -153.5t-65.5 -154t-158.5 -64z" />
    <glyph glyph-name="uni00EC" unicode="&#xec;" horiz-adv-x="799" 
d="M155 0v1536h489v-1536h-489zM236 1731l-303 451h433l203 -451h-333z" />
    <glyph glyph-name="uni00ED" unicode="&#xed;" horiz-adv-x="799" 
d="M155 0v1536h489v-1536h-489zM231 1731l202 451h433l-302 -451h-333z" />
    <glyph glyph-name="uni00EE" unicode="&#xee;" horiz-adv-x="799" 
d="M155 0v1536h489v-1536h-489zM202 1718h-410v13l433 448h351l432 -448v-13h-409l-199 232z" />
    <glyph glyph-name="uni00EF" unicode="&#xef;" horiz-adv-x="799" 
d="M155 0v1536h489v-1536h-489zM90 1731q-94 0 -160.5 64t-66.5 154t66.5 153.5t160.5 63.5q93 0 158.5 -63.5t65.5 -153.5t-65.5 -154t-158.5 -64zM714 1731q-94 0 -160.5 64t-66.5 154t66.5 153.5t160.5 63.5q93 0 158.5 -63.5t65.5 -153.5t-65.5 -154t-158.5 -64z" />
    <glyph glyph-name="uni00F0" unicode="&#xf0;" horiz-adv-x="1603" 
d="M1261 1855l-871 -450l-132 237l871 451zM800 -32q-212 0 -369 95t-243 261t-86 380q0 205 70.5 354t179.5 239t225 121q58 12 122.5 14t124.5 -15t104 -61h20q-57 87 -116 153t-130 123t-164 115.5t-220 129.5l216 299q176 -87 347 -222.5t311.5 -315.5t224.5 -402.5
t84 -483.5q0 -248 -87.5 -423.5t-245.5 -268t-368 -92.5zM822 340q79 0 137.5 38t90 120t31.5 212q0 137 -33.5 214t-92 109t-133.5 32t-133 -33.5t-90.5 -111.5t-32.5 -213q0 -133 32 -213.5t89.5 -117t134.5 -36.5z" />
    <glyph glyph-name="uni00F1" unicode="&#xf1;" horiz-adv-x="1786" 
d="M644 876v-876h-489v1536h465v-282h17q51 141 174 221.5t293 80.5q162 0 281.5 -72.5t186 -202t65.5 -302.5v-979h-489v883q1 128 -64.5 200t-181.5 72q-77 0 -135.5 -33.5t-90 -95.5t-32.5 -150zM615 1726l-255 2q0 203 97 307t236 105q74 0 126.5 -23.5t93 -55t76 -55
t75.5 -23.5q57 1 84.5 42.5t28.5 112.5l251 -3q-3 -201 -99 -306.5t-234 -106.5q-76 -1 -129 23t-91.5 55t-73.5 54.5t-77 23.5q-49 0 -79 -39.5t-30 -112.5z" />
    <glyph glyph-name="uni00F2" unicode="&#xf2;" horiz-adv-x="1744" 
d="M872 -29q-242 0 -415.5 99.5t-267 278t-93.5 414.5q0 237 93.5 415.5t267 278t415.5 99.5t415.5 -99.5t267 -278t93.5 -415.5q0 -236 -93.5 -414.5t-267 -278t-415.5 -99.5zM875 340q88 0 149 54t93.5 150t32.5 222q0 128 -32.5 224t-93.5 150t-149 54q-91 0 -153.5 -54
t-95 -150t-32.5 -224q0 -126 32.5 -222t95 -150t153.5 -54zM708 1731l-303 451h433l203 -451h-333z" />
    <glyph glyph-name="uni00F3" unicode="&#xf3;" horiz-adv-x="1744" 
d="M872 -29q-242 0 -415.5 99.5t-267 278t-93.5 414.5q0 237 93.5 415.5t267 278t415.5 99.5t415.5 -99.5t267 -278t93.5 -415.5q0 -236 -93.5 -414.5t-267 -278t-415.5 -99.5zM875 340q88 0 149 54t93.5 150t32.5 222q0 128 -32.5 224t-93.5 150t-149 54q-91 0 -153.5 -54
t-95 -150t-32.5 -224q0 -126 32.5 -222t95 -150t153.5 -54zM703 1731l202 451h433l-302 -451h-333z" />
    <glyph glyph-name="uni00F4" unicode="&#xf4;" horiz-adv-x="1744" 
d="M872 -29q-242 0 -415.5 99.5t-267 278t-93.5 414.5q0 237 93.5 415.5t267 278t415.5 99.5t415.5 -99.5t267 -278t93.5 -415.5q0 -236 -93.5 -414.5t-267 -278t-415.5 -99.5zM875 340q88 0 149 54t93.5 150t32.5 222q0 128 -32.5 224t-93.5 150t-149 54q-91 0 -153.5 -54
t-95 -150t-32.5 -224q0 -126 32.5 -222t95 -150t153.5 -54zM674 1718h-410v13l433 448h351l432 -448v-13h-409l-199 232z" />
    <glyph glyph-name="uni00F5" unicode="&#xf5;" horiz-adv-x="1744" 
d="M872 -29q-242 0 -415.5 99.5t-267 278t-93.5 414.5q0 237 93.5 415.5t267 278t415.5 99.5t415.5 -99.5t267 -278t93.5 -415.5q0 -236 -93.5 -414.5t-267 -278t-415.5 -99.5zM875 340q88 0 149 54t93.5 150t32.5 222q0 128 -32.5 224t-93.5 150t-149 54q-91 0 -153.5 -54
t-95 -150t-32.5 -224q0 -126 32.5 -222t95 -150t153.5 -54zM593 1726l-255 2q0 203 97 307t236 105q74 0 126.5 -23.5t93 -55t76 -55t75.5 -23.5q57 1 84.5 42.5t28.5 112.5l251 -3q-3 -201 -99 -306.5t-234 -106.5q-76 -1 -129 23t-91.5 55t-73.5 54.5t-77 23.5
q-49 0 -79 -39.5t-30 -112.5z" />
    <glyph glyph-name="uni00F6" unicode="&#xf6;" horiz-adv-x="1744" 
d="M872 -29q-242 0 -415.5 99.5t-267 278t-93.5 414.5q0 237 93.5 415.5t267 278t415.5 99.5t415.5 -99.5t267 -278t93.5 -415.5q0 -236 -93.5 -414.5t-267 -278t-415.5 -99.5zM875 340q88 0 149 54t93.5 150t32.5 222q0 128 -32.5 224t-93.5 150t-149 54q-91 0 -153.5 -54
t-95 -150t-32.5 -224q0 -126 32.5 -222t95 -150t153.5 -54zM562 1731q-94 0 -160.5 64t-66.5 154t66.5 153.5t160.5 63.5q93 0 158.5 -63.5t65.5 -153.5t-65.5 -154t-158.5 -64zM1186 1731q-94 0 -160.5 64t-66.5 154t66.5 153.5t160.5 63.5q93 0 158.5 -63.5t65.5 -153.5
t-65.5 -154t-158.5 -64z" />
    <glyph glyph-name="uni00F7" unicode="&#xf7;" horiz-adv-x="1933" 
d="M1686 1014v-377h-1440v377h1440zM966 -5q-109 0 -186 77t-77 186q0 108 77 184t186 76q108 0 184 -76t76 -184q0 -109 -76 -186t-184 -77zM966 1134q-72 0 -132 35.5t-95.5 95t-35.5 132.5q0 108 77.5 183.5t185.5 75.5t184 -75.5t76 -183.5q0 -109 -76 -186t-184 -77z
" />
    <glyph glyph-name="uni00F8" unicode="&#xf8;" horiz-adv-x="1744" 
d="M418 -103l-209 142l1113 1588l213 -142zM872 -32q-242 0 -415.5 99.5t-267 278t-93.5 414.5q0 237 93.5 415.5t267 278t415.5 99.5t415.5 -99.5t267 -278t93.5 -415.5q0 -236 -93.5 -414.5t-267 -278t-415.5 -99.5zM875 337q88 0 149 53.5t93.5 149.5t32.5 223
q0 128 -32.5 223.5t-93.5 149.5t-149 54q-91 0 -153.5 -54t-95 -149.5t-32.5 -223.5q0 -127 32.5 -223t95 -149.5t153.5 -53.5z" />
    <glyph glyph-name="uni00F9" unicode="&#xf9;" horiz-adv-x="1790" 
d="M1146 663v873h488v-1536h-466v286h-16q-51 -141 -173.5 -223.5t-295.5 -82.5q-157 0 -276 72t-185 201.5t-67 303.5v979h489v-883q1 -125 66 -197t177 -72q73 0 131.5 32.5t93 95t34.5 151.5zM733 1731l-303 451h433l203 -451h-333z" />
    <glyph glyph-name="uni00FA" unicode="&#xfa;" horiz-adv-x="1790" 
d="M1146 663v873h488v-1536h-466v286h-16q-51 -141 -173.5 -223.5t-295.5 -82.5q-157 0 -276 72t-185 201.5t-67 303.5v979h489v-883q1 -125 66 -197t177 -72q73 0 131.5 32.5t93 95t34.5 151.5zM728 1731l202 451h433l-302 -451h-333z" />
    <glyph glyph-name="uni00FB" unicode="&#xfb;" horiz-adv-x="1790" 
d="M1146 663v873h488v-1536h-466v286h-16q-51 -141 -173.5 -223.5t-295.5 -82.5q-157 0 -276 72t-185 201.5t-67 303.5v979h489v-883q1 -125 66 -197t177 -72q73 0 131.5 32.5t93 95t34.5 151.5zM698 1718h-410v13l433 448h351l432 -448v-13h-409l-199 232z" />
    <glyph glyph-name="uni00FC" unicode="&#xfc;" horiz-adv-x="1790" 
d="M1146 663v873h488v-1536h-466v286h-16q-51 -141 -173.5 -223.5t-295.5 -82.5q-157 0 -276 72t-185 201.5t-67 303.5v979h489v-883q1 -125 66 -197t177 -72q73 0 131.5 32.5t93 95t34.5 151.5zM586 1731q-94 0 -160.5 64t-66.5 154t66.5 153.5t160.5 63.5
q93 0 158.5 -63.5t65.5 -153.5t-65.5 -154t-158.5 -64zM1210 1731q-94 0 -160.5 64t-66.5 154t66.5 153.5t160.5 63.5q93 0 158.5 -63.5t65.5 -153.5t-65.5 -154t-158.5 -64z" />
    <glyph glyph-name="uni00FD" unicode="&#xfd;" horiz-adv-x="1677" 
d="M454 -574q-88 0 -166 13.5t-134 35.5l108 355q108 -35 182.5 -24.5t114.5 92.5l19 46l-546 1592h512l283 -1096h16l287 1096l515 -1l-579 -1682q-42 -124 -118.5 -220.5t-197 -151.5t-296.5 -55zM667 1731l202 451h433l-302 -451h-333z" />
    <glyph glyph-name="uni00FE" unicode="&#xfe;" horiz-adv-x="1729" 
d="M155 2048h489v-764l-178 -545l178 -432v-883h-489v2624zM449 1382h212q27 57 77.5 96t121 58.5t155.5 19.5q158 0 297.5 -84t227 -259t86.5 -446q1 -263 -83 -438.5t-223.5 -263t-306.5 -87.5q-80 0 -150 17.5t-122 54.5t-80 96h-212v1236zM1166 768q1 130 -32.5 221
t-100 138t-167.5 47q-107 0 -167.5 -55t-84.5 -147.5t-25 -203.5q1 -108 24 -201.5t83 -150.5t170 -57q100 0 167 48t100.5 139.5t32.5 221.5z" />
    <glyph glyph-name="uni00FF" unicode="&#xff;" horiz-adv-x="1677" 
d="M454 -574q-88 0 -166 13.5t-134 35.5l108 355q108 -35 182.5 -24.5t114.5 92.5l19 46l-546 1592h512l283 -1096h16l287 1096l515 -1l-579 -1682q-42 -124 -118.5 -220.5t-197 -151.5t-296.5 -55zM525 1731q-94 0 -160.5 64t-66.5 154t66.5 153.5t160.5 63.5
q93 0 158.5 -63.5t65.5 -153.5t-65.5 -154t-158.5 -64zM1149 1731q-94 0 -160.5 64t-66.5 154t66.5 153.5t160.5 63.5q93 0 158.5 -63.5t65.5 -153.5t-65.5 -154t-158.5 -64z" />
    <glyph glyph-name="uni0100" unicode="&#x100;" horiz-adv-x="2173" 
d="M598 0h-532l691 2048h659l691 -2048h-532l-481 1532h-16zM527 806h1112v-376h-1112v376zM1580 2560v-242h-987v242h987z" />
    <glyph glyph-name="uni0101" unicode="&#x101;" horiz-adv-x="1649" 
d="M588 -26q-147 0 -260.5 49.5t-179 150t-65.5 252.5q0 128 45 216t124 143t182 83.5t220 38.5q131 12 211 25.5t116.5 39t36.5 72.5v5q0 77 -53 119t-143 42q-97 0 -156 -42t-75 -116l-451 16q20 140 103.5 250.5t230 174t352.5 63.5q147 0 271 -34.5t216 -100
t142.5 -160.5t50.5 -217v-1044h-460v214h-12q-41 -78 -104.5 -132t-149 -81t-192.5 -27zM739 294q79 0 142.5 32t101.5 88.5t38 131.5v146q-21 -11 -50.5 -20t-64.5 -17t-72 -14t-71 -11q-69 -11 -117.5 -34t-74 -59.5t-25.5 -86.5q0 -76 54.5 -116t138.5 -40zM1336 2048
v-242h-987v242h987z" />
    <glyph glyph-name="uni0102" unicode="&#x102;" horiz-adv-x="2173" 
d="M598 0h-532l691 2048h659l691 -2048h-532l-481 1532h-16zM527 806h1112v-376h-1112v376zM1286 2592h322q-1 -188 -141.5 -302t-380.5 -114t-380.5 114t-139.5 302h319q-1 -66 45 -120t156 -54q107 0 153 53t47 121z" />
    <glyph glyph-name="uni0103" unicode="&#x103;" horiz-adv-x="1649" 
d="M588 -26q-147 0 -260.5 49.5t-179 150t-65.5 252.5q0 128 45 216t124 143t182 83.5t220 38.5q131 12 211 25.5t116.5 39t36.5 72.5v5q0 77 -53 119t-143 42q-97 0 -156 -42t-75 -116l-451 16q20 140 103.5 250.5t230 174t352.5 63.5q147 0 271 -34.5t216 -100
t142.5 -160.5t50.5 -217v-1044h-460v214h-12q-41 -78 -104.5 -132t-149 -81t-192.5 -27zM739 294q79 0 142.5 32t101.5 88.5t38 131.5v146q-21 -11 -50.5 -20t-64.5 -17t-72 -14t-71 -11q-69 -11 -117.5 -34t-74 -59.5t-25.5 -86.5q0 -76 54.5 -116t138.5 -40zM1042 2080
h322q-1 -188 -141.5 -302t-380.5 -114t-380.5 114t-139.5 302h319q-1 -66 45 -120t156 -54q107 0 153 53t47 121z" />
    <glyph glyph-name="uni0104" unicode="&#x104;" horiz-adv-x="2173" 
d="M598 0h-532l691 2048h659l691 -2048h-532l-481 1532h-16zM527 806h1112v-376h-1112v376zM1910 -565q-136 0 -228.5 69t-122.5 195q-21 84 -9.5 170t55 155t116.5 102l386 -126q-95 -37 -151 -80t-55 -109q-1 -50 24.5 -76t69.5 -26q30 0 52.5 7.5t42.5 12.5l54 -234
q-38 -21 -97 -40.5t-137 -19.5z" />
    <glyph glyph-name="uni0105" unicode="&#x105;" horiz-adv-x="1649" 
d="M588 -26q-147 0 -260.5 49.5t-179 150t-65.5 252.5q0 128 45 216t124 143t182 83.5t220 38.5q131 12 211 25.5t116.5 39t36.5 72.5v5q0 77 -53 119t-143 42q-97 0 -156 -42t-75 -116l-451 16q20 140 103.5 250.5t230 174t352.5 63.5q147 0 271 -34.5t216 -100
t142.5 -160.5t50.5 -217v-1044h-460v214h-12q-41 -78 -104.5 -132t-149 -81t-192.5 -27zM739 294q79 0 142.5 32t101.5 88.5t38 131.5v146q-21 -11 -50.5 -20t-64.5 -17t-72 -14t-71 -11q-69 -11 -117.5 -34t-74 -59.5t-25.5 -86.5q0 -76 54.5 -116t138.5 -40zM1309 -565
q-136 0 -228.5 69t-122.5 195q-21 84 -9.5 170t55 155t116.5 102l386 -126q-95 -37 -151 -80t-55 -109q-1 -50 24.5 -76t69.5 -26q30 0 52.5 7.5t42.5 12.5l54 -234q-38 -21 -97 -40.5t-137 -19.5z" />
    <glyph glyph-name="uni0106" unicode="&#x106;" horiz-adv-x="2141" 
d="M2014 1306h-500q-10 77 -41 139t-82 106t-120.5 67.5t-153.5 23.5q-149 0 -256.5 -73t-165 -211t-57.5 -334q0 -204 58.5 -341.5t165 -207t252.5 -69.5q82 0 149.5 21t119 61.5t85 99t46.5 132.5l500 -3q-13 -136 -78.5 -268t-179.5 -240.5t-277.5 -172.5t-374.5 -64
q-278 0 -497.5 122.5t-346.5 357.5t-127 572q0 338 129 573t349 357t493 122q186 0 344 -51.5t278 -150t195 -241.5t93 -327zM935 2243l202 451h433l-302 -451h-333z" />
    <glyph glyph-name="uni0107" unicode="&#x107;" horiz-adv-x="1681" 
d="M872 -29q-243 0 -416.5 100t-266.5 278.5t-93 413.5q0 236 93.5 414.5t267 278.5t414.5 100q213 0 371.5 -77t248 -217.5t94.5 -329.5h-457q-14 118 -79.5 185t-170.5 67q-85 0 -149 -47.5t-99.5 -140t-35.5 -228.5t35.5 -229.5t99.5 -141t149 -47.5q68 0 120.5 29
t86.5 85.5t43 137.5h457q-7 -190 -94.5 -332t-245 -220.5t-373.5 -78.5zM705 1731l202 451h433l-302 -451h-333z" />
    <glyph glyph-name="uni0108" unicode="&#x108;" horiz-adv-x="2141" 
d="M2014 1306h-500q-10 77 -41 139t-82 106t-120.5 67.5t-153.5 23.5q-149 0 -256.5 -73t-165 -211t-57.5 -334q0 -204 58.5 -341.5t165 -207t252.5 -69.5q82 0 149.5 21t119 61.5t85 99t46.5 132.5l500 -3q-13 -136 -78.5 -268t-179.5 -240.5t-277.5 -172.5t-374.5 -64
q-278 0 -497.5 122.5t-346.5 357.5t-127 572q0 338 129 573t349 357t493 122q186 0 344 -51.5t278 -150t195 -241.5t93 -327zM906 2230h-410v13l433 448h351l432 -448v-13h-409l-199 232z" />
    <glyph glyph-name="uni0109" unicode="&#x109;" horiz-adv-x="1681" 
d="M872 -29q-243 0 -416.5 100t-266.5 278.5t-93 413.5q0 236 93.5 414.5t267 278.5t414.5 100q213 0 371.5 -77t248 -217.5t94.5 -329.5h-457q-14 118 -79.5 185t-170.5 67q-85 0 -149 -47.5t-99.5 -140t-35.5 -228.5t35.5 -229.5t99.5 -141t149 -47.5q68 0 120.5 29
t86.5 85.5t43 137.5h457q-7 -190 -94.5 -332t-245 -220.5t-373.5 -78.5zM675 1718h-410v13l433 448h351l432 -448v-13h-409l-199 232z" />
    <glyph glyph-name="uni010A" unicode="&#x10a;" horiz-adv-x="2141" 
d="M2014 1306h-500q-10 77 -41 139t-82 106t-120.5 67.5t-153.5 23.5q-149 0 -256.5 -73t-165 -211t-57.5 -334q0 -204 58.5 -341.5t165 -207t252.5 -69.5q82 0 149.5 21t119 61.5t85 99t46.5 132.5l500 -3q-13 -136 -78.5 -268t-179.5 -240.5t-277.5 -172.5t-374.5 -64
q-278 0 -497.5 122.5t-346.5 357.5t-127 572q0 338 129 573t349 357t493 122q186 0 344 -51.5t278 -150t195 -241.5t93 -327zM1105 2227q-104 0 -178 68.5t-74 165.5q0 96 74 164.5t177 68.5q104 0 177.5 -68.5t73.5 -164.5q0 -97 -73.5 -165.5t-176.5 -68.5z" />
    <glyph glyph-name="uni010B" unicode="&#x10b;" horiz-adv-x="1681" 
d="M872 -29q-243 0 -416.5 100t-266.5 278.5t-93 413.5q0 236 93.5 414.5t267 278.5t414.5 100q213 0 371.5 -77t248 -217.5t94.5 -329.5h-457q-14 118 -79.5 185t-170.5 67q-85 0 -149 -47.5t-99.5 -140t-35.5 -228.5t35.5 -229.5t99.5 -141t149 -47.5q68 0 120.5 29
t86.5 85.5t43 137.5h457q-7 -190 -94.5 -332t-245 -220.5t-373.5 -78.5zM874 1715q-104 0 -178 68.5t-74 165.5q0 96 74 164.5t177 68.5q104 0 177.5 -68.5t73.5 -164.5q0 -97 -73.5 -165.5t-176.5 -68.5z" />
    <glyph glyph-name="uni010C" unicode="&#x10c;" horiz-adv-x="2141" 
d="M2014 1306h-500q-10 77 -41 139t-82 106t-120.5 67.5t-153.5 23.5q-149 0 -256.5 -73t-165 -211t-57.5 -334q0 -204 58.5 -341.5t165 -207t252.5 -69.5q82 0 149.5 21t119 61.5t85 99t46.5 132.5l500 -3q-13 -136 -78.5 -268t-179.5 -240.5t-277.5 -172.5t-374.5 -64
q-278 0 -497.5 122.5t-346.5 357.5t-127 572q0 338 129 573t349 357t493 122q186 0 344 -51.5t278 -150t195 -241.5t93 -327zM906 2693l198 -232l199 232h409v-13l-432 -448h-351l-433 448v13h410z" />
    <glyph glyph-name="uni010D" unicode="&#x10d;" horiz-adv-x="1681" 
d="M872 -29q-243 0 -416.5 100t-266.5 278.5t-93 413.5q0 236 93.5 414.5t267 278.5t414.5 100q213 0 371.5 -77t248 -217.5t94.5 -329.5h-457q-14 118 -79.5 185t-170.5 67q-85 0 -149 -47.5t-99.5 -140t-35.5 -228.5t35.5 -229.5t99.5 -141t149 -47.5q68 0 120.5 29
t86.5 85.5t43 137.5h457q-7 -190 -94.5 -332t-245 -220.5t-373.5 -78.5zM675 2181l198 -232l199 232h409v-13l-432 -448h-351l-433 448v13h410z" />
    <glyph glyph-name="uni010E" unicode="&#x10e;" horiz-adv-x="2056" 
d="M912 0h-757v2048h756q313 0 539.5 -122.5t349.5 -352t123 -548.5q0 -320 -122.5 -550t-349.5 -352.5t-539 -122.5zM650 422h243q172 0 291.5 58.5t181 191t61.5 353.5t-62 352.5t-182.5 190t-296.5 58.5h-236v-1204zM624 2693l198 -232l199 232h409v-13l-432 -448h-351
l-433 448v13h410z" />
    <glyph glyph-name="uni010F" unicode="&#x10f;" horiz-adv-x="2128" 
d="M716 -22q-170 0 -309 88t-222 264t-83 437q0 271 86 446t225.5 259t300.5 84q121 0 207 -41.5t142 -106.5t85 -135h10v775h489v-2048h-484v249h-15q-31 -71 -88 -133t-142.5 -100t-201.5 -38zM886 359q89 0 152 50.5t97 142.5t34 216q0 126 -33.5 217t-97 140t-152.5 49
q-91 0 -154 -50t-95.5 -141t-32.5 -215t33 -216t95.5 -142.5t153.5 -50.5zM1815 1626v531h346l-74 -531h-272z" />
    <glyph glyph-name="uni0110" unicode="&#x110;" horiz-adv-x="2056" 
d="M912 0h-757v2048h756q313 0 539.5 -122.5t349.5 -352t123 -548.5q0 -320 -122.5 -550t-349.5 -352.5t-539 -122.5zM650 422h243q172 0 291.5 58.5t181 191t61.5 353.5t-62 352.5t-182.5 190t-296.5 58.5h-236v-1204zM-119 952v273h1037v-273h-1037z" />
    <glyph glyph-name="uni0111" unicode="&#x111;" horiz-adv-x="1802" 
d="M716 -22q-170 0 -309 88t-222 264t-83 437q0 271 86 446t225.5 259t300.5 84q121 0 207 -41.5t142 -106.5t85 -135h10v775h489v-2048h-484v249h-15q-31 -71 -88 -133t-142.5 -100t-201.5 -38zM886 359q89 0 152 50.5t97 142.5t34 216q0 126 -33.5 217t-97 140t-152.5 49
q-91 0 -154 -50t-95.5 -141t-32.5 -215t33 -216t95.5 -142.5t153.5 -50.5zM769 1633v273h1037v-273h-1037z" />
    <glyph glyph-name="uni0112" unicode="&#x112;" horiz-adv-x="1738" 
d="M155 0v2048h1428v-402h-933v-420h860v-403h-860v-421h933v-402h-1428zM1367 2560v-242h-987v242h987z" />
    <glyph glyph-name="uni0113" unicode="&#x113;" horiz-adv-x="1698" 
d="M873 -29q-241 0 -415.5 95.5t-268 273t-93.5 422.5q0 238 94 416.5t265 278t403 99.5q164 0 300 -51t235 -151t154 -246.5t55 -335.5v-122h-1335v284h880q-1 78 -37 139t-98.5 95.5t-143.5 34.5q-82 0 -147 -36.5t-103 -99t-40 -141.5v-289q0 -94 37 -164.5t105 -109.5
t162 -39q65 0 118 18t91 53t57 86l449 -13q-28 -151 -122.5 -262.5t-247.5 -173t-354 -61.5zM1343 2048v-242h-987v242h987z" />
    <glyph glyph-name="uni0114" unicode="&#x114;" horiz-adv-x="1738" 
d="M155 0v2048h1428v-402h-933v-420h860v-403h-860v-421h933v-402h-1428zM1073 2592h322q-1 -188 -141.5 -302t-380.5 -114t-380.5 114t-139.5 302h319q-1 -66 45 -120t156 -54q107 0 153 53t47 121z" />
    <glyph glyph-name="uni0115" unicode="&#x115;" horiz-adv-x="1698" 
d="M873 -29q-241 0 -415.5 95.5t-268 273t-93.5 422.5q0 238 94 416.5t265 278t403 99.5q164 0 300 -51t235 -151t154 -246.5t55 -335.5v-122h-1335v284h880q-1 78 -37 139t-98.5 95.5t-143.5 34.5q-82 0 -147 -36.5t-103 -99t-40 -141.5v-289q0 -94 37 -164.5t105 -109.5
t162 -39q65 0 118 18t91 53t57 86l449 -13q-28 -151 -122.5 -262.5t-247.5 -173t-354 -61.5zM1049 2080h322q-1 -188 -141.5 -302t-380.5 -114t-380.5 114t-139.5 302h319q-1 -66 45 -120t156 -54q107 0 153 53t47 121z" />
    <glyph glyph-name="uni0116" unicode="&#x116;" horiz-adv-x="1738" 
d="M155 0v2048h1428v-402h-933v-420h860v-403h-860v-421h933v-402h-1428zM874 2227q-104 0 -178 68.5t-74 165.5q0 96 74 164.5t177 68.5q104 0 177.5 -68.5t73.5 -164.5q0 -97 -73.5 -165.5t-176.5 -68.5z" />
    <glyph glyph-name="uni0117" unicode="&#x117;" horiz-adv-x="1698" 
d="M873 -29q-241 0 -415.5 95.5t-268 273t-93.5 422.5q0 238 94 416.5t265 278t403 99.5q164 0 300 -51t235 -151t154 -246.5t55 -335.5v-122h-1335v284h880q-1 78 -37 139t-98.5 95.5t-143.5 34.5q-82 0 -147 -36.5t-103 -99t-40 -141.5v-289q0 -94 37 -164.5t105 -109.5
t162 -39q65 0 118 18t91 53t57 86l449 -13q-28 -151 -122.5 -262.5t-247.5 -173t-354 -61.5zM850 1715q-104 0 -178 68.5t-74 165.5q0 96 74 164.5t177 68.5q104 0 177.5 -68.5t73.5 -164.5q0 -97 -73.5 -165.5t-176.5 -68.5z" />
    <glyph glyph-name="uni0118" unicode="&#x118;" horiz-adv-x="1738" 
d="M155 0v2048h1428v-402h-933v-420h860v-403h-860v-421h933v-402h-1428zM1386 -565q-136 0 -228.5 69t-122.5 195q-21 84 -9.5 170t55 155t116.5 102l386 -126q-95 -37 -151 -80t-55 -109q-1 -50 24.5 -76t69.5 -26q30 0 52.5 7.5t42.5 12.5l54 -234q-38 -21 -97 -40.5
t-137 -19.5z" />
    <glyph glyph-name="uni0119" unicode="&#x119;" horiz-adv-x="1698" 
d="M873 -29q-241 0 -415.5 95.5t-268 273t-93.5 422.5q0 238 94 416.5t265 278t403 99.5q164 0 300 -51t235 -151t154 -246.5t55 -335.5v-122h-1335v284h880q-1 78 -37 139t-98.5 95.5t-143.5 34.5q-82 0 -147 -36.5t-103 -99t-40 -141.5v-289q0 -94 37 -164.5t105 -109.5
t162 -39q65 0 118 18t91 53t57 86l449 -13q-28 -151 -122.5 -262.5t-247.5 -173t-354 -61.5zM1067 -511q-136 0 -228.5 69t-122.5 195q-21 84 -9.5 170t55 155t116.5 102l386 -126q-95 -37 -151 -80t-55 -109q-1 -50 24.5 -76t69.5 -26q30 0 52.5 7.5t42.5 12.5l54 -234
q-38 -21 -97 -40.5t-137 -19.5z" />
    <glyph glyph-name="uni011A" unicode="&#x11a;" horiz-adv-x="1738" 
d="M155 0v2048h1428v-402h-933v-420h860v-403h-860v-421h933v-402h-1428zM675 2693l198 -232l199 232h409v-13l-432 -448h-351l-433 448v13h410z" />
    <glyph glyph-name="uni011B" unicode="&#x11b;" horiz-adv-x="1698" 
d="M873 -29q-241 0 -415.5 95.5t-268 273t-93.5 422.5q0 238 94 416.5t265 278t403 99.5q164 0 300 -51t235 -151t154 -246.5t55 -335.5v-122h-1335v284h880q-1 78 -37 139t-98.5 95.5t-143.5 34.5q-82 0 -147 -36.5t-103 -99t-40 -141.5v-289q0 -94 37 -164.5t105 -109.5
t162 -39q65 0 118 18t91 53t57 86l449 -13q-28 -151 -122.5 -262.5t-247.5 -173t-354 -61.5zM651 2181l198 -232l199 232h409v-13l-432 -448h-351l-433 448v13h410z" />
    <glyph glyph-name="uni011C" unicode="&#x11c;" horiz-adv-x="2159" 
d="M1499 1379q-17 63 -50 111.5t-81 82.5t-110 51.5t-136 17.5q-149 0 -257.5 -72t-167.5 -209.5t-59 -333.5q0 -197 57 -336t165 -212t262 -73q136 0 230.5 44.5t143.5 126.5t49 193l92 -11h-498v361h883v-271q0 -275 -116.5 -471t-320 -301t-467.5 -105q-293 0 -515 127
t-346 362.5t-124 559.5q0 252 75 447.5t209.5 331.5t312 206t382.5 70q178 0 331.5 -51t272 -144t192.5 -221t92 -281h-501zM901 2230h-410v13l433 448h351l432 -448v-13h-409l-199 232z" />
    <glyph glyph-name="uni011D" unicode="&#x11d;" horiz-adv-x="1806" 
d="M871 -595q-219 0 -375 60t-245 163.5t-107 231.5l463 26q13 -41 48.5 -73t93 -50.5t135.5 -18.5q123 0 203.5 58t80.5 196v270h-17q-29 -71 -88 -127t-146.5 -88t-200.5 -32q-168 0 -307.5 78.5t-223 244t-83.5 426.5q0 269 86 443.5t225.5 258.5t300.5 84
q121 0 207.5 -41.5t142.5 -106.5t85 -135h14v263h487v-1542q0 -189 -98 -320.5t-274 -200t-407 -68.5zM886 377q89 0 152 47t97 135t34 211q0 125 -33.5 215.5t-97 139.5t-152.5 49q-91 0 -154 -50t-95.5 -140.5t-32.5 -213.5t33 -211t95.5 -135t153.5 -47zM678 1718h-410
v13l433 448h351l432 -448v-13h-409l-199 232z" />
    <glyph glyph-name="uni011E" unicode="&#x11e;" horiz-adv-x="2159" 
d="M1499 1379q-17 63 -50 111.5t-81 82.5t-110 51.5t-136 17.5q-149 0 -257.5 -72t-167.5 -209.5t-59 -333.5q0 -197 57 -336t165 -212t262 -73q136 0 230.5 44.5t143.5 126.5t49 193l92 -11h-498v361h883v-271q0 -275 -116.5 -471t-320 -301t-467.5 -105q-293 0 -515 127
t-346 362.5t-124 559.5q0 252 75 447.5t209.5 331.5t312 206t382.5 70q178 0 331.5 -51t272 -144t192.5 -221t92 -281h-501zM1299 2592h322q-1 -188 -141.5 -302t-380.5 -114t-380.5 114t-139.5 302h319q-1 -66 45 -120t156 -54q107 0 153 53t47 121z" />
    <glyph glyph-name="uni011F" unicode="&#x11f;" horiz-adv-x="1806" 
d="M871 -595q-219 0 -375 60t-245 163.5t-107 231.5l463 26q13 -41 48.5 -73t93 -50.5t135.5 -18.5q123 0 203.5 58t80.5 196v270h-17q-29 -71 -88 -127t-146.5 -88t-200.5 -32q-168 0 -307.5 78.5t-223 244t-83.5 426.5q0 269 86 443.5t225.5 258.5t300.5 84
q121 0 207.5 -41.5t142.5 -106.5t85 -135h14v263h487v-1542q0 -189 -98 -320.5t-274 -200t-407 -68.5zM886 377q89 0 152 47t97 135t34 211q0 125 -33.5 215.5t-97 139.5t-152.5 49q-91 0 -154 -50t-95.5 -140.5t-32.5 -213.5t33 -211t95.5 -135t153.5 -47zM1076 2080h322
q-1 -188 -141.5 -302t-380.5 -114t-380.5 114t-139.5 302h319q-1 -66 45 -120t156 -54q107 0 153 53t47 121z" />
    <glyph glyph-name="uni0120" unicode="&#x120;" horiz-adv-x="2159" 
d="M1499 1379q-17 63 -50 111.5t-81 82.5t-110 51.5t-136 17.5q-149 0 -257.5 -72t-167.5 -209.5t-59 -333.5q0 -197 57 -336t165 -212t262 -73q136 0 230.5 44.5t143.5 126.5t49 193l92 -11h-498v361h883v-271q0 -275 -116.5 -471t-320 -301t-467.5 -105q-293 0 -515 127
t-346 362.5t-124 559.5q0 252 75 447.5t209.5 331.5t312 206t382.5 70q178 0 331.5 -51t272 -144t192.5 -221t92 -281h-501zM1100 2227q-104 0 -178 68.5t-74 165.5q0 96 74 164.5t177 68.5q104 0 177.5 -68.5t73.5 -164.5q0 -97 -73.5 -165.5t-176.5 -68.5z" />
    <glyph glyph-name="uni0121" unicode="&#x121;" horiz-adv-x="1806" 
d="M871 -595q-219 0 -375 60t-245 163.5t-107 231.5l463 26q13 -41 48.5 -73t93 -50.5t135.5 -18.5q123 0 203.5 58t80.5 196v270h-17q-29 -71 -88 -127t-146.5 -88t-200.5 -32q-168 0 -307.5 78.5t-223 244t-83.5 426.5q0 269 86 443.5t225.5 258.5t300.5 84
q121 0 207.5 -41.5t142.5 -106.5t85 -135h14v263h487v-1542q0 -189 -98 -320.5t-274 -200t-407 -68.5zM886 377q89 0 152 47t97 135t34 211q0 125 -33.5 215.5t-97 139.5t-152.5 49q-91 0 -154 -50t-95.5 -140.5t-32.5 -213.5t33 -211t95.5 -135t153.5 -47zM877 1715
q-104 0 -178 68.5t-74 165.5q0 96 74 164.5t177 68.5q104 0 177.5 -68.5t73.5 -164.5q0 -97 -73.5 -165.5t-176.5 -68.5z" />
    <glyph glyph-name="uni0122" unicode="&#x122;" horiz-adv-x="2159" 
d="M1499 1379q-17 63 -50 111.5t-81 82.5t-110 51.5t-136 17.5q-149 0 -257.5 -72t-167.5 -209.5t-59 -333.5q0 -197 57 -336t165 -212t262 -73q136 0 230.5 44.5t143.5 126.5t49 193l92 -11h-498v361h883v-271q0 -275 -116.5 -471t-320 -301t-467.5 -105q-293 0 -515 127
t-346 362.5t-124 559.5q0 252 75 447.5t209.5 331.5t312 206t382.5 70q178 0 331.5 -51t272 -144t192.5 -221t92 -281h-501zM749 -642l128 486h445l-235 -486h-338z" />
    <glyph glyph-name="uni0123" unicode="&#x123;" horiz-adv-x="1806" 
d="M871 -595q-219 0 -375 60t-245 163.5t-107 231.5l463 26q13 -41 48.5 -73t93 -50.5t135.5 -18.5q123 0 203.5 58t80.5 196v270h-17q-29 -71 -88 -127t-146.5 -88t-200.5 -32q-168 0 -307.5 78.5t-223 244t-83.5 426.5q0 269 86 443.5t225.5 258.5t300.5 84
q121 0 207.5 -41.5t142.5 -106.5t85 -135h14v263h487v-1542q0 -189 -98 -320.5t-274 -200t-407 -68.5zM886 377q89 0 152 47t97 135t34 211q0 125 -33.5 215.5t-97 139.5t-152.5 49q-91 0 -154 -50t-95.5 -140.5t-32.5 -213.5t33 -211t95.5 -135t153.5 -47zM703 1753v195
q0 111 25.5 200t71.5 154t107 103l233 -102q-31 -50 -64 -149t-33 -225l-6 -176h-334z" />
    <glyph glyph-name="uni0124" unicode="&#x124;" horiz-adv-x="2106" 
d="M155 0v2048h495v-822h807v822h494v-2048h-494v823h-807v-823h-495zM857 2231h-410v13l433 448h351l432 -448v-13h-409l-199 232z" />
    <glyph glyph-name="uni0125" unicode="&#x125;" horiz-adv-x="1789" 
d="M644 876v-876h-489v2048h473v-794h17q52 142 170.5 222t290.5 80q162 0 282 -71.5t186.5 -201.5t65.5 -304v-979h-489v883q1 128 -64 200t-183 72q-77 0 -135.5 -33.5t-91 -95.5t-33.5 -150zM195 2230h-410v13l433 448h351l432 -448v-13h-409l-199 232z" />
    <glyph glyph-name="uni0126" unicode="&#x126;" horiz-adv-x="2313" 
d="M2225 1718v-252h-2137v252h2137zM258 0v2048h495v-822h807v822h494v-2048h-494v823h-807v-823h-495z" />
    <glyph glyph-name="uni0127" unicode="&#x127;" horiz-adv-x="1789" 
d="M644 876v-876h-489v2048h473v-794h17q52 142 170.5 222t290.5 80q162 0 282 -71.5t186.5 -201.5t65.5 -304v-979h-489v883q1 128 -64 200t-183 72q-77 0 -135.5 -33.5t-91 -95.5t-33.5 -150zM-130 1630v273h1037v-273h-1037z" />
    <glyph glyph-name="uni0128" unicode="&#x128;" horiz-adv-x="1277" 
d="M883 2048v-2048h-495v2048h495zM358 2238l-255 2q0 203 97 307t236 105q74 0 126.5 -23.5t93 -55t76 -55t75.5 -23.5q57 1 84.5 42.5t28.5 112.5l251 -3q-3 -201 -99 -306.5t-234 -106.5q-76 -1 -129 23t-91.5 55t-73.5 54.5t-77 23.5q-49 0 -79 -39.5t-30 -112.5z" />
    <glyph glyph-name="uni0129" unicode="&#x129;" horiz-adv-x="822" 
d="M167 0v1536h489v-1536h-489zM133 1726l-255 2q0 203 97 307t236 105q74 0 126.5 -23.5t93 -55t76 -55t75.5 -23.5q57 1 84.5 42.5t28.5 112.5l251 -3q-3 -201 -99 -306.5t-234 -106.5q-76 -1 -129 23t-91.5 55t-73.5 54.5t-77 23.5q-49 0 -79 -39.5t-30 -112.5z" />
    <glyph glyph-name="uni012A" unicode="&#x12a;" horiz-adv-x="805" 
d="M650 2048v-2048h-495v2048h495zM897 2560v-242h-987v242h987z" />
    <glyph glyph-name="uni012B" unicode="&#x12b;" horiz-adv-x="799" 
d="M155 0v1536h489v-1536h-489zM893 2048v-242h-987v242h987z" />
    <glyph glyph-name="uni012C" unicode="&#x12c;" horiz-adv-x="805" 
d="M650 2048v-2048h-495v2048h495zM604 2592h322q-1 -188 -141.5 -302t-380.5 -114t-380.5 114t-139.5 302h319q-1 -66 45 -120t156 -54q107 0 153 53t47 121z" />
    <glyph glyph-name="uni012D" unicode="&#x12d;" horiz-adv-x="799" 
d="M155 0v1536h489v-1536h-489zM600 2080h322q-1 -188 -141.5 -302t-380.5 -114t-380.5 114t-139.5 302h319q-1 -66 45 -120t156 -54q107 0 153 53t47 121z" />
    <glyph glyph-name="uni012E" unicode="&#x12e;" horiz-adv-x="805" 
d="M650 2048v-2048h-495v2048h495zM452 -565q-136 0 -228.5 69t-122.5 195q-21 84 -9.5 170t55 155t116.5 102l386 -126q-95 -37 -151 -80t-55 -109q-1 -50 24.5 -76t69.5 -26q30 0 52.5 7.5t42.5 12.5l54 -234q-38 -21 -97 -40.5t-137 -19.5z" />
    <glyph glyph-name="uni012F" unicode="&#x12f;" horiz-adv-x="831" 
d="M129 0v1536h489v-1536h-489zM421 -565q-136 0 -228.5 69t-122.5 195q-21 84 -9.5 170t55 155t116.5 102l386 -126q-95 -37 -151 -80t-55 -109q-1 -50 24.5 -76t69.5 -26q30 0 52.5 7.5t42.5 12.5l54 -234q-38 -21 -97 -40.5t-137 -19.5zM375 1715q-104 0 -178 68.5
t-74 165.5q0 96 74 164.5t177 68.5q104 0 177.5 -68.5t73.5 -164.5q0 -97 -73.5 -165.5t-176.5 -68.5z" />
    <glyph glyph-name="uni0130" unicode="&#x130;" horiz-adv-x="805" 
d="M650 2048v-2048h-495v2048h495zM405 2227q-104 0 -178 68.5t-74 165.5q0 96 74 164.5t177 68.5q104 0 177.5 -68.5t73.5 -164.5q0 -97 -73.5 -165.5t-176.5 -68.5z" />
    <glyph glyph-name="uni0131" unicode="&#x131;" horiz-adv-x="799" 
d="M155 0v1536h489v-1536h-489z" />
    <glyph glyph-name="uni0132" unicode="&#x132;" horiz-adv-x="2435" 
d="M650 2048v-2048h-495v2048h495zM1792 2048h488v-1416q-1 -199 -95 -347.5t-259.5 -230.5t-382.5 -82q-192 0 -348.5 67t-249 208t-91.5 361h493q3 -79 30.5 -134.5t76.5 -83.5t117 -28q71 0 120 30.5t74.5 90.5t26.5 149v1416z" />
    <glyph glyph-name="uni0133" unicode="&#x133;" horiz-adv-x="1598" 
d="M155 0v1536h489v-1536h-489zM401 1715q-104 0 -178 68.5t-74 165.5q0 96 74 164.5t177 68.5q104 0 177.5 -68.5t73.5 -164.5q0 -97 -73.5 -165.5t-176.5 -68.5zM954 1536h489v-1594q0 -190 -77.5 -304.5t-221 -164t-339.5 -43.5q-20 1 -40.5 1t-49.5 3v370q18 -2 32 -2.5
t28 -0.5q101 0 140 37t39 114v1584zM1199 1715q-104 0 -178 68.5t-74 165.5q0 96 74 164.5t177 68.5q104 0 177.5 -68.5t73.5 -164.5q0 -97 -73.5 -165.5t-176.5 -68.5z" />
    <glyph glyph-name="uni0134" unicode="&#x134;" horiz-adv-x="1630" 
d="M987 2048h488v-1416q-1 -199 -95 -347.5t-259.5 -230.5t-382.5 -82q-192 0 -348.5 67t-249 208t-91.5 361h493q3 -79 30.5 -134.5t76.5 -83.5t117 -28q71 0 120 30.5t74.5 90.5t26.5 149v1416zM1031 2230h-410v13l433 448h351l432 -448v-13h-409l-199 232z" />
    <glyph glyph-name="uni0135" unicode="&#x135;" horiz-adv-x="799" 
d="M155 1536h489v-1594q0 -190 -77.5 -304.5t-221 -164t-339.5 -43.5q-20 1 -40.5 1t-49.5 3v370q18 -2 32 -2.5t28 -0.5q101 0 140 37t39 114v1584zM201 1718h-410v13l433 448h351l432 -448v-13h-409l-199 232z" />
    <glyph glyph-name="uni0136" unicode="&#x136;" horiz-adv-x="1977" 
d="M155 0v2048h495v-866h27l677 866h583l-726 -914l739 -1134h-592l-510 805l-198 -250v-555h-495zM632 -645l128 486h445l-235 -486h-338z" />
    <glyph glyph-name="uni0137" unicode="&#x137;" horiz-adv-x="1673" 
d="M596 403l2 583h68l432 550h554l-642 -788h-129zM155 0v2048h489v-2048h-489zM1109 0l-402 638l322 347l645 -985h-565zM504 -648l128 486h445l-235 -486h-338z" />
    <glyph glyph-name="uni0138" unicode="&#x138;" horiz-adv-x="1926" 
d="M660 1488v-1488h-471v1488h471zM1722 1488l-688 -982h-440l-54 457h248l337 525h597zM1137 0l-351 601l425 193l527 -794h-601z" />
    <glyph glyph-name="uni0139" unicode="&#x139;" horiz-adv-x="1603" 
d="M155 0v2048h495v-1646h852v-402h-1347zM229 2243l202 451h433l-302 -451h-333z" />
    <glyph glyph-name="uni013A" unicode="&#x13a;" horiz-adv-x="799" 
d="M644 2048v-2048h-489v2048h489zM231 2243l202 451h433l-302 -451h-333z" />
    <glyph glyph-name="uni013B" unicode="&#x13b;" horiz-adv-x="1603" 
d="M155 0v2048h495v-1646h852v-402h-1347zM483 -648l128 486h445l-235 -486h-338z" />
    <glyph glyph-name="uni013C" unicode="&#x13c;" horiz-adv-x="799" 
d="M644 2048v-2048h-489v2048h489zM54 -648l128 486h445l-235 -486h-338z" />
    <glyph glyph-name="uni013D" unicode="&#x13d;" horiz-adv-x="1603" 
d="M155 0v2048h495v-1646h852v-402h-1347zM944 1626v531h346l-74 -531h-272z" />
    <glyph glyph-name="uni013E" unicode="&#x13e;" horiz-adv-x="1125" 
d="M644 2048v-2048h-489v2048h489zM812 1626v531h346l-74 -531h-272z" />
    <glyph glyph-name="uni013F" unicode="&#x13f;" horiz-adv-x="1648" 
d="M165 0v2048h495v-1646h852v-402h-1347zM1059 1031q-104 0 -178 68.5t-74 165.5q0 96 74 164.5t177 68.5q104 0 177.5 -68.5t73.5 -164.5q0 -97 -73.5 -165.5t-176.5 -68.5z" />
    <glyph glyph-name="uni0140" unicode="&#x140;" horiz-adv-x="1250" 
d="M657 2048v-2048h-489v2048h489zM1034 885q-104 0 -178 68.5t-74 165.5q0 96 74 164.5t177 68.5q104 0 177.5 -68.5t73.5 -164.5q0 -97 -73.5 -165.5t-176.5 -68.5z" />
    <glyph glyph-name="uni0141" unicode="&#x141;" horiz-adv-x="1670" 
d="M1000 1338v-257l-966 -256v253zM270 0v2048h495v-1646h853v-402h-1348z" />
    <glyph glyph-name="uni0142" unicode="&#x142;" horiz-adv-x="799" 
d="M826 1350v-256l-852 -259v256zM644 2048v-2048h-489v2048h489z" />
    <glyph glyph-name="uni0143" unicode="&#x143;" horiz-adv-x="2053" 
d="M1898 2048v-2048h-420l-815 1182h-13v-1182h-495v2048h426l806 -1180h17v1180h494zM859 2243l202 451h433l-302 -451h-333z" />
    <glyph glyph-name="uni0144" unicode="&#x144;" horiz-adv-x="1786" 
d="M644 876v-876h-489v1536h465v-282h17q51 141 174 221.5t293 80.5q162 0 281.5 -72.5t186 -202t65.5 -302.5v-979h-489v883q1 128 -64.5 200t-181.5 72q-77 0 -135.5 -33.5t-90 -95.5t-32.5 -150zM726 1731l202 451h433l-302 -451h-333z" />
    <glyph glyph-name="uni0145" unicode="&#x145;" horiz-adv-x="2053" 
d="M1898 2048v-2048h-420l-815 1182h-13v-1182h-495v2048h426l806 -1180h17v1180h494zM682 -648l128 486h445l-235 -486h-338z" />
    <glyph glyph-name="uni0146" unicode="&#x146;" horiz-adv-x="1786" 
d="M644 876v-876h-489v1536h465v-282h17q51 141 174 221.5t293 80.5q162 0 281.5 -72.5t186 -202t65.5 -302.5v-979h-489v883q1 128 -64.5 200t-181.5 72q-77 0 -135.5 -33.5t-90 -95.5t-32.5 -150zM548 -648l128 486h445l-235 -486h-338z" />
    <glyph glyph-name="uni0147" unicode="&#x147;" horiz-adv-x="2053" 
d="M1898 2048v-2048h-420l-815 1182h-13v-1182h-495v2048h426l806 -1180h17v1180h494zM830 2693l198 -232l199 232h409v-13l-432 -448h-351l-433 448v13h410z" />
    <glyph glyph-name="uni0148" unicode="&#x148;" horiz-adv-x="1786" 
d="M644 876v-876h-489v1536h465v-282h17q51 141 174 221.5t293 80.5q162 0 281.5 -72.5t186 -202t65.5 -302.5v-979h-489v883q1 128 -64.5 200t-181.5 72q-77 0 -135.5 -33.5t-90 -95.5t-32.5 -150zM696 2181l198 -232l199 232h409v-13l-432 -448h-351l-433 448v13h410z" />
    <glyph glyph-name="uni014A" unicode="&#x14a;" horiz-adv-x="2053" 
d="M1478 0h420v-55q0 -215 -81.5 -338t-231.5 -174t-355 -51q-36 0 -79.5 6.5t-81.5 18.5v361q35 -8 80.5 -13t91.5 -5q109 0 173 47.5t64 138.5v64zM1898 2048v-2048h-420l-815 1182h-13v-1182h-495v2048h426l806 -1180h17v1180h494z" />
    <glyph glyph-name="uni014B" unicode="&#x14b;" horiz-adv-x="1821" 
d="M1148 0h489v-58q0 -274 -163.5 -409t-435.5 -135q-61 0 -120.5 3.5t-120.5 15.5l38 395q33 -8 67.5 -13t75.5 -5q83 0 126.5 36t43.5 112v58zM644 876v-876h-489v1536h465v-282h17q51 141 174 221.5t293 80.5q162 0 281.5 -72.5t186 -202t65.5 -302.5v-979h-489v883
q1 128 -64.5 200t-181.5 72q-77 0 -135.5 -33.5t-90 -95.5t-32.5 -150z" />
    <glyph glyph-name="uni014C" unicode="&#x14c;" horiz-adv-x="2221" 
d="M2088 1024q0 -338 -130 -573t-351.5 -357t-496.5 -122q-276 0 -497 123t-350.5 357.5t-129.5 571.5q0 338 129.5 573t350.5 357t497 122q275 0 496.5 -122t351.5 -357t130 -573zM1582 1024q0 200 -56.5 338t-162 209t-253.5 71q-147 0 -253 -71t-162.5 -209t-56.5 -338
t56.5 -338t162.5 -209t253 -71q148 0 253.5 71t162 209t56.5 338zM1604 2560v-242h-987v242h987z" />
    <glyph glyph-name="uni014D" unicode="&#x14d;" horiz-adv-x="1744" 
d="M872 -29q-242 0 -415.5 99.5t-267 278t-93.5 414.5q0 237 93.5 415.5t267 278t415.5 99.5t415.5 -99.5t267 -278t93.5 -415.5q0 -236 -93.5 -414.5t-267 -278t-415.5 -99.5zM875 340q88 0 149 54t93.5 150t32.5 222q0 128 -32.5 224t-93.5 150t-149 54q-91 0 -153.5 -54
t-95 -150t-32.5 -224q0 -126 32.5 -222t95 -150t153.5 -54zM1365 2048v-242h-987v242h987z" />
    <glyph glyph-name="uni014E" unicode="&#x14e;" horiz-adv-x="2221" 
d="M2088 1024q0 -338 -130 -573t-351.5 -357t-496.5 -122q-276 0 -497 123t-350.5 357.5t-129.5 571.5q0 338 129.5 573t350.5 357t497 122q275 0 496.5 -122t351.5 -357t130 -573zM1582 1024q0 200 -56.5 338t-162 209t-253.5 71q-147 0 -253 -71t-162.5 -209t-56.5 -338
t56.5 -338t162.5 -209t253 -71q148 0 253.5 71t162 209t56.5 338zM1310 2592h322q-1 -188 -141.5 -302t-380.5 -114t-380.5 114t-139.5 302h319q-1 -66 45 -120t156 -54q107 0 153 53t47 121z" />
    <glyph glyph-name="uni014F" unicode="&#x14f;" horiz-adv-x="1744" 
d="M872 -29q-242 0 -415.5 99.5t-267 278t-93.5 414.5q0 237 93.5 415.5t267 278t415.5 99.5t415.5 -99.5t267 -278t93.5 -415.5q0 -236 -93.5 -414.5t-267 -278t-415.5 -99.5zM875 340q88 0 149 54t93.5 150t32.5 222q0 128 -32.5 224t-93.5 150t-149 54q-91 0 -153.5 -54
t-95 -150t-32.5 -224q0 -126 32.5 -222t95 -150t153.5 -54zM1072 2080h322q-1 -188 -141.5 -302t-380.5 -114t-380.5 114t-139.5 302h319q-1 -66 45 -120t156 -54q107 0 153 53t47 121z" />
    <glyph glyph-name="uni0150" unicode="&#x150;" horiz-adv-x="2221" 
d="M2088 1024q0 -338 -130 -573t-351.5 -357t-496.5 -122q-276 0 -497 123t-350.5 357.5t-129.5 571.5q0 338 129.5 573t350.5 357t497 122q275 0 496.5 -122t351.5 -357t130 -573zM1582 1024q0 200 -56.5 338t-162 209t-253.5 71q-147 0 -253 -71t-162.5 -209t-56.5 -338
t56.5 -338t162.5 -209t253 -71q148 0 253.5 71t162 209t56.5 338zM1190 2229l321 411h392l-380 -411h-333zM643 2229l282 411h391l-337 -411h-336z" />
    <glyph glyph-name="uni0151" unicode="&#x151;" horiz-adv-x="1744" 
d="M872 -29q-242 0 -415.5 99.5t-267 278t-93.5 414.5q0 237 93.5 415.5t267 278t415.5 99.5t415.5 -99.5t267 -278t93.5 -415.5q0 -236 -93.5 -414.5t-267 -278t-415.5 -99.5zM875 340q88 0 149 54t93.5 150t32.5 222q0 128 -32.5 224t-93.5 150t-149 54q-91 0 -153.5 -54
t-95 -150t-32.5 -224q0 -126 32.5 -222t95 -150t153.5 -54zM951 1717l321 411h392l-380 -411h-333zM404 1717l282 411h391l-337 -411h-336z" />
    <glyph glyph-name="uni0152" unicode="&#x152;" horiz-adv-x="2927" 
d="M1072 0q-265 0 -478 113.5t-337 340.5t-124 567q0 341 124 569.5t337 343t478 114.5h1700v-402h-934v-420h860v-403h-860v-421h934v-402h-1700zM1344 402v1244h-272q-128 0 -227.5 -61.5t-156 -199t-56.5 -364.5q0 -229 56.5 -364.5t156 -195t227.5 -59.5h272z" />
    <glyph glyph-name="uni0153" unicode="&#x153;" horiz-adv-x="2737" 
d="M878 -29q-242 0 -415.5 99.5t-267 278t-93.5 414.5q0 237 93.5 415.5t267 278t415.5 99.5t415.5 -99.5t267 -278t93.5 -415.5q0 -236 -93.5 -414.5t-267 -278t-415.5 -99.5zM881 340q88 0 149 54t93.5 150t32.5 222q0 128 -32.5 224t-93.5 150t-149 54q-91 0 -153.5 -54
t-95 -150t-32.5 -224q0 -126 32.5 -222t95 -150t153.5 -54zM1962 -29q-241 0 -415.5 95.5t-268 273t-93.5 422.5q0 238 94 416.5t265 278t403 99.5q164 0 300 -51t235 -151t154 -246.5t55 -335.5v-122h-1335v284h880q-1 78 -37 139t-98.5 95.5t-143.5 34.5q-82 0 -147 -36.5
t-103 -99t-40 -141.5v-289q0 -94 37 -164.5t105 -109.5t162 -39q65 0 118 18t91 53t57 86l449 -13q-28 -151 -122.5 -262.5t-247.5 -173t-354 -61.5z" />
    <glyph glyph-name="uni0154" unicode="&#x154;" horiz-adv-x="1864" 
d="M155 0v2048h846q230 0 397.5 -82.5t258.5 -236t91 -363.5q0 -213 -93 -361.5t-264 -226t-405 -77.5h-535v390h443q112 0 187.5 29.5t114.5 90t39 155.5t-39 157.5t-115 94t-187 31.5h-244v-1649h-495zM1308 936l510 -936h-540l-500 936h530zM751 2243l202 451h433
l-302 -451h-333z" />
    <glyph glyph-name="uni0155" unicode="&#x155;" horiz-adv-x="1186" 
d="M155 0v1536h475v-280h16q42 152 137 226.5t221 74.5q34 0 70 -4.5t67 -13.5v-425q-35 12 -91.5 19t-100.5 7q-87 0 -156.5 -38.5t-109 -107t-39.5 -160.5v-834h-489zM479 1731l202 451h433l-302 -451h-333z" />
    <glyph glyph-name="uni0156" unicode="&#x156;" horiz-adv-x="1864" 
d="M155 0v2048h846q230 0 397.5 -82.5t258.5 -236t91 -363.5q0 -213 -93 -361.5t-264 -226t-405 -77.5h-535v390h443q112 0 187.5 29.5t114.5 90t39 155.5t-39 157.5t-115 94t-187 31.5h-244v-1649h-495zM1308 936l510 -936h-540l-500 936h530zM607 -648l128 486h445
l-235 -486h-338z" />
    <glyph glyph-name="uni0157" unicode="&#x157;" horiz-adv-x="1186" 
d="M155 0v1536h475v-280h16q42 152 137 226.5t221 74.5q34 0 70 -4.5t67 -13.5v-425q-35 12 -91.5 19t-100.5 7q-87 0 -156.5 -38.5t-109 -107t-39.5 -160.5v-834h-489zM56 -648l128 486h445l-235 -486h-338z" />
    <glyph glyph-name="uni0158" unicode="&#x158;" horiz-adv-x="1864" 
d="M155 0v2048h846q230 0 397.5 -82.5t258.5 -236t91 -363.5q0 -213 -93 -361.5t-264 -226t-405 -77.5h-535v390h443q112 0 187.5 29.5t114.5 90t39 155.5t-39 157.5t-115 94t-187 31.5h-244v-1649h-495zM1308 936l510 -936h-540l-500 936h530zM722 2693l198 -232l199 232
h409v-13l-432 -448h-351l-433 448v13h410z" />
    <glyph glyph-name="uni0159" unicode="&#x159;" horiz-adv-x="1186" 
d="M155 0v1536h475v-280h16q42 152 137 226.5t221 74.5q34 0 70 -4.5t67 -13.5v-425q-35 12 -91.5 19t-100.5 7q-87 0 -156.5 -38.5t-109 -107t-39.5 -160.5v-834h-489zM449 2181l198 -232l199 232h409v-13l-432 -448h-351l-433 448v13h410z" />
    <glyph glyph-name="uni015A" unicode="&#x15a;" horiz-adv-x="1860" 
d="M1262 1434q-10 110 -88.5 171.5t-223.5 61.5q-96 0 -160 -25t-96 -68.5t-33 -99.5q-2 -46 18.5 -81t60 -61.5t95.5 -46.5t126 -35l176 -40q152 -33 268.5 -88t196 -131t120.5 -175t42 -222q-1 -194 -98 -333t-278.5 -213t-437.5 -74q-257 0 -448 77t-297 234t-109 397
h474q6 -99 53 -165t129.5 -100t191.5 -34q100 0 170.5 27t108.5 75t39 110q-1 58 -36 99.5t-107.5 72t-184.5 56.5l-214 50q-266 61 -419 197.5t-152 369.5q-1 190 102 333t285 223t415 80q238 0 413.5 -80.5t272.5 -225.5t99 -336h-474zM763 2243l202 451h433l-302 -451
h-333z" />
    <glyph glyph-name="uni015B" unicode="&#x15b;" horiz-adv-x="1619" 
d="M1496 1067l-449 -12q-7 48 -38 85.5t-80.5 59t-114.5 21.5q-85 0 -144.5 -34t-58.5 -92q-1 -45 36.5 -78t134.5 -53l296 -56q230 -44 342.5 -146t113.5 -270q-1 -158 -93.5 -275t-252.5 -181.5t-366 -64.5q-329 0 -518.5 135.5t-216.5 363.5l483 12q16 -84 83 -128
t171 -44q94 0 153 35t60 93q-1 52 -46 83.5t-141 49.5l-268 51q-231 42 -344 155.5t-112 289.5q-1 154 82 263.5t236 167.5t361 58q312 0 492 -130.5t199 -358.5zM649 1731l202 451h433l-302 -451h-333z" />
    <glyph glyph-name="uni015C" unicode="&#x15c;" horiz-adv-x="1860" 
d="M1262 1434q-10 110 -88.5 171.5t-223.5 61.5q-96 0 -160 -25t-96 -68.5t-33 -99.5q-2 -46 18.5 -81t60 -61.5t95.5 -46.5t126 -35l176 -40q152 -33 268.5 -88t196 -131t120.5 -175t42 -222q-1 -194 -98 -333t-278.5 -213t-437.5 -74q-257 0 -448 77t-297 234t-109 397
h474q6 -99 53 -165t129.5 -100t191.5 -34q100 0 170.5 27t108.5 75t39 110q-1 58 -36 99.5t-107.5 72t-184.5 56.5l-214 50q-266 61 -419 197.5t-152 369.5q-1 190 102 333t285 223t415 80q238 0 413.5 -80.5t272.5 -225.5t99 -336h-474zM733 2230h-410v13l433 448h351
l432 -448v-13h-409l-199 232z" />
    <glyph glyph-name="uni015D" unicode="&#x15d;" horiz-adv-x="1619" 
d="M1496 1067l-449 -12q-7 48 -38 85.5t-80.5 59t-114.5 21.5q-85 0 -144.5 -34t-58.5 -92q-1 -45 36.5 -78t134.5 -53l296 -56q230 -44 342.5 -146t113.5 -270q-1 -158 -93.5 -275t-252.5 -181.5t-366 -64.5q-329 0 -518.5 135.5t-216.5 363.5l483 12q16 -84 83 -128
t171 -44q94 0 153 35t60 93q-1 52 -46 83.5t-141 49.5l-268 51q-231 42 -344 155.5t-112 289.5q-1 154 82 263.5t236 167.5t361 58q312 0 492 -130.5t199 -358.5zM619 1718h-410v13l433 448h351l432 -448v-13h-409l-199 232z" />
    <glyph glyph-name="uni015E" unicode="&#x15e;" horiz-adv-x="1860" 
d="M1262 1434q-10 110 -88.5 171.5t-223.5 61.5q-96 0 -160 -25t-96 -68.5t-33 -99.5q-2 -46 18.5 -81t60 -61.5t95.5 -46.5t126 -35l176 -40q152 -33 268.5 -88t196 -131t120.5 -175t42 -222q-1 -194 -98 -333t-278.5 -213t-437.5 -74q-257 0 -448 77t-297 234t-109 397
h474q6 -99 53 -165t129.5 -100t191.5 -34q100 0 170.5 27t108.5 75t39 110q-1 58 -36 99.5t-107.5 72t-184.5 56.5l-214 50q-266 61 -419 197.5t-152 369.5q-1 190 102 333t285 223t415 80q238 0 413.5 -80.5t272.5 -225.5t99 -336h-474zM838 8h196l-16 -90
q110 -16 176 -79.5t67 -165.5q1 -156 -148.5 -246.5t-415.5 -90.5l-2 201q137 0 212 31t78 94q3 58 -45 92.5t-149 47.5z" />
    <glyph glyph-name="uni015F" unicode="&#x15f;" horiz-adv-x="1619" 
d="M1496 1067l-449 -12q-7 48 -38 85.5t-80.5 59t-114.5 21.5q-85 0 -144.5 -34t-58.5 -92q-1 -45 36.5 -78t134.5 -53l296 -56q230 -44 342.5 -146t113.5 -270q-1 -158 -93.5 -275t-252.5 -181.5t-366 -64.5q-329 0 -518.5 135.5t-216.5 363.5l483 12q16 -84 83 -128
t171 -44q94 0 153 35t60 93q-1 52 -46 83.5t-141 49.5l-268 51q-231 42 -344 155.5t-112 289.5q-1 154 82 263.5t236 167.5t361 58q312 0 492 -130.5t199 -358.5zM728 8h196l-16 -90q110 -16 176 -79.5t67 -165.5q1 -156 -148.5 -246.5t-415.5 -90.5l-2 201q137 0 212 31
t78 94q3 58 -45 92.5t-149 47.5z" />
    <glyph glyph-name="uni0160" unicode="&#x160;" horiz-adv-x="1860" 
d="M1262 1434q-10 110 -88.5 171.5t-223.5 61.5q-96 0 -160 -25t-96 -68.5t-33 -99.5q-2 -46 18.5 -81t60 -61.5t95.5 -46.5t126 -35l176 -40q152 -33 268.5 -88t196 -131t120.5 -175t42 -222q-1 -194 -98 -333t-278.5 -213t-437.5 -74q-257 0 -448 77t-297 234t-109 397
h474q6 -99 53 -165t129.5 -100t191.5 -34q100 0 170.5 27t108.5 75t39 110q-1 58 -36 99.5t-107.5 72t-184.5 56.5l-214 50q-266 61 -419 197.5t-152 369.5q-1 190 102 333t285 223t415 80q238 0 413.5 -80.5t272.5 -225.5t99 -336h-474zM733 2693l198 -232l199 232h409v-13
l-432 -448h-351l-433 448v13h410z" />
    <glyph glyph-name="uni0161" unicode="&#x161;" horiz-adv-x="1619" 
d="M1496 1067l-449 -12q-7 48 -38 85.5t-80.5 59t-114.5 21.5q-85 0 -144.5 -34t-58.5 -92q-1 -45 36.5 -78t134.5 -53l296 -56q230 -44 342.5 -146t113.5 -270q-1 -158 -93.5 -275t-252.5 -181.5t-366 -64.5q-329 0 -518.5 135.5t-216.5 363.5l483 12q16 -84 83 -128
t171 -44q94 0 153 35t60 93q-1 52 -46 83.5t-141 49.5l-268 51q-231 42 -344 155.5t-112 289.5q-1 154 82 263.5t236 167.5t361 58q312 0 492 -130.5t199 -358.5zM619 2181l198 -232l199 232h409v-13l-432 -448h-351l-433 448v13h410z" />
    <glyph glyph-name="uni0162" unicode="&#x162;" horiz-adv-x="1907" 
d="M88 1646v402h1731v-402h-621v-1646h-488v1646h-622zM855 8h196l-16 -90q110 -16 176 -79.5t67 -165.5q1 -156 -148.5 -246.5t-415.5 -90.5l-2 201q137 0 212 31t78 94q3 58 -45 92.5t-149 47.5z" />
    <glyph glyph-name="uni0163" unicode="&#x163;" horiz-adv-x="1117" 
d="M1022 1536v-360h-969v360h969zM256 1904h489v-1421q0 -45 14.5 -72.5t42.5 -39t67 -11.5q28 0 59.5 5.5t47.5 9.5l74 -353q-35 -10 -98.5 -25t-151.5 -19q-172 -8 -294.5 40.5t-187 151.5t-62.5 259v1475zM668 8h196l-16 -90q110 -16 176 -79.5t67 -165.5
q1 -156 -148.5 -246.5t-415.5 -90.5l-2 201q137 0 212 31t78 94q3 58 -45 92.5t-149 47.5z" />
    <glyph glyph-name="uni0164" unicode="&#x164;" horiz-adv-x="1907" 
d="M88 1646v402h1731v-402h-621v-1646h-488v1646h-622zM757 2693l198 -232l199 232h409v-13l-432 -448h-351l-433 448v13h410z" />
    <glyph glyph-name="uni0165" unicode="&#x165;" horiz-adv-x="1253" 
d="M1022 1536v-360h-969v360h969zM256 1904h489v-1421q0 -45 14.5 -72.5t42.5 -39t67 -11.5q28 0 59.5 5.5t47.5 9.5l74 -353q-35 -10 -98.5 -25t-151.5 -19q-172 -8 -294.5 40.5t-187 151.5t-62.5 259v1475zM922 1726v531h346l-74 -531h-272z" />
    <glyph glyph-name="uni0166" unicode="&#x166;" horiz-adv-x="1907" 
d="M88 1646v402h1731v-402h-621v-1646h-488v1646h-622zM432 817v273h1037v-273h-1037z" />
    <glyph glyph-name="uni0167" unicode="&#x167;" horiz-adv-x="1117" 
d="M53 747v210h969v-210h-969zM1022 1536v-360h-969v360h969zM256 1904h489v-1421q0 -45 14.5 -72.5t42.5 -39t67 -11.5q28 0 59.5 5.5t47.5 9.5l74 -353q-35 -10 -98.5 -25t-151.5 -19q-172 -8 -294.5 40.5t-187 151.5t-62.5 259v1475z" />
    <glyph glyph-name="uni0168" unicode="&#x168;" horiz-adv-x="2043" 
d="M1394 2048h494v-1321q0 -229 -109 -398.5t-304 -262t-453 -92.5q-261 0 -456 92.5t-303 262t-108 398.5v1321h495v-1278q0 -106 46.5 -189t130.5 -130t195 -47t194.5 47t130.5 130t47 189v1278zM743 2238l-255 2q0 203 97 307t236 105q74 0 126.5 -23.5t93 -55t76 -55
t75.5 -23.5q57 1 84.5 42.5t28.5 112.5l251 -3q-3 -201 -99 -306.5t-234 -106.5q-76 -1 -129 23t-91.5 55t-73.5 54.5t-77 23.5q-49 0 -79 -39.5t-30 -112.5z" />
    <glyph glyph-name="uni0169" unicode="&#x169;" horiz-adv-x="1790" 
d="M1146 663v873h488v-1536h-466v286h-16q-51 -141 -173.5 -223.5t-295.5 -82.5q-157 0 -276 72t-185 201.5t-67 303.5v979h489v-883q1 -125 66 -197t177 -72q73 0 131.5 32.5t93 95t34.5 151.5zM618 1726l-255 2q0 203 97 307t236 105q74 0 126.5 -23.5t93 -55t76 -55
t75.5 -23.5q57 1 84.5 42.5t28.5 112.5l251 -3q-3 -201 -99 -306.5t-234 -106.5q-76 -1 -129 23t-91.5 55t-73.5 54.5t-77 23.5q-49 0 -79 -39.5t-30 -112.5z" />
    <glyph glyph-name="uni016A" unicode="&#x16a;" horiz-adv-x="2043" 
d="M1394 2048h494v-1321q0 -229 -109 -398.5t-304 -262t-453 -92.5q-261 0 -456 92.5t-303 262t-108 398.5v1321h495v-1278q0 -106 46.5 -189t130.5 -130t195 -47t194.5 47t130.5 130t47 189v1278zM1515 2560v-242h-987v242h987z" />
    <glyph glyph-name="uni016B" unicode="&#x16b;" horiz-adv-x="1790" 
d="M1146 663v873h488v-1536h-466v286h-16q-51 -141 -173.5 -223.5t-295.5 -82.5q-157 0 -276 72t-185 201.5t-67 303.5v979h489v-883q1 -125 66 -197t177 -72q73 0 131.5 32.5t93 95t34.5 151.5zM1390 2048v-242h-987v242h987z" />
    <glyph glyph-name="uni016C" unicode="&#x16c;" horiz-adv-x="2043" 
d="M1394 2048h494v-1321q0 -229 -109 -398.5t-304 -262t-453 -92.5q-261 0 -456 92.5t-303 262t-108 398.5v1321h495v-1278q0 -106 46.5 -189t130.5 -130t195 -47t194.5 47t130.5 130t47 189v1278zM1221 2592h322q-1 -188 -141.5 -302t-380.5 -114t-380.5 114t-139.5 302
h319q-1 -66 45 -120t156 -54q107 0 153 53t47 121z" />
    <glyph glyph-name="uni016D" unicode="&#x16d;" horiz-adv-x="1790" 
d="M1146 663v873h488v-1536h-466v286h-16q-51 -141 -173.5 -223.5t-295.5 -82.5q-157 0 -276 72t-185 201.5t-67 303.5v979h489v-883q1 -125 66 -197t177 -72q73 0 131.5 32.5t93 95t34.5 151.5zM1096 2080h322q-1 -188 -141.5 -302t-380.5 -114t-380.5 114t-139.5 302h319
q-1 -66 45 -120t156 -54q107 0 153 53t47 121z" />
    <glyph glyph-name="uni016E" unicode="&#x16e;" horiz-adv-x="2043" 
d="M1394 2048h494v-1321q0 -229 -109 -398.5t-304 -262t-453 -92.5q-261 0 -456 92.5t-303 262t-108 398.5v1321h495v-1278q0 -106 46.5 -189t130.5 -130t195 -47t194.5 47t130.5 130t47 189v1278zM1021 2149q-88 0 -161.5 41.5t-117 112t-43.5 155.5t43.5 155t117 111.5
t161.5 41.5q90 0 163 -41.5t116.5 -111.5t43.5 -155q0 -86 -43.5 -156t-116.5 -111.5t-163 -41.5zM1021 2330q56 0 96 37.5t40 90.5t-40 90.5t-96 37.5q-55 -1 -95 -38t-40 -90t39.5 -91t95.5 -37z" />
    <glyph glyph-name="uni016F" unicode="&#x16f;" horiz-adv-x="1790" 
d="M1146 663v873h488v-1536h-466v286h-16q-51 -141 -173.5 -223.5t-295.5 -82.5q-157 0 -276 72t-185 201.5t-67 303.5v979h489v-883q1 -125 66 -197t177 -72q73 0 131.5 32.5t93 95t34.5 151.5zM896 1698q-92 0 -168 44t-121.5 117.5t-45.5 162.5q0 90 45.5 164
t121.5 118.5t168 44.5q93 0 169 -44.5t121 -118.5t45 -164q0 -89 -45 -162.5t-121 -117.5t-169 -44zM896 1886q61 0 102.5 40.5t41.5 95.5q0 56 -41.5 98t-102.5 41q-60 -1 -102 -42t-42 -97q0 -55 42 -96t102 -40z" />
    <glyph glyph-name="uni0170" unicode="&#x170;" horiz-adv-x="2043" 
d="M1394 2048h494v-1321q0 -229 -109 -398.5t-304 -262t-453 -92.5q-261 0 -456 92.5t-303 262t-108 398.5v1321h495v-1278q0 -106 46.5 -189t130.5 -130t195 -47t194.5 47t130.5 130t47 189v1278zM1101 2229l321 411h392l-380 -411h-333zM554 2229l282 411h391l-337 -411
h-336z" />
    <glyph glyph-name="uni0171" unicode="&#x171;" horiz-adv-x="1790" 
d="M1146 663v873h488v-1536h-466v286h-16q-51 -141 -173.5 -223.5t-295.5 -82.5q-157 0 -276 72t-185 201.5t-67 303.5v979h489v-883q1 -125 66 -197t177 -72q73 0 131.5 32.5t93 95t34.5 151.5zM976 1717l321 411h392l-380 -411h-333zM429 1717l282 411h391l-337 -411h-336
z" />
    <glyph glyph-name="uni0172" unicode="&#x172;" horiz-adv-x="2043" 
d="M1394 2048h494v-1321q0 -229 -109 -398.5t-304 -262t-453 -92.5q-261 0 -456 92.5t-303 262t-108 398.5v1321h495v-1278q0 -106 46.5 -189t130.5 -130t195 -47t194.5 47t130.5 130t47 189v1278zM1107 -564q-136 0 -228.5 69t-122.5 195q-21 84 -9.5 170t55 155t116.5 102
l386 -126q-95 -37 -151 -80t-55 -109q-1 -50 24.5 -76t69.5 -26q30 0 52.5 7.5t42.5 12.5l54 -234q-38 -21 -97 -40.5t-137 -19.5z" />
    <glyph glyph-name="uni0173" unicode="&#x173;" horiz-adv-x="1790" 
d="M1146 663v873h488v-1536h-466v286h-16q-51 -141 -173.5 -223.5t-295.5 -82.5q-157 0 -276 72t-185 201.5t-67 303.5v979h489v-883q1 -125 66 -197t177 -72q73 0 131.5 32.5t93 95t34.5 151.5zM1437 -565q-136 0 -228.5 69t-122.5 195q-21 84 -9.5 170t55 155t116.5 102
l386 -126q-95 -37 -151 -80t-55 -109q-1 -50 24.5 -76t69.5 -26q30 0 52.5 7.5t42.5 12.5l54 -234q-38 -21 -97 -40.5t-137 -19.5z" />
    <glyph glyph-name="uni0174" unicode="&#x174;" horiz-adv-x="2998" 
d="M646 0l-596 2048h547l309 -1342h17l353 1342h446l353 -1345h17l310 1345h546l-595 -2048h-477l-369 1242h-16l-369 -1242h-476zM1301 2230h-410v13l433 448h351l432 -448v-13h-409l-199 232z" />
    <glyph glyph-name="uni0175" unicode="&#x175;" horiz-adv-x="2429" 
d="M442 0l-400 1536h491l207 -984h13l222 984h479l228 -977h13l201 977h491l-401 -1536h-523l-240 895h-17l-240 -895h-524zM1016 1718h-410v13l433 448h351l432 -448v-13h-409l-199 232z" />
    <glyph glyph-name="uni0176" unicode="&#x176;" horiz-adv-x="2096" 
d="M53 2048h553l433 -857h18l433 857h553l-749 -1364v-684h-492v684zM850 2230h-410v13l433 448h351l432 -448v-13h-409l-199 232z" />
    <glyph glyph-name="uni0177" unicode="&#x177;" horiz-adv-x="1677" 
d="M454 -574q-88 0 -166 13.5t-134 35.5l108 355q108 -35 182.5 -24.5t114.5 92.5l19 46l-546 1592h512l283 -1096h16l287 1096l515 -1l-579 -1682q-42 -124 -118.5 -220.5t-197 -151.5t-296.5 -55zM637 1718h-410v13l433 448h351l432 -448v-13h-409l-199 232z" />
    <glyph glyph-name="uni0178" unicode="&#x178;" horiz-adv-x="2096" 
d="M53 2048h553l433 -857h18l433 857h553l-749 -1364v-684h-492v684zM738 2243q-94 0 -160.5 64t-66.5 154t66.5 153.5t160.5 63.5q93 0 158.5 -63.5t65.5 -153.5t-65.5 -154t-158.5 -64zM1362 2243q-94 0 -160.5 64t-66.5 154t66.5 153.5t160.5 63.5q93 0 158.5 -63.5
t65.5 -153.5t-65.5 -154t-158.5 -64z" />
    <glyph glyph-name="uni0179" unicode="&#x179;" horiz-adv-x="1917" 
d="M148 0v282l995 1364h-994v402h1620v-282l-995 -1364h994v-402h-1620zM795 2243l202 451h433l-302 -451h-333z" />
    <glyph glyph-name="uni017A" unicode="&#x17a;" horiz-adv-x="1639" 
d="M159 0v279l712 867v10h-687v380h1270v-306l-660 -840v-10h684v-380h-1319zM649 1731l202 451h433l-302 -451h-333z" />
    <glyph glyph-name="uni017B" unicode="&#x17b;" horiz-adv-x="1917" 
d="M148 0v282l995 1364h-994v402h1620v-282l-995 -1364h994v-402h-1620zM964 2227q-104 0 -178 68.5t-74 165.5q0 96 74 164.5t177 68.5q104 0 177.5 -68.5t73.5 -164.5q0 -97 -73.5 -165.5t-176.5 -68.5z" />
    <glyph glyph-name="uni017C" unicode="&#x17c;" horiz-adv-x="1639" 
d="M159 0v279l712 867v10h-687v380h1270v-306l-660 -840v-10h684v-380h-1319zM818 1715q-104 0 -178 68.5t-74 165.5q0 96 74 164.5t177 68.5q104 0 177.5 -68.5t73.5 -164.5q0 -97 -73.5 -165.5t-176.5 -68.5z" />
    <glyph glyph-name="uni017D" unicode="&#x17d;" horiz-adv-x="1917" 
d="M148 0v282l995 1364h-994v402h1620v-282l-995 -1364h994v-402h-1620zM765 2693l198 -232l199 232h409v-13l-432 -448h-351l-433 448v13h410z" />
    <glyph glyph-name="uni017E" unicode="&#x17e;" horiz-adv-x="1639" 
d="M159 0v279l712 867v10h-687v380h1270v-306l-660 -840v-10h684v-380h-1319zM619 2181l198 -232l199 232h409v-13l-432 -448h-351l-433 448v13h410z" />
    <glyph glyph-name="uni017F" unicode="&#x17f;" horiz-adv-x="835" 
d="M470 0h-472v1605q0 262 158.5 398.5t445.5 136.5q57 0 115.5 -8t119.5 -20l-32 -358q-35 6 -64 9t-79 3q-94 0 -143.5 -40t-48.5 -121v-1605z" />
    <glyph glyph-name="uni0180" unicode="&#x180;" horiz-adv-x="1802" 
d="M155 0v2048h489v-775h10q30 70 85.5 135t142 106.5t207.5 41.5q160 0 299.5 -84t225.5 -259t86 -446q0 -261 -82.5 -437t-222 -264t-309.5 -88q-116 0 -201 38t-142.5 100t-88.5 133h-15v-249h-484zM634 768q0 -124 33.5 -216t97 -142.5t152.5 -50.5q90 0 153 50.5
t95.5 142.5t32.5 216t-32.5 215t-95 141t-153.5 50q-90 0 -153 -49t-96.5 -140t-33.5 -217zM-123 1633v273h1037v-273h-1037z" />
    <glyph glyph-name="uni0181" unicode="&#x181;" horiz-adv-x="2500" 
d="M1064 1649h-330q-84 0 -130 -39t-63 -98.5t-16 -120.5v-133h-437v222q-1 178 77.5 305t223.5 195t344 68h331v-399zM785 0v2048h853q230 0 385.5 -65t234.5 -182t79 -271q0 -117 -49 -208.5t-135.5 -151.5t-198.5 -84v-20q124 -6 229.5 -67t169.5 -169.5t64 -256.5
q0 -165 -84 -294.5t-243 -204t-386 -74.5h-919zM1279 399h307q160 0 236.5 61t76.5 170q0 79 -37 136.5t-105 89t-163 31.5h-315v-488zM1279 1206h275q80 0 143 27t99 78t36 123q0 103 -73 162t-197 59h-283v-449z" />
    <glyph glyph-name="uni0182" unicode="&#x182;" horiz-adv-x="1846" 
d="M155 0v2048h1399v-402h-904v-320h270q250 0 435.5 -81t287 -228t101.5 -346t-101.5 -350t-287 -236t-435.5 -85h-765zM650 392h270q108 0 182.5 37.5t113 102t38.5 143.5q0 114 -86 190.5t-248 76.5h-270v-550z" />
    <glyph glyph-name="uni0183" unicode="&#x183;" horiz-adv-x="1802" 
d="M1477 2048v-335h-833v-440h10q30 70 85.5 135t142 106.5t207.5 41.5q160 0 299.5 -84t225.5 -259t86 -446q0 -261 -82.5 -437t-222 -264t-309.5 -88q-116 0 -201 38t-142.5 100t-88.5 133h-15v-249h-484v2048h1322zM634 768q0 -124 33.5 -216t97 -142.5t152.5 -50.5
q90 0 153 50.5t95.5 142.5t32.5 216t-32.5 215t-95 141t-153.5 50q-90 0 -153 -49t-96.5 -140t-33.5 -217z" />
    <glyph glyph-name="uni0184" unicode="&#x184;" horiz-adv-x="2274" 
d="M935 2048v-402h-897v402h897zM846 1326h456q250 0 435 -81t287 -228t102 -346t-102 -350t-287 -236t-435 -85h-765v2048h494v-1656h271q108 0 182 37.5t112.5 102t38.5 143.5q0 114 -85.5 190.5t-247.5 76.5h-456v384z" />
    <glyph glyph-name="uni0185" unicode="&#x185;" horiz-adv-x="1917" 
d="M386 2112h73v-672h-73l-276 216v234zM667 1382h212q27 62 82 100.5t125 56t144 17.5q158 0 298 -84t228 -259t89 -446q-1 -263 -85 -438.5t-223.5 -263t-305.5 -87.5q-86 0 -156.5 17.5t-120.5 55t-75 95.5h-212v1236zM1385 768q-1 128 -34.5 219t-100 139t-166.5 48
q-110 0 -170 -56t-84 -148t-23 -202q-1 -108 22 -201.5t83.5 -150.5t171.5 -57q99 0 166 48.5t100.5 140t34.5 220.5zM374 2048h488v-764l-179 -545l175 -432v-307h-484v2048z" />
    <glyph glyph-name="uni0186" unicode="&#x186;" horiz-adv-x="2141" 
d="M126 1306q20 184 94 327t194.5 241.5t279 150t343.5 51.5q273 0 493 -122t349 -357t129 -573q0 -337 -127 -572t-346.5 -357.5t-497.5 -122.5q-211 0 -374.5 64t-278 172.5t-179 240.5t-79.5 268l501 3q14 -74 47 -132.5t84.5 -99t119.5 -61.5t149 -21q146 0 252.5 69.5
t164.5 207t58 341.5q0 196 -57 334t-164.5 211t-256.5 73q-84 0 -153.5 -23.5t-120.5 -67.5t-82 -106t-41 -139h-501z" />
    <glyph glyph-name="uni0187" unicode="&#x187;" horiz-adv-x="2422" 
d="M2014 1306h-476v217q0 195 95.5 328t250.5 201.5t336 68.5q58 0 110.5 -1.5t115.5 -10.5v-392q-27 0 -69 2.5t-68 2.5q-64 0 -132 -25.5t-115.5 -85t-47.5 -161.5v-144zM2014 1306h-500q-10 77 -41 139t-82 106t-120.5 67.5t-153.5 23.5q-149 0 -256.5 -73t-165 -211
t-57.5 -334q0 -204 58.5 -341.5t165 -207t252.5 -69.5q82 0 149.5 21t119 61.5t85 99t46.5 132.5l500 -3q-13 -136 -78.5 -268t-179.5 -240.5t-277.5 -172.5t-374.5 -64q-278 0 -497.5 122.5t-346.5 357.5t-127 572q0 338 129 573t349 357t493 122q186 0 344 -51.5t278 -150
t195 -241.5t93 -327z" />
    <glyph glyph-name="uni0188" unicode="&#x188;" horiz-adv-x="1842" 
d="M1591 932h-447v245q0 162 70.5 275.5t192.5 173t275 59.5q46 0 93 -7t97 -21v-306q-29 3 -56 7t-58 4q-88 0 -127.5 -44t-39.5 -144v-242zM872 -29q-243 0 -416.5 100t-266.5 278.5t-93 413.5q0 236 93.5 414.5t267 278.5t414.5 100q213 0 371.5 -77t248 -217.5
t94.5 -329.5h-457q-14 118 -79.5 185t-170.5 67q-85 0 -149 -47.5t-99.5 -140t-35.5 -228.5t35.5 -229.5t99.5 -141t149 -47.5q68 0 120.5 29t86.5 85.5t43 137.5h457q-7 -190 -94.5 -332t-245 -220.5t-373.5 -78.5z" />
    <glyph glyph-name="uni0189" unicode="&#x189;" horiz-adv-x="2056" 
d="M912 0h-757v2048h756q313 0 539.5 -122.5t349.5 -352t123 -548.5q0 -320 -122.5 -550t-349.5 -352.5t-539 -122.5zM650 422h243q172 0 291.5 58.5t181 191t61.5 353.5t-62 352.5t-182.5 190t-296.5 58.5h-236v-1204zM-119 952v273h1037v-273h-1037z" />
    <glyph glyph-name="uni018A" unicode="&#x18a;" horiz-adv-x="2692" 
d="M88 1258v222q-1 178 77.5 305t223.5 195t344 68h331v-422h-330q-84 0 -130 -33.5t-63 -87t-16 -114.5v-133h-437zM1548 0h-757v2048h756q313 0 539.5 -122.5t349.5 -352t123 -548.5q0 -320 -122.5 -550t-349.5 -352.5t-539 -122.5zM1286 422h243q172 0 291.5 58.5
t181 191t61.5 353.5t-62 352.5t-182.5 190t-296.5 58.5h-236v-1204z" />
    <glyph glyph-name="uni018B" unicode="&#x18b;" horiz-adv-x="1926" 
d="M1759 0h-764q-250 0 -435.5 86t-287.5 237t-102 348t102 344.5t287.5 229.5t435.5 82h279v330h-913v395h1398v-2052zM1274 388v554h-279q-165 0 -251.5 -76.5t-86.5 -190.5q0 -79 38.5 -144.5t114 -104t185.5 -38.5h279z" />
    <glyph glyph-name="uni018C" unicode="&#x18c;" horiz-adv-x="1802" 
d="M1647 0h-484v249h-15q-31 -71 -88 -133t-142.5 -100t-201.5 -38q-170 0 -309 88t-222 264t-83 437q0 271 86 446t225.5 259t300.5 84q121 0 207 -41.5t142 -106.5t85 -135h10v775h489v-2048zM1169 768q0 126 -33.5 217t-97 140t-152.5 49q-91 0 -154 -50t-95.5 -141
t-32.5 -215t33 -216t95.5 -142.5t153.5 -50.5q89 0 152 50.5t97 142.5t34 216zM326 2048h1056v-335h-1056v335z" />
    <glyph glyph-name="uni018D" unicode="&#x18d;" horiz-adv-x="1952" 
d="M1550 -516h-1172v372h567q-23 16 -57.5 35.5t-81.5 49t-107 75.5q-137 106 -242 221t-164 244t-59 275v28q0 210 85.5 375.5t251.5 261t407 95.5q238 0 404.5 -87t253 -238t86.5 -343v-28q0 -196 -74.5 -345.5t-198 -242.5t-270.5 -118q-4 -1 -20 -1h-31
q43 -34 102.5 -88t121 -113t115 -111t83.5 -83v-234zM1254 756v28q0 85 -20.5 167.5t-80.5 136.5t-175 54q-109 0 -169 -50t-84 -131.5t-24 -176.5v-28q0 -152 63 -255t150 -149q15 -7 30 -8.5t32 -1.5q104 0 165 55.5t87 149.5t26 209z" />
    <glyph glyph-name="uni018E" unicode="&#x18e;" horiz-adv-x="1745" 
d="M1537 2048v-2048h-1428v402h933v420h-860v403h860v421h-933v402h1428z" />
    <glyph glyph-name="uni018F" unicode="&#x18f;" horiz-adv-x="2192" 
d="M1102 -28q-297 0 -500.5 116.5t-308 330t-105.5 505.5v252h1449v-398h-963v-41q0 -95 43 -170.5t137.5 -120t247.5 -44.5q140 0 232.5 63.5t138.5 170t45 237.5v250q1 129 -48.5 237t-169 173t-329.5 65q-195 0 -342 -24.5t-232 -47.5l-71 409q22 10 87.5 26t160 32.5
t204.5 27.5t222 11q330 0 554 -116.5t338 -322t113 -470.5v-250q0 -199 -68 -364t-191 -285.5t-287 -186t-357 -65.5z" />
    <glyph glyph-name="uni0190" unicode="&#x190;" horiz-adv-x="1926" 
d="M1218 960h-341q-195 0 -351 62t-246.5 174t-89.5 264q-1 186 98 313.5t277 193t413 65.5q204 0 376.5 -69.5t277.5 -198t106 -306.5h-486q-1 97 -77.5 139.5t-196.5 42.5q-104 0 -170.5 -25t-98 -69t-31.5 -101q0 -123 69.5 -181t210.5 -58h260v-246zM877 1080h341v-242
h-260q-96 0 -166.5 -23t-108 -80t-36.5 -160q-1 -78 42 -125.5t118 -68.5t171 -21q94 0 161.5 24t103.5 68t37 104h489q-1 -153 -70 -263.5t-183.5 -181.5t-254.5 -105t-283 -34q-242 0 -427.5 63.5t-289.5 194t-103 330.5q-1 252 191.5 386t527.5 134z" />
    <glyph glyph-name="uni0191" unicode="&#x191;" horiz-adv-x="1729" 
d="M238 0h495v-71q0 -165 -49.5 -265.5t-133.5 -152t-188.5 -69.5t-215.5 -18q-34 0 -98.5 1t-108.5 8v367q22 -3 47 -2.5t42 0.5q81 0 145.5 26t64.5 106v70zM238 0v2048h1398v-402h-903v-420h814v-403h-814v-823h-495z" />
    <glyph glyph-name="uni0192" unicode="&#x192;" horiz-adv-x="1398" 
d="M1203 1488v-335h-305v-1191q0 -182 -64.5 -307.5t-188 -190t-295.5 -64.5q-55 0 -108 4t-116 16l20 370q25 -7 63.5 -11.5t66.5 -4.5q99 0 126.5 51t26.5 137v1191h-226v335h226v117q1 262 161 398.5t443 136.5q68 0 126.5 -8t112.5 -18l-34 -357q-29 6 -61 9.5t-87 3.5
q-87 0 -139 -42t-53 -123v-117h305z" />
    <glyph glyph-name="uni0193" unicode="&#x193;" horiz-adv-x="2406" 
d="M1999 1379h-505v344q0 146 57 258t155 188.5t223 115.5t260 39q55 0 108.5 -7t113.5 -21v-386q-34 3 -67 7.5t-66 4.5q-72 0 -136 -14.5t-103.5 -57t-39.5 -127.5v-344zM1499 1379q-17 63 -50 111.5t-81 82.5t-110 51.5t-136 17.5q-149 0 -257.5 -72t-167.5 -209.5
t-59 -333.5q0 -197 57 -336t165 -212t262 -73q136 0 230.5 44.5t143.5 126.5t49 193l92 -11h-498v361h883v-271q0 -275 -116.5 -471t-320 -301t-467.5 -105q-293 0 -515 127t-346 362.5t-124 559.5q0 252 75 447.5t209.5 331.5t312 206t382.5 70q178 0 331.5 -51t272 -144
t192.5 -221t92 -281h-501z" />
    <glyph glyph-name="uni0194" unicode="&#x194;" horiz-adv-x="2205" 
d="M146 2000h566l530 -1215q70 -158 140.5 -311t130 -285.5t95.5 -231.5t36 -149q0 -149 -75.5 -238.5t-199 -129.5t-267.5 -40q-143 0 -270.5 40t-207 129.5t-79.5 238.5q0 50 39 148t102.5 229.5t137.5 285t143 314.5l523 1215h568l-902 -1831q-40 -84 -67.5 -144.5
t-41 -107.5t-13.5 -90q0 -42 12 -71.5t56 -29.5q47 0 58 32.5t11 68.5q0 40 -12 86t-38 107.5t-68 148.5z" />
    <glyph glyph-name="uni0195" unicode="&#x195;" horiz-adv-x="2802" 
d="M155 0v2048h473v-794h17q52 142 170.5 222t290.5 80q162 0 281.5 -71.5t186 -201.5t66.5 -304v-211h-489v115q0 128 -64.5 200t-182.5 72q-77 0 -135.5 -33.5t-91 -95.5t-33.5 -150v-876h-489zM1807 -28q-215 0 -361 76t-220.5 216.5t-74.5 330.5v173h489v-173
q0 -78 25 -127.5t66.5 -72.5t91.5 -23q117 0 191 115.5t109 340.5t35 551v157h488v-157q0 -466 -84.5 -779t-269 -470.5t-485.5 -157.5z" />
    <glyph glyph-name="uni0196" unicode="&#x196;" horiz-adv-x="1123" 
d="M614 2112v-1605q0 -78 49.5 -118t142.5 -40q53 0 82.5 3.5t60.5 9.5l32 -362q-60 -12 -118.5 -20t-116.5 -8q-286 0 -445 138t-159 397v1605h472z" />
    <glyph glyph-name="uni0197" unicode="&#x197;" horiz-adv-x="805" 
d="M650 2048v-2048h-495v2048h495zM-119 952v273h1037v-273h-1037z" />
    <glyph glyph-name="uni0198" unicode="&#x198;" horiz-adv-x="2106" 
d="M155 0v2048h495v-837h27l626 650q114 117 240.5 170.5t263.5 40.5t282 -95l-151 -347q-90 44 -148.5 19.5t-125.5 -92.5l-450 -462l841 -1095h-591l-565 744l-249 -262v-482h-495z" />
    <glyph glyph-name="uni0199" unicode="&#x199;" horiz-adv-x="1666" 
d="M1141 0l-361 532l-136 -149v-383h-489v1456h489v-407h20l416 487h562l-572 -656l598 -880h-527zM644 1298h-489v273q0 166 50 266t133 151.5t184 69.5t203 18q77 0 139.5 -5.5t105.5 -9.5v-367q-29 3 -57.5 5.5t-57.5 2.5q-76 0 -143 -26t-68 -105v-273z" />
    <glyph glyph-name="uni019A" unicode="&#x19a;" horiz-adv-x="799" 
d="M644 2048v-2048h-489v2048h489zM-120 952v273h1037v-273h-1037z" />
    <glyph glyph-name="uni019B" unicode="&#x19b;" horiz-adv-x="1917" 
d="M1146 1866v-281l-849 -259v286zM947 883l-296 -883h-502l563 1535l323 1zM577 2146q157 0 255.5 -63t145.5 -178l587 -1392q15 -36 36.5 -74.5t50.5 -65.5t70 -27h28h20l-2 -367q-33 -6 -75.5 -6h-96.5q-128 0 -218 43.5t-149 116.5t-93 164l-370 1012l-156 341
q-24 59 -71.5 89t-126.5 30q-18 0 -38.5 -0.5t-51.5 -3.5l-12 349q55 15 136 23.5t131 8.5z" />
    <glyph glyph-name="uni019C" unicode="&#x19c;" horiz-adv-x="2733" 
d="M2047 372v1632h471v-2004h-420zM2106 692l134 4q0 -208 -68.5 -371.5t-200.5 -258t-321 -94.5q-158 0 -274 59t-179.5 191.5t-63.5 353.5v1428h464v-1428q0 -76 24 -127t69 -76.5t109 -25.5q113 0 180.5 45.5t97 123.5t29.5 176zM1192 692l141 4q0 -213 -67.5 -376
t-201 -255.5t-329.5 -92.5q-175 0 -289.5 60t-171 192.5t-56.5 351.5v1428h465v-1428q0 -76 24 -127t69 -76.5t109 -25.5q113 0 180.5 45t97 122.5t29.5 177.5z" />
    <glyph glyph-name="uni019D" unicode="&#x19d;" horiz-adv-x="2113" 
d="M215 0h495v-71q0 -165 -50 -265.5t-133.5 -152t-185.5 -69.5t-206 -18q-39 0 -108.5 1t-110.5 8v367q21 -3 46.5 -2.5t42.5 0.5q81 0 145.5 26t64.5 106v70zM1958 2048v-2048h-420l-815 1182h-13v-1182h-495v2048h426l806 -1180h17v1180h494z" />
    <glyph glyph-name="uni019E" unicode="&#x19e;" horiz-adv-x="1786" 
d="M644 876v-876h-489v1536h465v-282h17q51 141 174.5 221.5t292.5 80.5q162 0 282 -72t185.5 -201.5t65.5 -303.5v-1555h-489v1459q0 127 -64.5 199.5t-181.5 72.5q-77 0 -135 -33.5t-90.5 -95.5t-32.5 -150z" />
    <glyph glyph-name="uni019F" unicode="&#x19f;" horiz-adv-x="2221" 
d="M1626 1181v-310q-124 -48 -215 -57.5t-163 5t-137.5 38t-137.5 41t-163 15.5t-215 -42v310q124 48 215 56.5t163 -6.5t137.5 -38.5t137.5 -41t163 -14t215 43.5zM2088 1024q0 -338 -130 -573t-351.5 -357t-496.5 -122q-276 0 -497 123t-350.5 357.5t-129.5 571.5
q0 338 129.5 573t350.5 357t497 122q275 0 496.5 -122t351.5 -357t130 -573zM1582 1024q0 200 -56.5 338t-162 209t-253.5 71q-147 0 -253 -71t-162.5 -209t-56.5 -338t56.5 -338t162.5 -209t253 -71q148 0 253.5 71t162 209t56.5 338z" />
    <glyph glyph-name="uni01A0" unicode="&#x1a0;" horiz-adv-x="2327" 
d="M2006 2132h288q0 -299 -125 -465t-402 -166v228q142 0 190.5 106t48.5 297zM2088 1024q0 -338 -130 -573t-351.5 -357t-496.5 -122q-276 0 -497 123t-350.5 357.5t-129.5 571.5q0 338 129.5 573t350.5 357t497 122q275 0 496.5 -122t351.5 -357t130 -573zM1582 1024
q0 200 -56.5 338t-162 209t-253.5 71q-147 0 -253 -71t-162.5 -209t-56.5 -338t56.5 -338t162.5 -209t253 -71q148 0 253.5 71t162 209t56.5 338z" />
    <glyph glyph-name="uni01A1" unicode="&#x1a1;" horiz-adv-x="1812" 
d="M1547 1617h265q0 -262 -128 -406.5t-403 -144.5v172q108 0 165.5 45t79 130t21.5 204zM872 -29q-242 0 -415.5 99.5t-267 278t-93.5 414.5q0 237 93.5 415.5t267 278t415.5 99.5t415.5 -99.5t267 -278t93.5 -415.5q0 -236 -93.5 -414.5t-267 -278t-415.5 -99.5zM875 340
q88 0 149 54t93.5 150t32.5 222q0 128 -32.5 224t-93.5 150t-149 54q-91 0 -153.5 -54t-95 -150t-32.5 -224q0 -126 32.5 -222t95 -150t153.5 -54z" />
    <glyph glyph-name="uni01A2" unicode="&#x1a2;" horiz-adv-x="2698" 
d="M1859 1227v-977q-52 -56 -157.5 -121t-268 -111t-387.5 -46q-205 0 -373 65t-289 190t-186 305.5t-65 412.5v83l495 4v-87q0 -175 43.5 -307t142 -205t260.5 -73q89 0 150 13.5t100.5 32.5t64.5 37v784h470zM1859 1754v-970l-470 -6v785q-31 25 -75.5 43t-103 27.5
t-135.5 9.5q-125 0 -210.5 -39t-138 -114t-75.5 -183t-23 -248v-103l-495 3v100q0 232 64.5 412.5t185.5 305.5t289 190t374 65q227 0 389.5 -45.5t267 -110t156.5 -122.5zM2542 2004v-2576h-464v2000l-480 -225v523l595 278h349z" />
    <glyph glyph-name="uni01A3" unicode="&#x1a3;" horiz-adv-x="2198" 
d="M831 349q59 0 104 15.5t74 47.5v461h468v-563q-51 -92 -130.5 -168.5t-202 -123t-303.5 -46.5q-243 0 -403.5 98.5t-240 270t-79.5 388.5v30q0 216 79.5 387t240.5 270.5t403 99.5q166 0 294.5 -62.5t215.5 -151.5t126 -168v-364l-468 39v247q-30 42 -74 64t-110 22
q-106 0 -158 -55t-68 -143t-16 -185v-30q0 -97 16 -184t69.5 -141.5t162.5 -54.5zM2083 1488v-2060h-470v1550l-339 -115v419l497 206h312z" />
    <glyph glyph-name="uni01A4" unicode="&#x1a4;" horiz-adv-x="2466" 
d="M525 1258h-437v222q-1 178 77.5 305t223.5 195t344 68h897q231 0 398.5 -89.5t258.5 -249t91 -370.5q0 -212 -93 -370.5t-264 -245.5t-406 -87h-336v-636h-494v1649h-51q-84 0 -130 -39t-63 -98.5t-16 -120.5v-133zM1279 1026h245q111 0 187 39t115 109.5t39 164.5
q0 95 -39 164.5t-115 107.5t-188 38h-244v-623z" />
    <glyph glyph-name="uni01A5" unicode="&#x1a5;" horiz-adv-x="1802" 
d="M639 1536h-484q0 230 129 326t414 96q84 0 147.5 -10t96.5 -18v-312q-17 5 -61.5 13.5t-94.5 10.5q-77 1 -112 -25t-35 -81zM155 -576v2112h484v-263h15q30 70 85.5 135t142 106.5t207.5 41.5q160 0 299.5 -84t225.5 -259t86 -446q0 -261 -82.5 -437t-222 -264
t-309.5 -88q-116 0 -201 38t-142.5 100t-88.5 133h-10v-825h-489zM634 768q0 -124 33.5 -216t97 -142.5t152.5 -50.5q90 0 153 50.5t95.5 142.5t32.5 216t-32.5 215t-95 141t-153.5 50q-90 0 -153 -49t-96.5 -140t-33.5 -217z" />
    <glyph glyph-name="uni01A6" unicode="&#x1a6;" horiz-adv-x="2186" 
d="M136 1864v280h486v-280h-486zM133 2004h812q239 0 415 -69.5t272.5 -205t96.5 -332.5q0 -177 -55.5 -293t-155 -189.5t-231.5 -123.5l-162 -95h-682l-3 388h505q97 0 163.5 31.5t100.5 90t34 140.5q0 83 -34 142.5t-100.5 91.5t-163.5 32h-323v-1612h-489v2004z
M1531 -477l-716 1363h515l723 -1344v-19h-522z" />
    <glyph glyph-name="uni01A7" unicode="&#x1a7;" horiz-adv-x="1860" 
d="M598 1434h-474q2 191 99 336t272.5 225.5t413.5 80.5q234 0 415.5 -80t285 -223t101.5 -333q1 -233 -152 -369.5t-419 -197.5l-214 -50q-112 -26 -184.5 -56.5t-107.5 -72t-36 -99.5q1 -62 39 -110t108.5 -75t170.5 -27q110 0 192 34t129.5 100t52.5 165h474
q-3 -240 -109 -397t-297 -234t-448 -77q-255 0 -437 74t-279 213t-98 333q1 123 42 222t120.5 175t196.5 131t268 88l176 40q93 20 161 49t105 71.5t34 103.5q0 56 -32.5 99.5t-96.5 68.5t-160 25q-145 0 -223.5 -61.5t-88.5 -171.5z" />
    <glyph glyph-name="uni01A8" unicode="&#x1a8;" horiz-adv-x="1619" 
d="M123 1067q20 228 199.5 358.5t491.5 130.5q209 0 361.5 -58t235.5 -167.5t83 -263.5q1 -176 -112.5 -289.5t-343.5 -155.5l-269 -51q-95 -18 -140 -49.5t-47 -83.5q2 -58 60.5 -93t152.5 -35q104 0 171.5 44t82.5 128l483 -12q-26 -228 -215.5 -363.5t-518.5 -135.5
q-206 0 -366.5 64.5t-253 181.5t-92.5 275q1 168 114 270t342 146l295 56q98 20 135.5 53t35.5 78q2 58 -58 92t-145 34q-97 0 -159.5 -46.5t-73.5 -119.5z" />
    <glyph glyph-name="uni01A9" unicode="&#x1a9;" horiz-adv-x="1933" 
d="M1704 398v-398h-1299v398h1299zM1685 2052v-402h-1203v402h1203zM1342 1038v-19l-717 -1019h-402v211l607 817l-607 812v212h402z" />
    <glyph glyph-name="uni01AA" unicode="&#x1aa;" horiz-adv-x="1942" 
d="M947 1336l468 247v-1596q-1 -107 51.5 -162t145.5 -55q32 0 63.5 3t72.5 9v-366q-52 -12 -107 -16.5t-117 -4.5q-268 0 -423 152.5t-154 439.5v1349zM194 1583q0 162 81.5 297.5t220 217t307.5 81.5q167 0 306 -81.5t222 -217t84 -297.5q-1 -163 -84 -298.5t-222 -216.5
t-306 -81t-305.5 80.5t-221 215.5t-82.5 300zM806 1380q82 0 140 51.5t59 155.5q-1 101 -60.5 151t-138.5 50q-60 0 -107 -23t-73 -67.5t-25 -110.5q-1 -104 57 -155.5t148 -51.5z" />
    </font>
</defs>
</svg>
