<?xml version="1.0" standalone="no"?>
<!DOCTYPE svg PUBLIC "-//W3C//DTD SVG 1.1//EN" "http://www.w3.org/Graphics/SVG/1.1/DTD/svg11.dtd" >
<svg xmlns="http://www.w3.org/2000/svg" xmlns:xlink="http://www.w3.org/1999/xlink" version="1.1">
<metadata>
Created by FontForge 20170731 at Fri Dec  1 07:20:35 2023
 By Aleksey,,,
Copyright (c) 2018 Monotype GmbH. All rights reserved.
</metadata>
<defs>
<font id="Avenir-Regular" horiz-adv-x="1138" >
  <font-face 
    font-family="Avenir Regular"
    font-weight="400"
    font-stretch="normal"
    units-per-em="2048"
    panose-1="2 11 5 3 2 2 3 2 2 4"
    ascent="1638"
    descent="-410"
    x-height="958"
    cap-height="1450"
    bbox="-352 -944 2879 2220"
    underline-thickness="102"
    underline-position="-358"
    unicode-range="U+000D-FEFF"
  />
<missing-glyph horiz-adv-x="1048" 
d="M1049 1470v-1470h-1049v1470h1049zM946 102v1264h-844v-1264h844zM530 1247q111 0 182.5 -74t71.5 -194q0 -74 -29.5 -127t-103.5 -121q-66 -61 -79.5 -94.5t-15.5 -125.5q0 -7 -0.5 -10.5t-0.5 -10v-11.5h-94q-4 24 -4 51q0 91 28.5 150.5t96.5 124.5q52 50 75 85.5
t23 80.5q0 72 -46.5 123t-109.5 51q-70 0 -113 -49.5t-55 -145.5l-102 17q12 136 83 208t193 72zM455 377h114v-137h-114v137z" />
    <glyph glyph-name="uniFB51" unicode="&#x671;" horiz-adv-x="577" arabic-form="final" 
d="M154 1548h159v-1179q0 -217 265 -217q40 0 40 -76t-40 -76q-220 0 -322 88t-102 270v1190zM-57 1657v80h102v207h80v-89q75 99 178 99q75 0 119.5 -48t44.5 -130q0 -55 -21 -119h-503zM119 1737h264q6 24 6 43q0 44 -26.5 69t-67.5 25q-52 0 -100 -38t-76 -99z" />
    <glyph glyph-name="uniFB57" unicode="&#x67e;" horiz-adv-x="2056" arabic-form="final" 
d="M2056 152q41 0 41 -76t-41 -76q-243 0 -330 145q-106 -145 -335 -145h-844q-216 0 -340.5 104.5t-124.5 282.5q0 146 65 322l148 -39q-49 -175 -49 -254q0 -264 323 -264h803q134 0 196 62.5t62 209.5v410h160v-449q0 -233 266 -233zM856 -281q0 -44 -28 -73t-72 -29
q-43 0 -72 29t-29 73q0 43 29 72t72 29q44 0 72 -29t28 -72zM1044 -180q43 0 71 -29t28 -72q0 -44 -28 -73t-71 -29q-44 0 -73 29t-29 73q0 43 29 72t73 29zM903 -408q44 0 72.5 -29t28.5 -73q0 -43 -28.5 -71.5t-72.5 -28.5q-43 0 -71.5 28.5t-28.5 71.5q0 44 28.5 73
t71.5 29z" />
    <glyph glyph-name="uniFB58" unicode="&#x67e;" horiz-adv-x="638" arabic-form="initial" 
d="M0 0v152h14q124 0 177 62.5t53 209.5v410h159v-437q0 -205 -99 -301t-294 -96h-10zM94 -383q-43 0 -71.5 29t-28.5 73q0 43 28.5 72t71.5 29q44 0 72.5 -29t28.5 -72q0 -44 -28.5 -73t-72.5 -29zM383 -383q-44 0 -73 29t-29 73q0 43 29 72t73 29q42 0 70 -29t28 -72
q0 -44 -27.5 -73t-70.5 -29zM242 -610q-43 0 -72 28.5t-29 71.5q0 44 29 73t72 29q44 0 72 -29t28 -73q0 -43 -28 -71.5t-72 -28.5z" />
    <glyph glyph-name="uniFB59" unicode="&#x67e;" horiz-adv-x="669" arabic-form="medial" 
d="M670 152q41 0 41 -76t-41 -76q-242 0 -328 141q-97 -141 -332 -141h-10v152h14q124 0 177 62.5t53 209.5v410h159v-449q0 -233 267 -233zM254 -281q0 -44 -28 -73t-72 -29q-43 0 -72 29t-29 73q0 43 29 72t72 29q44 0 72 -29t28 -72zM442 -180q43 0 71 -29t28 -72
q0 -44 -28 -73t-71 -29q-44 0 -73 29t-29 73q0 43 29 72t73 29zM301 -408q44 0 72 -29t28 -73q0 -43 -28 -71.5t-72 -28.5q-43 0 -71.5 28.5t-28.5 71.5q0 44 28.5 73t71.5 29z" />
    <glyph glyph-name="uniFB67" unicode="&#x679;" horiz-adv-x="2056" arabic-form="final" 
d="M82 387q0 146 65 322l148 -39q-49 -175 -49 -254q0 -264 323 -264h803q134 0 196 62.5t62 209.5v410h160v-449q0 -233 266 -233q41 0 41 -76t-41 -76q-243 0 -330 145q-106 -145 -335 -145h-844q-216 0 -340.5 104.5t-124.5 282.5zM635 973h100v348h82v-207q81 94 182 94
q83 0 132 -55t49 -145q0 -56 -21 -117h-524v82zM993 1126q-52 0 -101 -39.5t-79 -113.5h283q4 24 4 37q0 53 -29.5 84.5t-77.5 31.5z" />
    <glyph glyph-name="uniFB68" unicode="&#x679;" horiz-adv-x="518" arabic-form="initial" 
d="M0 152q133 0 189.5 61t56.5 211v410h160v-437q0 -208 -101 -302.5t-305 -94.5v152zM35 1083v82h100v348h82v-206q81 94 182 94q83 0 132 -55.5t49 -145.5q0 -56 -21 -117h-524zM393 1319q-52 0 -101 -40t-79 -114h283q4 24 4 37q0 53 -29.5 85t-77.5 32z" />
    <glyph glyph-name="uniFB69" unicode="&#x679;" horiz-adv-x="671" arabic-form="medial" 
d="M344 141q-95 -141 -344 -141v152q133 0 189.5 61t56.5 211v410h160v-449q0 -233 266 -233q41 0 41 -76t-41 -76q-242 0 -328 141zM559 1083h-524v82h100v348h82v-206q81 94 182 94q83 0 132 -55.5t49 -145.5q0 -56 -21 -117zM393 1319q-52 0 -101 -40t-79 -114h283
q4 24 4 37q0 53 -29.5 85t-77.5 32z" />
    <glyph glyph-name="uniFB6B" unicode="&#x6a4;" horiz-adv-x="2205" arabic-form="final" 
d="M547 0q-216 0 -340.5 104.5t-124.5 282.5q0 146 65 322l148 -39q-49 -175 -49 -254q0 -264 323 -264h686q74 0 109 6q-77 56 -124.5 139.5t-47.5 185.5q0 163 117 268t307 105t302 -105t112 -268q0 -103 -46.5 -186.5t-130.5 -140.5q70 -4 109 -4h244q41 0 41 -76
t-41 -76h-230q-200 0 -366 39q-170 -39 -365 -39h-698zM1612 700q-115 0 -185.5 -59t-70.5 -158q0 -105 75 -183t179 -105q94 19 175 100.5t81 189.5q0 98 -70.5 156.5t-183.5 58.5zM1368 1196q0 43 28.5 71.5t71.5 28.5q44 0 72.5 -28.5t28.5 -71.5q0 -44 -28.5 -73
t-72.5 -29q-43 0 -71.5 29t-28.5 73zM1757 1094q-44 0 -73 29t-29 73q0 43 29 71.5t73 28.5q43 0 70.5 -28.5t27.5 -71.5q0 -44 -27.5 -73t-70.5 -29zM1518 1427q0 42 29 71.5t71 29.5q43 0 71.5 -29.5t28.5 -71.5q0 -44 -28 -73t-72 -29q-43 0 -71.5 29t-28.5 73z" />
    <glyph glyph-name="uniFB6C" unicode="&#x6a4;" arabic-form="initial" 
d="M0 0v152h258q-86 110 -86 270q0 189 121.5 311.5t322.5 122.5q105 0 184 -36.5t125 -100t68.5 -141t22.5 -168.5q0 -189 -88 -410h-928zM602 700q-127 0 -196.5 -78t-69.5 -204q0 -142 102 -266h377q37 140 37 247q0 138 -62 219.5t-188 81.5zM469 1094q-43 0 -71.5 29
t-28.5 73q0 43 28.5 71.5t71.5 28.5q44 0 72 -28.5t28 -71.5q0 -44 -28 -73t-72 -29zM655 1196q0 43 29.5 71.5t73.5 28.5q43 0 70.5 -28.5t27.5 -71.5q0 -44 -27.5 -73t-70.5 -29q-44 0 -73.5 29t-29.5 73zM618 1325q-43 0 -71.5 29t-28.5 73q0 42 29 71.5t71 29.5
q44 0 72.5 -29.5t28.5 -71.5q0 -44 -28.5 -73t-72.5 -29z" />
    <glyph glyph-name="uniFB6D" unicode="&#x6a4;" horiz-adv-x="1185" arabic-form="medial" 
d="M225 0h-225v152h236q73 0 108 6q-77 56 -124.5 139.5t-47.5 185.5q0 163 117 268t307 105t302 -105t112 -268q0 -103 -46 -186.5t-130 -140.5q70 -4 108 -4h244q41 0 41 -76t-41 -76h-230q-200 0 -366 39q-170 -39 -365 -39zM336 483q0 -105 75 -183t179 -105
q94 19 175 100.5t81 189.5q0 98 -70.5 156.5t-183.5 58.5q-115 0 -185.5 -59t-70.5 -158zM449 1094q-43 0 -72 29t-29 73q0 43 29 71.5t72 28.5q44 0 72 -28.5t28 -71.5q0 -44 -28 -73t-72 -29zM737 1094q-44 0 -73 29t-29 73q0 43 29 71.5t73 28.5q43 0 71 -28.5t28 -71.5
q0 -44 -28 -73t-71 -29zM598 1325q-43 0 -71.5 29t-28.5 73q0 42 29 71.5t71 29.5q43 0 71.5 -29.5t28.5 -71.5q0 -44 -28 -73t-72 -29z" />
    <glyph glyph-name="uniFB7B" unicode="&#x686;" horiz-adv-x="1386" arabic-form="final" 
d="M82 -186q0 154 97.5 246t262.5 92h537q16 62 16 139q0 187 -101 298t-300 111q-101 0 -219 -36l-37 143q132 49 280 49q134 0 237 -40.5t167 -114.5t96.5 -174t32.5 -224q0 -63 -10 -151h245q41 0 41 -76t-41 -76h-925q-104 0 -159.5 -47.5t-55.5 -136.5q0 -96 67 -144.5
t193 -48.5q49 0 104 10l31 -149q-72 -16 -156 -16q-179 0 -291 92t-112 254zM735 -399q-29 0 -49 20t-20 51t20 51.5t49 20.5q32 0 52 -20.5t20 -51.5t-20 -51t-52 -20zM764 -168q0 31 20 50.5t52 19.5q29 0 48 -19.5t19 -50.5t-19 -51.5t-48 -20.5q-32 0 -52 20.5t-20 51.5
zM633 -240q-31 0 -50.5 20.5t-19.5 51.5t19.5 50.5t50.5 19.5t50 -19.5t19 -50.5t-19.5 -51.5t-49.5 -20.5z" />
    <glyph glyph-name="uniFB7C" unicode="&#x686;" horiz-adv-x="1007" arabic-form="initial" 
d="M0 0v152h713q13 59 15 124.5t-16.5 143t-59.5 138t-125 101.5t-201 41q-102 0 -220 -36l-36 143q132 49 282 49q139 0 244 -42t169 -118.5t94.5 -183t25.5 -235.5t-43 -277h-842zM256 -383q-43 0 -71.5 29t-28.5 73q0 43 28.5 72t71.5 29q44 0 72 -29t28 -72
q0 -44 -28 -73t-72 -29zM545 -383q-44 0 -73.5 29t-29.5 73q0 43 29.5 72t73.5 29q42 0 70 -29t28 -72q0 -44 -27.5 -73t-70.5 -29zM403 -610q-43 0 -71.5 28.5t-28.5 71.5q0 44 28.5 73t71.5 29q44 0 72.5 -29t28.5 -73q0 -43 -28.5 -71.5t-72.5 -28.5z" />
    <glyph glyph-name="uniFB7D" unicode="&#x686;" horiz-adv-x="1118" arabic-form="medial" 
d="M0 152h713q13 59 15 124.5t-16.5 143t-59.5 138t-125 101.5t-201 41q-102 0 -220 -36l-36 143q132 49 282 49q124 0 222 -33.5t161 -95.5t101.5 -149t45 -194.5t-9.5 -231.5h246q41 0 41 -76t-41 -76h-1118v152zM156 -281q0 43 28.5 72t71.5 29q44 0 72 -29t28 -72
q0 -44 -28 -73t-72 -29q-43 0 -71.5 29t-28.5 73zM303 -510q0 44 28.5 73t71.5 29q44 0 72.5 -29t28.5 -73q0 -43 -28.5 -71.5t-72.5 -28.5q-43 0 -71.5 28.5t-28.5 71.5zM442 -281q0 43 29.5 72t73.5 29q42 0 70 -29t28 -72q0 -44 -27.5 -73t-70.5 -29q-44 0 -73.5 29
t-29.5 73z" />
    <glyph glyph-name="uniFB89" unicode="&#x688;" arabic-form="final" 
d="M82 0v152h682v36q0 161 -107 308t-299 270l97 129q135 -88 227 -177t144 -182t74 -184t24 -200h215q41 0 41 -76t-41 -76h-1057zM102 1165h101v348h82v-206q81 94 182 94q82 0 131 -55.5t49 -145.5q0 -58 -20 -117h-525v82zM281 1165h282q4 24 4 37q0 54 -29 85.5
t-77 31.5q-52 0 -101 -40t-79 -114z" />
    <glyph glyph-name="uniFB8B" unicode="&#x698;" horiz-adv-x="720" arabic-form="final" 
d="M371 1303q-43 0 -72 29t-29 73q0 41 29 70.5t72 29.5q44 0 72 -29t28 -71q0 -44 -28 -73t-72 -29zM221 1071q-43 0 -71.5 29.5t-28.5 73.5q0 43 28.5 71.5t71.5 28.5q44 0 72.5 -28.5t28.5 -71.5q0 -44 -28.5 -73.5t-72.5 -29.5zM408 1174q0 43 29 71.5t73 28.5
q43 0 70.5 -28.5t27.5 -71.5q0 -44 -27.5 -73.5t-70.5 -29.5q-44 0 -73 29.5t-29 73.5zM721 152q41 0 41 -76t-41 -76h-287v6q-63 -319 -409 -358l-33 147q105 17 168 53t96 105t33 178v703h160v-682h272z" />
    <glyph glyph-name="uniFB8D" unicode="&#x691;" horiz-adv-x="720" arabic-form="final" 
d="M25 -352l-33 147q105 17 168 53t96 105t33 178v703h160v-682h272q41 0 41 -76t-41 -76h-287v6q-63 -319 -409 -358zM602 1083h-524v82h100v348h82v-206q81 94 182 94q83 0 132 -55.5t49 -145.5q0 -56 -21 -117zM256 1165h283q4 24 4 37q0 53 -29.5 85t-77.5 32
q-52 0 -101 -40t-79 -114z" />
    <glyph glyph-name="uniFB8F" unicode="&#x6a9;" horiz-adv-x="1896" arabic-form="final" 
d="M82 387q0 146 65 322l148 -39q-49 -175 -49 -254q0 -264 323 -264h897v67q0 221 -137.5 354t-472.5 232v156l580 559l104 -107l-522 -506q143 -47 249 -105.5t173.5 -123t108 -145t56 -162t15.5 -181.5v-38h276q41 0 41 -76t-41 -76h-1349q-216 0 -340.5 104.5
t-124.5 282.5z" />
    <glyph glyph-name="uniFB90" unicode="&#x6a9;" horiz-adv-x="966" arabic-form="initial" 
d="M242 907q143 -47 249 -105.5t173.5 -123t108 -145t56 -162t15.5 -181.5v-190h-844v152h690v67q0 221 -137.5 354t-472.5 232v156l579 559l105 -107z" />
    <glyph glyph-name="uniFB91" unicode="&#x6a9;" horiz-adv-x="1099" arabic-form="medial" 
d="M0 0v152h690v67q0 221 -137.5 354t-472.5 232v156l579 559l105 -107l-522 -506q143 -47 249 -105.5t173.5 -123t108 -145t56 -162t15.5 -181.5v-38h256q41 0 41 -76t-41 -76h-1100z" />
    <glyph glyph-name="uniFB93" unicode="&#x6af;" horiz-adv-x="1896" arabic-form="final" 
d="M547 0q-216 0 -340.5 104.5t-124.5 282.5q0 146 65 322l148 -39q-49 -175 -49 -254q0 -264 323 -264h897v67q0 221 -137.5 354t-472.5 232v156l580 559l104 -107l-522 -506q143 -47 249 -105.5t173.5 -123t108 -145t56 -162t15.5 -181.5v-38h276q41 0 41 -76t-41 -76
h-1349zM854 1090l-109 108l523 494l104 -107z" />
    <glyph glyph-name="uniFB94" unicode="&#x6af;" horiz-adv-x="966" arabic-form="initial" 
d="M78 1090l-109 108l523 494l104 -107zM242 907q143 -47 249 -105.5t173.5 -123t108 -145t56 -162t15.5 -181.5v-190h-844v152h690v67q0 221 -137.5 354t-472.5 232v156l579 559l105 -107z" />
    <glyph glyph-name="uniFB95" unicode="&#x6af;" horiz-adv-x="1099" arabic-form="medial" 
d="M0 152h690v67q0 221 -137.5 354t-472.5 232v156l579 559l105 -107l-522 -506q143 -47 249 -105.5t173.5 -123t108 -145t56 -162t15.5 -181.5v-38h256q41 0 41 -76t-41 -76h-1100v152zM-31 1198l523 494l104 -107l-518 -495z" />
    <glyph glyph-name="uniFB9F" unicode="&#x6ba;" horiz-adv-x="1458" arabic-form="final" 
d="M1458 152q41 0 41 -76t-41 -76h-287q-47 -163 -189 -249.5t-351 -86.5q-135 0 -241 36.5t-172.5 101t-101 150.5t-34.5 189q0 162 86 365l143 -49q-65 -162 -65 -295q0 -174 102 -258t289 -84q395 0 395 379v485h160v-532h266z" />
    <glyph glyph-name="uniFBA7" unicode="&#x6c1;" horiz-adv-x="1183" arabic-form="final" 
d="M207 -23l-125 54q109 237 250 374.5t297 137.5q94 0 160 -47.5t135 -165.5q66 -112 114.5 -145t145.5 -33q41 0 41 -80q0 -38 -9.5 -55t-31.5 -17q-146 0 -224 45.5t-155 177.5q-56 97 -95 131.5t-94 34.5q-102 0 -211.5 -112.5t-197.5 -299.5z" />
    <glyph glyph-name="uniFBA8" unicode="&#x6c1;" horiz-adv-x="518" arabic-form="initial" 
d="M0 0v152q133 0 189.5 61t56.5 211v410h160v-437q0 -208 -101 -302.5t-305 -94.5zM184 -524q-67 100 -67 227q0 105 49 209l113 -31q-27 -76 -27 -145q0 -96 57 -199z" />
    <glyph glyph-name="uniFBA9" unicode="&#x6c1;" horiz-adv-x="813" arabic-form="medial" 
d="M0 152h254q-21 -89 -23 -152q-2 -12 -2 -37q0 -211 146 -287v19q0 131 44.5 232.5t139 163t227.5 61.5h27q41 0 41 -76t-41 -76h-25q-130 0 -204 -82.5t-74 -249.5q0 -77 14 -160q-92 4 -170.5 31t-142.5 77t-100.5 132.5t-36.5 188.5q0 17 4 63h-78v152z" />
    <glyph glyph-name="uniFBAB" unicode="&#x6be;" horiz-adv-x="1331" arabic-form="final" 
d="M82 59l47 144q130 -51 295 -51h37v235q0 210 96 334.5t287 124.5q92 0 163 -32.5t113 -87.5t63 -122t21 -143q0 -184 -106 -309h233q41 0 41 -76t-41 -76h-166q54 -97 54 -186q0 -139 -102 -222.5t-279 -83.5q-377 0 -377 386v106h-37q-200 0 -342 59zM621 152h155
q122 0 195 84t73 210q0 108 -57 176t-160 68q-97 0 -151.5 -69.5t-54.5 -212.5v-256zM993 0h-372v-94q0 -127 55 -184.5t174 -57.5q205 0 205 164q0 89 -62 172z" />
    <glyph glyph-name="uniFBAC" unicode="&#x6be;" horiz-adv-x="1282" arabic-form="initial" 
d="M315 442q0 -92 47.5 -157.5t122.5 -100.5q84 30 136.5 94.5t52.5 161.5t-52 159.5t-128 62.5q-77 0 -128 -63.5t-51 -156.5zM678 152h346q6 40 6 88q0 265 -268 391q55 -85 55 -191q0 -88 -38 -163.5t-101 -124.5zM145 743l27 140q187 -13 336.5 -41t277.5 -79.5
t213.5 -124t133 -177.5t47.5 -238q0 -100 -27 -223h-389q-169 0 -279 39q-110 -39 -282 -39h-203v152h203q59 0 92 4q-55 47 -89 120t-34 160q0 88 42.5 169.5t117.5 127.5q-113 8 -187 10z" />
    <glyph glyph-name="uniFBAD" unicode="&#x6be;" horiz-adv-x="1038" arabic-form="medial" 
d="M0 152h168v235q0 210 96 334.5t287 124.5q92 0 163 -32.5t113 -87.5t63 -122t21 -143q0 -184 -106 -309h233q41 0 41 -76t-41 -76h-166q54 -97 54 -186q0 -139 -102 -222.5t-279 -83.5q-377 0 -377 386v106h-168v152zM535 690q-98 0 -152.5 -69.5t-54.5 -212.5v-256h155
q122 0 195.5 84t73.5 210q0 108 -57 176t-160 68zM328 -94q0 -127 55 -184.5t174 -57.5q205 0 205 164q0 89 -62 172h-372v-94z" />
    <glyph glyph-name="uniFBAF" unicode="&#x6d2;" horiz-adv-x="860" arabic-form="final" 
d="M717 -532q-336 0 -496 82.5t-160 265.5q0 162 121.5 249t339.5 87h338q41 0 41 -76t-41 -76h-356q-153 0 -222 -45t-69 -133q0 -72 52 -115t171 -63.5t322 -20.5q328 0 739 70l8 -152q-457 -73 -788 -73z" />
    <glyph glyph-name="uniFBB1" unicode="&#x6d3;" horiz-adv-x="860" arabic-form="final" 
d="M61 -184q0 162 121.5 249t339.5 87h338q41 0 41 -76t-41 -76h-356q-153 0 -222 -45t-69 -133q0 -72 52 -115t171 -63.5t322 -20.5q328 0 739 70l8 -152q-457 -73 -788 -73q-336 0 -496 82.5t-160 265.5zM682 410h-426v102h92q-35 62 -35 129q0 90 60 142.5t157 52.5
q54 0 127 -15l-18 -100q-57 10 -86 10q-55 0 -94 -26t-39 -82q0 -53 37 -111h225v-102z" />
    <glyph glyph-name="uniFBE8" unicode="&#x649;" horiz-adv-x="518" arabic-form="initial" 
d="M0 0v152q133 0 189.5 61t56.5 211v410h160v-437q0 -208 -101 -302.5t-305 -94.5z" />
    <glyph glyph-name="uniFBE9" unicode="&#x649;" horiz-adv-x="671" arabic-form="medial" 
d="M672 152q41 0 41 -76t-41 -76q-242 0 -328 141q-95 -141 -344 -141v152q133 0 189.5 61t56.5 211v410h160v-449q0 -233 266 -233z" />
    <glyph glyph-name="uniFBFD" unicode="&#x6cc;" horiz-adv-x="1570" arabic-form="final" 
d="M1571 152q41 0 41 -76t-41 -76h-170q40 -32 60 -78.5t20 -91.5q0 -151 -194 -256.5t-515 -105.5q-355 0 -522.5 124.5t-167.5 352.5q0 118 49 268l148 -39q-33 -126 -33 -209q0 -177 122.5 -259.5t413.5 -82.5q250 0 392.5 61t142.5 154q0 60 -60.5 115.5t-179.5 85.5
l-248 63l39 134l277 -66q79 -18 198 -18h228z" />
    <glyph glyph-name="uniFBFE" unicode="&#x6cc;" horiz-adv-x="577" arabic-form="initial" 
d="M0 0v152h14q124 0 177 62.5t53 209.5v410h159v-437q0 -205 -99 -301t-294 -96h-10zM94 -381q-43 0 -71.5 28.5t-28.5 71.5q0 44 28.5 73.5t71.5 29.5q44 0 72.5 -29.5t28.5 -73.5q0 -43 -28.5 -71.5t-72.5 -28.5zM383 -381q-44 0 -73 28.5t-29 71.5q0 44 29 73.5t73 29.5
q43 0 70.5 -29.5t27.5 -73.5q0 -43 -27.5 -71.5t-70.5 -28.5z" />
    <glyph glyph-name="uniFBFF" unicode="&#x6cc;" horiz-adv-x="669" arabic-form="medial" 
d="M670 152q41 0 41 -76t-41 -76q-242 0 -328 141q-97 -141 -332 -141h-10v152h14q124 0 177 62.5t53 209.5v410h159v-449q0 -233 267 -233zM154 -178q44 0 72 -29t28 -74q0 -43 -28 -71.5t-72 -28.5q-43 0 -72 28.5t-29 71.5q0 44 29 73.5t72 29.5zM442 -178q43 0 71 -29.5
t28 -73.5q0 -43 -28 -71.5t-71 -28.5q-44 0 -73 28.5t-29 71.5q0 44 29 73.5t73 29.5z" />
    <glyph glyph-name="uniFDF2" unicode="&#xfdf2;" horiz-adv-x="2869" arabic-form="isolated" 
d="M82 410q0 191 130 307.5t357 116.5h346v-476q0 -122 48 -164t174 -42q73 0 118 13t71 47t35 82.5t9 129.5v776h160v-815q0 -233 266 -233q73 0 118 13t71 46.5t35.5 82.5t9.5 130v1124h159v-1194q0 -184 -99 -269t-294 -85q-233 0 -323 133q-88 -133 -336 -133
q-280 0 -344 106q-132 -63 -281 -63q-195 0 -312.5 96.5t-117.5 270.5zM2556 0v1548h160v-1548h-160zM539 682q-131 0 -212 -65.5t-81 -188.5q0 -115 72.5 -172t207.5 -57q138 0 222 51v432h-209zM1217 1434q0 49 22 100l55 -14q-8 -31 -8 -58q0 -73 72 -73q59 0 59 75
q0 25 -2 39l58 15q12 -44 12 -76v-6q27 -31 71 -31q62 0 62 61q0 40 -16 93l57 22q31 -58 31 -119q0 -63 -34 -102t-93 -39q-60 0 -97 37q-31 -58 -108 -58q-67 0 -104 37t-37 97zM1409 1618v299h80v-275l-68 -24h-12z" />
    <glyph glyph-name="uniFDFA" unicode="&#xfdfa;" horiz-adv-x="2312" arabic-form="isolated" 
d="M80 526q0 80 52 125t151 45h135v-164q0 -31 14.5 -44t52.5 -13h4q40 0 57 17.5t17 60.5v143h105v-151q0 -70 71 -70h281v152h106v-152h322q37 0 53.5 18t16.5 60v303h104v-317q0 -64 68 -64h262q-23 48 -23 84q0 69 46 111.5t130 42.5q37 0 95 -15l-19 -90q-36 8 -59 8
q-39 0 -60.5 -19t-21.5 -52q0 -38 24 -70h154v-102h-530q-81 0 -111 43q-35 -43 -125 -43h-326v-406q0 -63 66 -63h31q57 0 57 59v115h104v-125q0 -49 54 -49q53 0 53 57v117h104v-125q0 -49 54 -49q29 0 41 13.5t12 45.5v168h106v-203q0 -61 -37 -94t-106 -33
q-63 0 -100 43q-40 -43 -107 -43q-71 0 -106 43q-46 -43 -123 -43h-37q-79 0 -111 43q-37 -43 -127 -43h-376q-48 -51 -140 -51h-88q-29 29 -41 53l-35 -2q-27 -2 -39 -15t-12 -44v-131h-102v151q0 70 35 106t102 36h21v22q0 76 48.5 125t129.5 49q75 0 119.5 -47t44.5 -125
q0 -12 -3 -24h332q38 0 54 17.5t16 58.5v393h-287q-82 0 -108 45q-40 -45 -131 -45h-21q-88 0 -125 37q-52 -25 -112 -25q-70 0 -113 37.5t-43 103.5zM856 877q0 34 16 73l99 -18q-6 -18 -6 -37q0 -72 120 -72q83 0 129 24.5t46 61.5q0 21 -24.5 34t-100.5 34l26 90
q80 -20 146 -20q37 0 51 17.5t14 61.5v342h105v-358q0 -63 67 -63q35 0 50.5 14.5t15.5 50.5v119h104v-129q0 -47 41 -53q119 235 287 235q84 0 130 -52.5t46 -146.5q0 -61 -25 -141h-417q-76 0 -105 41q-18 -21 -45.5 -31t-79.5 -10q-73 0 -100 43q-33 -43 -107 -43
q29 -20 29 -59q0 -70 -78.5 -117t-210.5 -47q-110 0 -166.5 41t-56.5 115zM68 1098q0 80 51.5 124t150.5 44h136v-172q0 -26 12.5 -36.5t46.5 -10.5q35 0 48 15t13 54v256h105v-262q0 -63 63 -63q36 0 50 16.5t14 58.5v346h104v-366q0 -88 -39.5 -123t-128.5 -35
q-78 0 -108 43q-35 -43 -125 -43q-91 0 -125 37q-52 -25 -113 -25q-71 0 -113 37.5t-42 104.5zM2030 -184q-70 0 -113 42t-43 117q0 72 46 118t124 46q80 0 119 -48t39 -126v-119q0 -103 -59 -150.5t-185 -47.5q-7 0 -21.5 1t-21.5 1l-4 96q7 0 21 -1t20 -1q145 0 145 82
q-25 -10 -67 -10zM954 1468h107v-485h-107v485zM1862 1047l245 -3q9 40 9 52q0 43 -22 67.5t-60 24.5q-92 0 -172 -141zM451 6q-35 0 -55.5 -23t-20.5 -61q0 -12 2 -18q4 -36 26 -64h31q41 0 65.5 23t24.5 63q0 36 -19 58t-54 22zM2042 51q-32 0 -51 -21.5t-19 -58.5
q0 -34 19.5 -53.5t54.5 -19.5q32 0 59 10v61q0 82 -63 82zM168 1112q0 -63 76 -63q34 0 59 14v121h-47q-88 0 -88 -72zM268 612q-86 0 -86 -71q0 -31 19.5 -47.5t54.5 -16.5q21 0 61 15v120h-49zM479 1454q0 22 8 41l37 -8q-6 -15 -6 -23q0 -20 19 -20q18 0 18 20v19l35 4
q2 -16 2 -33q12 -6 16 -6q19 0 19 22q0 17 -6 29l41 12q12 -27 12 -51q0 -27 -16 -42t-40 -15q-20 0 -38 14q-18 -18 -50 -18q-51 0 -51 55zM481 268q0 22 15 38t39 16q23 0 37 -16t14 -38q0 -23 -14 -38t-37 -15t-38.5 15t-15.5 38zM618 268q0 22 15.5 38t38.5 16
q21 0 35 -16t14 -38q0 -23 -13.5 -38t-35.5 -15q-23 0 -38.5 15t-15.5 38z" />
    <glyph glyph-name="uniFE82" unicode="&#x622;" horiz-adv-x="577" arabic-form="final" 
d="M362 1667q-56 0 -163 26.5t-138 26.5q-43 0 -92 -34l-55 65q77 72 154 72q38 0 142 -28t144 -28q32 0 53 9.5t60 40.5l61 -60q-58 -90 -166 -90zM578 0q-220 0 -322 88t-102 270v1190h159v-1179q0 -217 265 -217q40 0 40 -76t-40 -76z" />
    <glyph glyph-name="uniFE84" unicode="&#x623;" horiz-adv-x="577" arabic-form="final" 
d="M154 1548h159v-1179q0 -217 265 -217q40 0 40 -76t-40 -76q-220 0 -322 88t-102 270v1190zM406 1657h-332v80h71q-28 51 -28 100q0 70 48 112t124 42q35 0 98 -13l-14 -77q-36 8 -68 8q-46 0 -75 -21.5t-29 -62.5q0 -40 28 -88h177v-80z" />
    <glyph glyph-name="uniFE86" unicode="&#x624;" horiz-adv-x="1116" arabic-form="final" 
d="M113 410q0 186 114.5 316t300.5 130q175 0 281 -104t106 -287v-313h201q41 0 41 -76t-41 -76h-207q-12 -78 -48 -140t-101 -112t-169.5 -77t-242.5 -27q-41 0 -96 4l-8 145q66 -4 94 -4q375 0 412 211h-144q-252 0 -372.5 110t-120.5 300zM522 700q-105 0 -175.5 -73
t-70.5 -197q0 -140 83 -209t268 -69h129v254q0 140 -60.5 217t-173.5 77zM301 1114v103h92q-35 62 -35 129q0 89 60 141.5t157 52.5q59 0 127 -14l-18 -101q-63 11 -86 11q-55 0 -94 -26t-39 -83q0 -52 37 -110h225v-103h-426z" />
    <glyph glyph-name="uniFE88" unicode="&#x625;" horiz-adv-x="577" arabic-form="final" 
d="M154 358v1190h159v-1179q0 -217 265 -217q40 0 40 -76t-40 -76q-220 0 -322 88t-102 270zM119 -430h71q-28 51 -28 100q0 70 48 112t124 42q40 0 98 -12l-14 -78q-36 8 -68 8q-46 0 -75 -21.5t-29 -62.5q0 -40 28 -88h177v-80h-332v80z" />
    <glyph glyph-name="uniFE8A" unicode="&#x626;" horiz-adv-x="1570" arabic-form="final" 
d="M772 -532q-355 0 -522.5 124.5t-167.5 352.5q0 118 49 268l148 -39q-33 -126 -33 -209q0 -177 122.5 -259.5t413.5 -82.5q250 0 392.5 61t142.5 154q0 60 -60.5 115.5t-179.5 85.5l-248 63l39 134l277 -66q79 -18 198 -18h228q41 0 41 -76t-41 -76h-170q40 -32 60 -78.5
t20 -91.5q0 -151 -194 -256.5t-515 -105.5zM584 430h-426v102h92q-35 62 -35 130q0 89 60 141.5t157 52.5q59 0 127 -14l-18 -101q-63 11 -86 11q-55 0 -94 -26t-39 -83q0 -55 36 -111h226v-102z" />
    <glyph glyph-name="uniFE8B" unicode="&#x626;" horiz-adv-x="577" arabic-form="initial" 
d="M0 0v152h14q124 0 177 62.5t53 209.5v410h159v-437q0 -205 -99 -301t-294 -96h-10zM98 1092v102h92q-34 61 -34 129q0 90 60 142.5t157 52.5q54 0 127 -15l-19 -100q-57 10 -86 10q-55 0 -94 -26t-39 -82q0 -53 37 -111h225v-102h-426z" />
    <glyph glyph-name="uniFE8C" unicode="&#x626;" horiz-adv-x="669" arabic-form="medial" 
d="M10 0h-10v152h14q124 0 177 62.5t53 209.5v410h159v-449q0 -233 267 -233q41 0 41 -76t-41 -76q-242 0 -328 141q-97 -141 -332 -141zM98 1092v102h92q-34 61 -34 129q0 90 60 142.5t157 52.5q54 0 127 -15l-19 -100q-57 10 -86 10q-55 0 -94 -26t-39 -82q0 -53 37 -111
h225v-102h-426z" />
    <glyph glyph-name="uniFE8E" unicode="&#x627;" horiz-adv-x="577" arabic-form="final" 
d="M578 0q-220 0 -322 88t-102 270v1190h159v-1179q0 -217 265 -217q40 0 40 -76t-40 -76z" />
    <glyph glyph-name="uniFE90" unicode="&#x628;" horiz-adv-x="2056" arabic-form="final" 
d="M2056 152q41 0 41 -76t-41 -76q-243 0 -330 145q-106 -145 -335 -145h-844q-216 0 -340.5 104.5t-124.5 282.5q0 146 65 322l148 -39q-49 -175 -49 -254q0 -264 323 -264h803q134 0 196 62.5t62 209.5v410h160v-449q0 -233 266 -233zM905 -178q44 0 71.5 -29t27.5 -74
q0 -43 -27.5 -71.5t-71.5 -28.5q-45 0 -73.5 28.5t-28.5 71.5q0 45 28.5 74t73.5 29z" />
    <glyph glyph-name="uniFE91" unicode="&#x628;" horiz-adv-x="518" arabic-form="initial" 
d="M0 0v152q133 0 189.5 61t56.5 211v410h160v-437q0 -208 -101 -302.5t-305 -94.5zM246 -381q-45 0 -74 28.5t-29 71.5q0 45 29 74t74 29q44 0 71 -29t27 -74q0 -43 -27 -71.5t-71 -28.5z" />
    <glyph glyph-name="uniFE92" unicode="&#x628;" horiz-adv-x="671" arabic-form="medial" 
d="M672 152q41 0 41 -76t-41 -76q-242 0 -328 141q-95 -141 -344 -141v152q133 0 189.5 61t56.5 211v410h160v-449q0 -233 266 -233zM303 -178q44 0 71 -29t27 -74q0 -43 -27 -71.5t-71 -28.5q-45 0 -73.5 28.5t-28.5 71.5q0 45 28.5 74t73.5 29z" />
    <glyph glyph-name="uniFE94" unicode="&#x629;" horiz-adv-x="1136" arabic-form="final" 
d="M422 1071q-43 0 -71.5 29.5t-28.5 73.5q0 43 28.5 71.5t71.5 28.5q44 0 72 -28.5t28 -71.5q0 -45 -28 -74t-72 -29zM711 1071q-44 0 -73.5 29.5t-29.5 73.5q0 43 29.5 71.5t73.5 28.5q43 0 70.5 -28.5t27.5 -71.5q0 -44 -27.5 -73.5t-70.5 -29.5zM1137 152q41 0 41 -76
t-41 -76q-280 0 -344 106q-132 -63 -281 -63q-195 0 -312.5 96.5t-117.5 270.5q0 191 130 307.5t357 116.5h346v-476q0 -122 48 -164t174 -42zM748 250v432h-209q-131 0 -212 -65.5t-81 -188.5q0 -115 72.5 -172t207.5 -57q138 0 222 51z" />
    <glyph glyph-name="uniFE96" unicode="&#x62a;" horiz-adv-x="2056" arabic-form="final" 
d="M778 879q-43 0 -71.5 29t-28.5 73q0 43 28.5 71.5t71.5 28.5q44 0 72.5 -28.5t28.5 -71.5q0 -44 -28.5 -73t-72.5 -29zM1067 879q-44 0 -73 29t-29 73q0 43 29 71.5t73 28.5q43 0 70.5 -28.5t27.5 -71.5q0 -44 -27.5 -73t-70.5 -29zM2056 152q41 0 41 -76t-41 -76
q-243 0 -330 145q-106 -145 -335 -145h-844q-216 0 -340.5 104.5t-124.5 282.5q0 146 65 322l148 -39q-49 -175 -49 -254q0 -264 323 -264h803q134 0 196 62.5t62 209.5v410h160v-449q0 -233 266 -233z" />
    <glyph glyph-name="uniFE97" unicode="&#x62a;" horiz-adv-x="577" arabic-form="initial" 
d="M176 1071q-43 0 -71.5 29.5t-28.5 73.5q0 43 28.5 71.5t71.5 28.5q44 0 72 -28.5t28 -71.5q0 -45 -28 -74t-72 -29zM465 1071q-44 0 -73.5 29.5t-29.5 73.5q0 43 29.5 71.5t73.5 28.5q43 0 70.5 -28.5t27.5 -71.5q0 -44 -27.5 -73.5t-70.5 -29.5zM0 0v152h14
q124 0 177 62.5t53 209.5v410h159v-437q0 -205 -99 -301t-294 -96h-10z" />
    <glyph glyph-name="uniFE98" unicode="&#x62a;" horiz-adv-x="669" arabic-form="medial" 
d="M176 1071q-43 0 -71.5 29.5t-28.5 73.5q0 43 28.5 71.5t71.5 28.5q44 0 72 -28.5t28 -71.5q0 -45 -28 -74t-72 -29zM465 1071q-44 0 -73.5 29.5t-29.5 73.5q0 43 29.5 71.5t73.5 28.5q43 0 70.5 -28.5t27.5 -71.5q0 -44 -27.5 -73.5t-70.5 -29.5zM670 152q41 0 41 -76
t-41 -76q-242 0 -328 141q-97 -141 -332 -141h-10v152h14q124 0 177 62.5t53 209.5v410h159v-449q0 -233 267 -233z" />
    <glyph glyph-name="uniFE9A" unicode="&#x62b;" horiz-adv-x="2056" arabic-form="final" 
d="M928 1110q-43 0 -72 29t-29 73q0 42 29.5 71.5t71.5 29.5q43 0 71.5 -29.5t28.5 -71.5q0 -44 -28 -73t-72 -29zM778 879q-43 0 -71.5 29t-28.5 73q0 43 28.5 71.5t71.5 28.5q44 0 72.5 -28.5t28.5 -71.5q0 -44 -28.5 -73t-72.5 -29zM965 981q0 43 29 71.5t73 28.5
q43 0 70.5 -28.5t27.5 -71.5q0 -44 -27.5 -73t-70.5 -29q-44 0 -73 29t-29 73zM2056 152q41 0 41 -76t-41 -76q-243 0 -330 145q-106 -145 -335 -145h-844q-216 0 -340.5 104.5t-124.5 282.5q0 146 65 322l148 -39q-49 -175 -49 -254q0 -264 323 -264h803q134 0 196 62.5
t62 209.5v410h160v-449q0 -233 266 -233z" />
    <glyph glyph-name="uniFE9B" unicode="&#x62b;" horiz-adv-x="577" arabic-form="initial" 
d="M326 1303q-43 0 -72 29t-29 73q0 41 29.5 70.5t71.5 29.5q44 0 72 -29t28 -71q0 -44 -28 -73t-72 -29zM176 1071q-43 0 -71.5 29.5t-28.5 73.5q0 43 28.5 71.5t71.5 28.5q44 0 72 -28.5t28 -71.5q0 -45 -28 -74t-72 -29zM465 1071q-44 0 -73.5 29.5t-29.5 73.5
q0 43 29.5 71.5t73.5 28.5q43 0 70.5 -28.5t27.5 -71.5q0 -44 -27.5 -73.5t-70.5 -29.5zM0 0v152h14q124 0 177 62.5t53 209.5v410h159v-437q0 -205 -99 -301t-294 -96h-10z" />
    <glyph glyph-name="uniFE9C" unicode="&#x62b;" horiz-adv-x="669" arabic-form="medial" 
d="M326 1303q-43 0 -72 29t-29 73q0 41 29.5 70.5t71.5 29.5q44 0 72 -29t28 -71q0 -44 -28 -73t-72 -29zM176 1071q-43 0 -71.5 29.5t-28.5 73.5q0 43 28.5 71.5t71.5 28.5q44 0 72 -28.5t28 -71.5q0 -45 -28 -74t-72 -29zM362 1174q0 43 29.5 71.5t73.5 28.5
q43 0 70.5 -28.5t27.5 -71.5q0 -44 -27.5 -73.5t-70.5 -29.5q-44 0 -73.5 29.5t-29.5 73.5zM670 152q41 0 41 -76t-41 -76q-242 0 -328 141q-97 -141 -332 -141h-10v152h14q124 0 177 62.5t53 209.5v410h159v-449q0 -233 267 -233z" />
    <glyph glyph-name="uniFE9E" unicode="&#x62c;" horiz-adv-x="1386" arabic-form="final" 
d="M485 -532q-179 0 -291 92t-112 254q0 154 97.5 246t262.5 92h537q16 62 16 139q0 187 -101 298t-300 111q-101 0 -219 -36l-37 143q132 49 280 49q134 0 237 -40.5t167 -114.5t96.5 -174t32.5 -224q0 -63 -10 -151h245q41 0 41 -76t-41 -76h-925q-104 0 -159.5 -47.5
t-55.5 -136.5q0 -96 67 -144.5t193 -48.5q49 0 104 10l31 -149q-72 -16 -156 -16zM526 -166q0 40 25.5 66t66.5 26q39 0 64 -26t25 -66t-24.5 -65t-64.5 -25q-41 0 -66.5 25t-25.5 65z" />
    <glyph glyph-name="uniFE9F" unicode="&#x62c;" horiz-adv-x="1007" arabic-form="initial" 
d="M0 0v152h713q13 59 15 124.5t-16.5 143t-59.5 138t-125 101.5t-201 41q-102 0 -220 -36l-36 143q132 49 282 49q139 0 244 -42t169 -118.5t94.5 -183t25.5 -235.5t-43 -277h-842zM406 -381q-45 0 -74 28.5t-29 71.5q0 45 29 74t74 29q44 0 71 -29t27 -74q0 -43 -27 -71.5
t-71 -28.5z" />
    <glyph glyph-name="uniFEA0" unicode="&#x62c;" horiz-adv-x="1118" arabic-form="medial" 
d="M0 152h713q13 59 15 124.5t-16.5 143t-59.5 138t-125 101.5t-201 41q-102 0 -220 -36l-36 143q132 49 282 49q124 0 222 -33.5t161 -95.5t101.5 -149t45 -194.5t-9.5 -231.5h246q41 0 41 -76t-41 -76h-1118v152zM406 -381q-45 0 -74 28.5t-29 71.5q0 45 29 74t74 29
q44 0 71 -29t27 -74q0 -43 -27 -71.5t-71 -28.5z" />
    <glyph glyph-name="uniFEA2" unicode="&#x62d;" horiz-adv-x="1386" arabic-form="final" 
d="M485 -532q-179 0 -291 92t-112 254q0 154 97.5 246t262.5 92h537q16 62 16 139q0 187 -101 298t-300 111q-101 0 -219 -36l-37 143q132 49 280 49q134 0 237 -40.5t167 -114.5t96.5 -174t32.5 -224q0 -63 -10 -151h245q41 0 41 -76t-41 -76h-925q-104 0 -159.5 -47.5
t-55.5 -136.5q0 -96 67 -144.5t193 -48.5q72 0 178 27l29 -146q-113 -36 -228 -36z" />
    <glyph glyph-name="uniFEA3" unicode="&#x62d;" horiz-adv-x="1007" arabic-form="initial" 
d="M0 0v152h713q13 59 15 124.5t-16.5 143t-59.5 138t-125 101.5t-201 41q-102 0 -220 -36l-36 143q132 49 282 49q139 0 244 -42t169 -118.5t94.5 -183t25.5 -235.5t-43 -277h-842z" />
    <glyph glyph-name="uniFEA4" unicode="&#x62d;" horiz-adv-x="1118" arabic-form="medial" 
d="M0 0v152h713q13 59 15 124.5t-16.5 143t-59.5 138t-125 101.5t-201 41q-102 0 -220 -36l-36 143q132 49 282 49q124 0 222 -33.5t161 -95.5t101.5 -149t45 -194.5t-9.5 -231.5h246q41 0 41 -76t-41 -76h-1118z" />
    <glyph glyph-name="uniFEA6" unicode="&#x62e;" horiz-adv-x="1386" arabic-form="final" 
d="M82 -186q0 154 97.5 246t262.5 92h537q16 62 16 139q0 187 -101 298t-300 111q-101 0 -219 -36l-37 143q132 49 280 49q134 0 237 -40.5t167 -114.5t96.5 -174t32.5 -224q0 -63 -10 -151h245q41 0 41 -76t-41 -76h-925q-104 0 -159.5 -47.5t-55.5 -136.5q0 -96 67 -144.5
t193 -48.5q72 0 178 27l29 -146q-113 -36 -228 -36q-179 0 -291 92t-112 254zM618 1094q-45 0 -73.5 28.5t-28.5 73.5q0 43 28.5 71.5t73.5 28.5q44 0 71.5 -28.5t27.5 -71.5q0 -45 -27.5 -73.5t-71.5 -28.5z" />
    <glyph glyph-name="uniFEA7" unicode="&#x62e;" horiz-adv-x="1007" arabic-form="initial" 
d="M352 1094q-45 0 -73.5 28.5t-28.5 73.5q0 43 28.5 71.5t73.5 28.5q44 0 71.5 -28.5t27.5 -71.5q0 -45 -27.5 -73.5t-71.5 -28.5zM0 0v152h713q13 59 15 124.5t-16.5 143t-59.5 138t-125 101.5t-201 41q-102 0 -220 -36l-36 143q132 49 282 49q139 0 244 -42t169 -118.5
t94.5 -183t25.5 -235.5t-43 -277h-842z" />
    <glyph glyph-name="uniFEA8" unicode="&#x62e;" horiz-adv-x="1118" arabic-form="medial" 
d="M0 0v152h713q13 59 15 124.5t-16.5 143t-59.5 138t-125 101.5t-201 41q-102 0 -220 -36l-36 143q132 49 282 49q124 0 222 -33.5t161 -95.5t101.5 -149t45 -194.5t-9.5 -231.5h246q41 0 41 -76t-41 -76h-1118zM352 1094q-45 0 -73.5 28.5t-28.5 73.5q0 43 28.5 71.5
t73.5 28.5q44 0 71.5 -28.5t27.5 -71.5q0 -45 -27.5 -73.5t-71.5 -28.5z" />
    <glyph glyph-name="uniFEAA" unicode="&#x62f;" arabic-form="final" 
d="M82 152h682v36q0 161 -107 308t-299 270l97 129q135 -88 227 -177t144 -182t74 -184t24 -200h215q41 0 41 -76t-41 -76h-1057v152z" />
    <glyph glyph-name="uniFEAC" unicode="&#x630;" arabic-form="final" 
d="M82 0v152h682v36q0 161 -107 308t-299 270l97 129q135 -88 227 -177t144 -182t74 -184t24 -200h215q41 0 41 -76t-41 -76h-1057zM291 1174q0 43 28.5 71.5t73.5 28.5q44 0 71.5 -28.5t27.5 -71.5q0 -45 -27.5 -74t-71.5 -29q-45 0 -73.5 29t-28.5 74z" />
    <glyph glyph-name="uniFEAE" unicode="&#x631;" horiz-adv-x="720" arabic-form="final" 
d="M721 152q41 0 41 -76t-41 -76h-287v6q-63 -319 -409 -358l-33 147q105 17 168 53t96 105t33 178v703h160v-682h272z" />
    <glyph glyph-name="uniFEB0" unicode="&#x632;" horiz-adv-x="720" arabic-form="final" 
d="M369 1071q-45 0 -74 29t-29 74q0 43 29 71.5t74 28.5q44 0 71 -28.5t27 -71.5q0 -45 -27 -74t-71 -29zM721 152q41 0 41 -76t-41 -76h-287v6q-63 -319 -409 -358l-33 147q105 17 168 53t96 105t33 178v703h160v-682h272z" />
    <glyph glyph-name="uniFEB2" unicode="&#x633;" horiz-adv-x="2607" arabic-form="final" 
d="M82 141q0 162 86 365l143 -49q-65 -162 -65 -295q0 -174 102 -258t289 -84q395 0 395 379v485h160v-365q0 -167 199 -167q107 0 160 55t53 201v276h159v-362q0 -170 209 -170q114 0 161.5 62t47.5 210v410h160v-449q0 -233 266 -233q41 0 41 -76t-41 -76q-235 0 -326 137
q-95 -137 -307 -137q-97 0 -169 33t-109 92q-91 -131 -303 -131q-138 0 -209 59q-32 -188 -179.5 -288.5t-373.5 -100.5q-135 0 -241 36.5t-172.5 101t-101 150.5t-34.5 189z" />
    <glyph glyph-name="uniFEB3" unicode="&#x633;" horiz-adv-x="1679" arabic-form="initial" 
d="M0 152h33q57 0 95.5 10.5t69.5 38t45.5 79t14.5 128.5v276h160v-365q0 -167 198 -167q107 0 160 55t53 201v276h160v-362q0 -170 209 -170q114 0 161.5 62t47.5 210v410h160v-480q0 -167 -97 -260.5t-270 -93.5q-97 0 -169 33t-109 92q-92 -125 -304 -125
q-207 0 -272 115q-40 -49 -122.5 -82t-192.5 -33h-31v152z" />
    <glyph glyph-name="uniFEB4" unicode="&#x633;" horiz-adv-x="1832" arabic-form="medial" 
d="M0 0v152h33q57 0 95.5 10.5t69.5 38t45.5 79t14.5 128.5v276h160v-365q0 -167 198 -167q107 0 160 55t53 201v276h160v-362q0 -170 209 -170q114 0 161.5 62t47.5 210v410h160v-449q0 -233 266 -233q41 0 41 -76t-41 -76q-235 0 -326 137q-95 -137 -307 -137
q-97 0 -169 33t-109 92q-92 -125 -304 -125q-207 0 -272 115q-40 -49 -122.5 -82t-192.5 -33h-31z" />
    <glyph glyph-name="uniFEB6" unicode="&#x634;" horiz-adv-x="2607" arabic-form="final" 
d="M82 141q0 162 86 365l143 -49q-65 -162 -65 -295q0 -174 102 -258t289 -84q395 0 395 379v485h160v-365q0 -167 199 -167q107 0 160 55t53 201v276h159v-362q0 -170 209 -170q114 0 161.5 62t47.5 210v410h160v-449q0 -233 266 -233q41 0 41 -76t-41 -76q-235 0 -326 137
q-95 -137 -307 -137q-97 0 -169 33t-109 92q-91 -131 -303 -131q-138 0 -209 59q-32 -188 -179.5 -288.5t-373.5 -100.5q-135 0 -241 36.5t-172.5 101t-101 150.5t-34.5 189zM1436 1024q0 43 28.5 71.5t71.5 28.5q44 0 72 -28.5t28 -71.5q0 -44 -28 -73t-72 -29
q-43 0 -71.5 29t-28.5 73zM1825 922q-44 0 -73.5 29t-29.5 73q0 43 29.5 71.5t73.5 28.5q43 0 70.5 -28.5t27.5 -71.5q0 -44 -27.5 -73t-70.5 -29zM1585 1255q0 42 29.5 71.5t71.5 29.5q43 0 71.5 -29.5t28.5 -71.5q0 -44 -28 -73t-72 -29q-43 0 -72 29t-29 73z" />
    <glyph glyph-name="uniFEB7" unicode="&#x634;" horiz-adv-x="1679" arabic-form="initial" 
d="M0 0v152h33q57 0 95.5 10.5t69.5 38t45.5 79t14.5 128.5v276h160v-365q0 -167 198 -167q107 0 160 55t53 201v276h160v-362q0 -170 209 -170q114 0 161.5 62t47.5 210v410h160v-480q0 -167 -97 -260.5t-270 -93.5q-97 0 -169 33t-109 92q-92 -125 -304 -125
q-207 0 -272 115q-40 -49 -122.5 -82t-192.5 -33h-31zM662 1024q0 43 28.5 71.5t71.5 28.5q44 0 72 -28.5t28 -71.5q0 -44 -28 -73t-72 -29q-43 0 -71.5 29t-28.5 73zM948 1024q0 43 29.5 71.5t73.5 28.5q43 0 70.5 -28.5t27.5 -71.5q0 -44 -27.5 -73t-70.5 -29
q-44 0 -73.5 29t-29.5 73zM911 1153q-43 0 -71.5 29t-28.5 73q0 42 29 71.5t71 29.5q44 0 72.5 -29.5t28.5 -71.5q0 -44 -28.5 -73t-72.5 -29z" />
    <glyph glyph-name="uniFEB8" unicode="&#x634;" horiz-adv-x="1832" arabic-form="medial" 
d="M0 0v152h33q57 0 95.5 10.5t69.5 38t45.5 79t14.5 128.5v276h160v-365q0 -167 198 -167q107 0 160 55t53 201v276h160v-362q0 -170 209 -170q114 0 161.5 62t47.5 210v410h160v-449q0 -233 266 -233q41 0 41 -76t-41 -76q-235 0 -326 137q-95 -137 -307 -137
q-97 0 -169 33t-109 92q-92 -125 -304 -125q-207 0 -272 115q-40 -49 -122.5 -82t-192.5 -33h-31zM662 1024q0 43 28.5 71.5t71.5 28.5q44 0 72 -28.5t28 -71.5q0 -44 -28 -73t-72 -29q-43 0 -71.5 29t-28.5 73zM1051 922q-44 0 -73.5 29t-29.5 73q0 43 29.5 71.5t73.5 28.5
q43 0 70.5 -28.5t27.5 -71.5q0 -44 -27.5 -73t-70.5 -29zM911 1153q-43 0 -71.5 29t-28.5 73q0 42 29 71.5t71 29.5q44 0 72.5 -29.5t28.5 -71.5q0 -44 -28.5 -73t-72.5 -29z" />
    <glyph glyph-name="uniFEBA" unicode="&#x635;" horiz-adv-x="2838" arabic-form="final" 
d="M82 141q0 162 86 365l143 -49q-65 -162 -65 -295q0 -174 102 -258t289 -84q395 0 395 379v485h160v-391q0 -101 111 -131q386 694 851 694q222 0 338.5 -140.5t116.5 -371.5q0 -90 -18 -192h248q40 0 40 -76t-40 -76h-1442q-135 0 -213 51q-33 -187 -180 -287t-373 -100
q-135 0 -241 36.5t-172.5 101t-101 150.5t-34.5 189zM2138 700q-341 0 -665 -548h950q24 94 24 184q0 162 -79.5 263t-229.5 101z" />
    <glyph glyph-name="uniFEBB" unicode="&#x635;" horiz-adv-x="1906" arabic-form="initial" 
d="M1329 856q222 0 338.5 -140.5t116.5 -371.5q0 -164 -58 -344h-1155q-203 0 -272 113q-70 -113 -299 -113v152q113 0 160 57.5t47 198.5v276h160v-365q0 -122 112 -155q385 692 850 692zM1597 152q25 98 25 184q0 162 -79.5 263t-229.5 101q-342 0 -666 -548h950z" />
    <glyph glyph-name="uniFEBC" unicode="&#x635;" horiz-adv-x="2013" arabic-form="medial" 
d="M0 0v152q113 0 160 57.5t47 198.5v276h160v-365q0 -122 112 -155q385 692 850 692q222 0 338.5 -140.5t116.5 -371.5q0 -84 -19 -192h248q41 0 41 -76t-41 -76h-1442q-203 0 -272 113q-70 -113 -299 -113zM647 152h950q25 98 25 184q0 162 -79.5 263t-229.5 101
q-342 0 -666 -548z" />
    <glyph glyph-name="uniFEBE" unicode="&#x636;" horiz-adv-x="2838" arabic-form="final" 
d="M82 141q0 162 86 365l143 -49q-65 -162 -65 -295q0 -174 102 -258t289 -84q395 0 395 379v485h160v-391q0 -101 111 -131q386 694 851 694q222 0 338.5 -140.5t116.5 -371.5q0 -90 -18 -192h248q40 0 40 -76t-40 -76h-1442q-135 0 -213 51q-33 -187 -180 -287t-373 -100
q-135 0 -241 36.5t-172.5 101t-101 150.5t-34.5 189zM2138 700q-341 0 -665 -548h950q24 94 24 184q0 162 -79.5 263t-229.5 101zM1872 1196q0 43 28.5 71.5t73.5 28.5q44 0 71.5 -28.5t27.5 -71.5q0 -45 -27.5 -73.5t-71.5 -28.5q-45 0 -73.5 28.5t-28.5 73.5z" />
    <glyph glyph-name="uniFEBF" unicode="&#x636;" horiz-adv-x="1906" arabic-form="initial" 
d="M1149 1094q-45 0 -73.5 28.5t-28.5 73.5q0 43 28.5 71.5t73.5 28.5q44 0 71 -28.5t27 -71.5q0 -45 -27 -73.5t-71 -28.5zM1329 856q222 0 338.5 -140.5t116.5 -371.5q0 -164 -58 -344h-1155q-203 0 -272 113q-70 -113 -299 -113v152q113 0 160 57.5t47 198.5v276h160
v-365q0 -122 112 -155q385 692 850 692zM1597 152q25 98 25 184q0 162 -79.5 263t-229.5 101q-342 0 -666 -548h950z" />
    <glyph glyph-name="uniFEC0" unicode="&#x636;" horiz-adv-x="2013" arabic-form="medial" 
d="M0 0v152q113 0 160 57.5t47 198.5v276h160v-365q0 -122 112 -155q385 692 850 692q222 0 338.5 -140.5t116.5 -371.5q0 -84 -19 -192h248q41 0 41 -76t-41 -76h-1442q-203 0 -272 113q-70 -113 -299 -113zM647 152h950q25 98 25 184q0 162 -79.5 263t-229.5 101
q-342 0 -666 -548zM1149 1094q-45 0 -73.5 28.5t-28.5 73.5q0 43 28.5 71.5t73.5 28.5q44 0 71 -28.5t27 -71.5q0 -45 -27 -73.5t-71 -28.5z" />
    <glyph glyph-name="uniFEC2" unicode="&#x637;" horiz-adv-x="1843" arabic-form="final" 
d="M82 152h213v1396h160v-1145q160 224 342 338.5t364 114.5q112 0 200.5 -41.5t142.5 -113t82 -163t28 -196.5q0 -82 -19 -190h248q41 0 41 -76t-41 -76h-1761v152zM461 152h966q25 98 25 188q0 159 -78 259.5t-227 100.5q-168 0 -354 -143.5t-332 -404.5z" />
    <glyph glyph-name="uniFEC3" unicode="&#x637;" horiz-adv-x="1646" arabic-form="initial" 
d="M0 0v152h205v1396h160v-1145q160 224 342 338.5t364 114.5q112 0 200.5 -41.5t142.5 -113t82 -163t28 -196.5q0 -159 -58 -342h-1466zM371 152h966q25 98 25 188q0 159 -78 259.5t-227 100.5q-168 0 -354 -143.5t-332 -404.5z" />
    <glyph glyph-name="uniFEC4" unicode="&#x637;" horiz-adv-x="1740" arabic-form="medial" 
d="M0 152h205v1396h160v-1145q160 224 342 338.5t364 114.5q112 0 200.5 -41.5t142.5 -113t82 -163t28 -196.5q0 -82 -19 -190h236q41 0 41 -76t-41 -76h-1741v152zM371 152h966q25 98 25 188q0 159 -78 259.5t-227 100.5q-168 0 -354 -143.5t-332 -404.5z" />
    <glyph glyph-name="uniFEC6" unicode="&#x638;" horiz-adv-x="1843" arabic-form="final" 
d="M82 152h213v1396h160v-1145q160 224 342 338.5t364 114.5q112 0 200.5 -41.5t142.5 -113t82 -163t28 -196.5q0 -82 -19 -190h248q41 0 41 -76t-41 -76h-1761v152zM461 152h966q25 98 25 188q0 159 -78 259.5t-227 100.5q-168 0 -354 -143.5t-332 -404.5zM1018 1094
q-46 0 -74.5 29t-28.5 73q0 43 29 71.5t74 28.5q44 0 71 -28.5t27 -71.5q0 -45 -27 -73.5t-71 -28.5z" />
    <glyph glyph-name="uniFEC7" unicode="&#x638;" horiz-adv-x="1646" arabic-form="initial" 
d="M0 0v152h205v1396h160v-1145q160 224 342 338.5t364 114.5q112 0 200.5 -41.5t142.5 -113t82 -163t28 -196.5q0 -159 -58 -342h-1466zM371 152h966q25 98 25 188q0 159 -78 259.5t-227 100.5q-168 0 -354 -143.5t-332 -404.5zM825 1196q0 43 29 71.5t74 28.5
q44 0 71 -28.5t27 -71.5q0 -45 -27 -73.5t-71 -28.5q-46 0 -74.5 29t-28.5 73z" />
    <glyph glyph-name="uniFEC8" unicode="&#x638;" horiz-adv-x="1740" arabic-form="medial" 
d="M0 152h205v1396h160v-1145q160 224 342 338.5t364 114.5q112 0 200.5 -41.5t142.5 -113t82 -163t28 -196.5q0 -82 -19 -190h236q41 0 41 -76t-41 -76h-1741v152zM371 152h966q25 98 25 188q0 159 -78 259.5t-227 100.5q-168 0 -354 -143.5t-332 -404.5zM928 1094
q-46 0 -74.5 29t-28.5 73q0 43 29 71.5t74 28.5q44 0 71 -28.5t27 -71.5q0 -45 -27 -73.5t-71 -28.5z" />
    <glyph glyph-name="uniFECA" unicode="&#x639;" horiz-adv-x="1191" arabic-form="final" 
d="M1192 152q41 0 41 -76t-41 -76h-178q-113 0 -235 23t-216 65q-166 -55 -241.5 -129.5t-75.5 -153.5q0 -182 260 -182q88 0 178 23l29 -146q-100 -32 -209 -32q-198 0 -310 83.5t-112 249.5q0 129 89.5 232t274.5 170q-39 55 -87 111t-111.5 125.5t-97.5 109.5
q12 116 34 172q214 135 439 135q181 0 291 -80.5t110 -220.5q0 -110 -69 -206t-185 -171q124 -26 231 -26h191zM285 616q127 -104 321 -356q116 54 185 125.5t69 144.5q0 72 -67.5 121t-190.5 49q-165 0 -315 -73z" />
    <glyph glyph-name="uniFECB" unicode="&#x639;" horiz-adv-x="985" arabic-form="initial" 
d="M0 152h268q-96 150 -96 299q0 181 124 293t351 112q103 0 221 -31l-30 -149q-94 24 -189 24q-147 0 -230 -67t-83 -184q0 -140 121 -297h458v-152h-915v152z" />
    <glyph glyph-name="uniFECC" unicode="&#x639;" horiz-adv-x="1202" arabic-form="medial" 
d="M82 0h-82v152h98q217 0 351 38q-40 56 -89 113.5t-115 129.5t-100 112q12 113 35 172q214 135 441 135q182 0 290.5 -81t108.5 -224q0 -210 -246 -369q136 -26 281 -26h147q41 0 41 -76t-41 -76h-135q-115 0 -251 20t-236 56q-105 -42 -220 -59t-278 -17zM281 614l-2 -10
q143 -117 327 -352q117 58 183.5 128.5t66.5 141.5q0 73 -69.5 123.5t-198.5 50.5q-152 0 -307 -82z" />
    <glyph glyph-name="uniFECE" unicode="&#x63a;" horiz-adv-x="1191" arabic-form="final" 
d="M618 1094q-45 0 -73.5 28.5t-28.5 73.5q0 43 28.5 71.5t73.5 28.5q44 0 71.5 -28.5t27.5 -71.5q0 -45 -27.5 -73.5t-71.5 -28.5zM1192 152q41 0 41 -76t-41 -76h-178q-113 0 -235 23t-216 65q-166 -55 -241.5 -129.5t-75.5 -153.5q0 -182 260 -182q88 0 178 23l29 -146
q-100 -32 -209 -32q-198 0 -310 83.5t-112 249.5q0 129 89.5 232t274.5 170q-39 55 -87 111t-111.5 125.5t-97.5 109.5q12 116 34 172q214 135 439 135q181 0 291 -80.5t110 -220.5q0 -110 -69 -206t-185 -171q124 -26 231 -26h191zM285 616q127 -104 321 -356
q116 54 185 125.5t69 144.5q0 72 -67.5 121t-190.5 49q-165 0 -315 -73z" />
    <glyph glyph-name="uniFECF" unicode="&#x63a;" horiz-adv-x="985" arabic-form="initial" 
d="M0 0v152h268q-96 150 -96 299q0 181 124 293t351 112q103 0 221 -31l-30 -149q-94 24 -189 24q-147 0 -230 -67t-83 -184q0 -140 121 -297h458v-152h-915zM545 1196q0 43 28.5 71.5t73.5 28.5q44 0 71 -28.5t27 -71.5q0 -45 -27 -73.5t-71 -28.5q-45 0 -73.5 28.5
t-28.5 73.5z" />
    <glyph glyph-name="uniFED0" unicode="&#x63a;" horiz-adv-x="1202" arabic-form="medial" 
d="M0 152h98q217 0 351 38q-40 56 -89 113.5t-115 129.5t-100 112q12 113 35 172q214 135 441 135q182 0 290.5 -81t108.5 -224q0 -210 -246 -369q136 -26 281 -26h147q41 0 41 -76t-41 -76h-135q-115 0 -251 20t-236 56q-105 -42 -220 -59t-278 -17h-82v152zM279 604
q143 -117 327 -352q117 58 183.5 128.5t66.5 141.5q0 73 -69.5 123.5t-198.5 50.5q-152 0 -307 -82zM604 1090q-45 0 -73.5 28.5t-28.5 73.5q0 43 28.5 71.5t73.5 28.5q44 0 71 -28.5t27 -71.5q0 -45 -27 -73.5t-71 -28.5z" />
    <glyph glyph-name="uniFED2" unicode="&#x641;" horiz-adv-x="2205" arabic-form="final" 
d="M82 387q0 146 65 322l148 -39q-49 -175 -49 -254q0 -264 323 -264h686q74 0 109 6q-77 56 -124.5 139.5t-47.5 185.5q0 163 117 268t307 105t302 -105t112 -268q0 -103 -46.5 -186.5t-130.5 -140.5q70 -4 109 -4h244q41 0 41 -76t-41 -76h-230q-200 0 -366 39
q-170 -39 -365 -39h-698q-216 0 -340.5 104.5t-124.5 282.5zM1356 483q0 -105 75 -183t179 -105q94 19 175 100.5t81 189.5q0 98 -70.5 156.5t-183.5 58.5q-115 0 -185.5 -59t-70.5 -158zM1513 1196q0 43 29 71.5t74 28.5q44 0 71 -28.5t27 -71.5q0 -45 -27 -73.5t-71 -28.5
q-46 0 -74.5 29t-28.5 73z" />
    <glyph glyph-name="uniFED3" unicode="&#x641;" arabic-form="initial" 
d="M0 0v152h258q-86 110 -86 270q0 189 121.5 311.5t322.5 122.5q105 0 184 -36.5t125 -100t68.5 -141t22.5 -168.5q0 -189 -88 -410h-928zM602 700q-127 0 -196.5 -78t-69.5 -204q0 -142 102 -266h377q37 140 37 247q0 138 -62 219.5t-188 81.5zM514 1196q0 43 28.5 71.5
t73.5 28.5q44 0 71.5 -28.5t27.5 -71.5q0 -45 -27.5 -73.5t-71.5 -28.5q-45 0 -73.5 28.5t-28.5 73.5z" />
    <glyph glyph-name="uniFED4" unicode="&#x641;" horiz-adv-x="1185" arabic-form="medial" 
d="M0 152h236q73 0 108 6q-77 56 -124.5 139.5t-47.5 185.5q0 163 117 268t307 105t302 -105t112 -268q0 -103 -46 -186.5t-130 -140.5q70 -4 108 -4h244q41 0 41 -76t-41 -76h-230q-200 0 -366 39q-170 -39 -365 -39h-225v152zM336 483q0 -105 75 -183t179 -105
q94 19 175 100.5t81 189.5q0 98 -70.5 156.5t-183.5 58.5q-115 0 -185.5 -59t-70.5 -158zM494 1196q0 43 28.5 71.5t73.5 28.5q44 0 71 -28.5t27 -71.5q0 -45 -27 -73.5t-71 -28.5q-45 0 -73.5 28.5t-28.5 73.5z" />
    <glyph glyph-name="uniFED6" unicode="&#x642;" horiz-adv-x="1699" arabic-form="final" 
d="M82 139q0 131 49 271l148 -39q-33 -103 -33 -209q0 -178 128.5 -260t424.5 -82q245 0 366.5 42.5t143.5 137.5h-156q-481 0 -481 418q0 83 26.5 159.5t76.5 139.5t132.5 101t184.5 38q174 0 278.5 -107.5t104.5 -304.5v-292h225q41 0 41 -76t-41 -76h-236
q-33 -188 -192 -262t-475 -74q-361 0 -538 118t-177 357zM836 420q0 -140 83 -204t255 -64h141v254q0 142 -59.5 218t-178.5 76q-110 0 -175.5 -73t-65.5 -207zM1233 1094q-44 0 -73.5 29t-29.5 73q0 43 29.5 71.5t73.5 28.5q43 0 70.5 -28.5t27.5 -71.5q0 -44 -27.5 -73
t-70.5 -29zM944 1094q-43 0 -71.5 29t-28.5 73q0 43 28.5 71.5t71.5 28.5q44 0 72 -28.5t28 -71.5q0 -44 -28 -73t-72 -29z" />
    <glyph glyph-name="uniFED7" unicode="&#x642;" arabic-form="initial" 
d="M0 0v152h258q-86 110 -86 270q0 189 121.5 311.5t322.5 122.5q105 0 184 -36.5t125 -100t68.5 -141t22.5 -168.5q0 -189 -88 -410h-928zM336 418q0 -142 102 -266h377q37 140 37 247q0 138 -62 219.5t-188 81.5q-127 0 -196.5 -78t-69.5 -204zM655 1196q0 43 29.5 71.5
t73.5 28.5q43 0 70.5 -28.5t27.5 -71.5q0 -44 -27.5 -73t-70.5 -29q-44 0 -73.5 29t-29.5 73zM369 1196q0 43 28.5 71.5t71.5 28.5q44 0 72 -28.5t28 -71.5q0 -44 -28 -73t-72 -29q-43 0 -71.5 29t-28.5 73z" />
    <glyph glyph-name="uniFED8" unicode="&#x642;" horiz-adv-x="1185" arabic-form="medial" 
d="M225 0h-225v152h236q73 0 108 6q-77 56 -124.5 139.5t-47.5 185.5q0 163 117 268t307 105t302 -105t112 -268q0 -103 -46 -186.5t-130 -140.5q70 -4 108 -4h244q41 0 41 -76t-41 -76h-230q-200 0 -366 39q-170 -39 -365 -39zM592 700q-115 0 -185.5 -59t-70.5 -158
q0 -105 75 -183t179 -105q94 19 175 100.5t81 189.5q0 98 -70.5 156.5t-183.5 58.5zM737 1094q-44 0 -73 29t-29 73q0 43 29 71.5t73 28.5q43 0 71 -28.5t28 -71.5q0 -44 -28 -73t-71 -29zM348 1196q0 43 29 71.5t72 28.5q44 0 72 -28.5t28 -71.5q0 -44 -28 -73t-72 -29
q-43 0 -72 29t-29 73z" />
    <glyph glyph-name="uniFEDA" unicode="&#x643;" horiz-adv-x="1812" arabic-form="final" 
d="M547 0q-216 0 -340.5 104.5t-124.5 282.5q0 146 65 322l148 -39q-49 -175 -49 -254q0 -264 323 -264h584q73 0 118 13t71 47t35 82.5t9 129.5v1124h160v-1163q0 -233 266 -233q41 0 41 -76t-41 -76q-233 0 -323 133q-88 -133 -336 -133h-606zM639 748h104q-32 51 -32 114
q0 81 58 137t153 56q38 0 100 -17l-16 -96q-46 12 -82 12q-49 0 -80 -24t-31 -74q0 -60 41 -108h190v-99h-405v99z" />
    <glyph glyph-name="uniFEDB" unicode="&#x643;" horiz-adv-x="966" arabic-form="initial" 
d="M242 907q143 -47 249 -105.5t173.5 -123t108 -145t56 -162t15.5 -181.5v-190h-844v152h690v67q0 221 -137.5 354t-472.5 232v156l579 559l105 -107z" />
    <glyph glyph-name="uniFEDC" unicode="&#x643;" horiz-adv-x="1099" arabic-form="medial" 
d="M0 0v152h690v67q0 221 -137.5 354t-472.5 232v156l579 559l105 -107l-522 -506q143 -47 249 -105.5t173.5 -123t108 -145t56 -162t15.5 -181.5v-38h256q41 0 41 -76t-41 -76h-1100z" />
    <glyph glyph-name="uniFEDE" unicode="&#x644;" horiz-adv-x="1417" arabic-form="final" 
d="M1417 152q41 0 41 -76t-41 -76h-248q-47 -160 -190 -248t-354 -88q-250 0 -396.5 129.5t-146.5 347.5q0 162 86 365l141 -49q-34 -108 -48.5 -170.5t-14.5 -128.5q0 -338 389 -338q397 0 397 379v1349h160v-1396h225z" />
    <glyph glyph-name="uniFEDF" unicode="&#x644;" horiz-adv-x="546" arabic-form="initial" 
d="M0 0v152q73 0 118 13t71 47t35 82.5t9 129.5v1124h160v-1194q0 -184 -99 -269t-294 -85z" />
    <glyph glyph-name="uniFEE0" unicode="&#x644;" horiz-adv-x="659" arabic-form="medial" 
d="M659 152q41 0 41 -76t-41 -76q-233 0 -323 133q-88 -133 -336 -133v152q73 0 118 13t71 47t35 82.5t9 129.5v1124h160v-1163q0 -233 266 -233z" />
    <glyph glyph-name="uniFEE2" unicode="&#x645;" horiz-adv-x="1449" arabic-form="final" 
d="M82 -532v350q0 157 87 245.5t245 88.5h61q-35 87 -35 186q0 190 128.5 310t318.5 120q86 0 155.5 -24.5t114.5 -66t75 -98t43 -117t13 -126.5q0 -102 -28 -184h190q41 0 41 -76t-41 -76h-291q-127 -109 -364 -109h-121q-64 47 -111 109h-147q-83 0 -130.5 -46.5
t-47.5 -135.5v-350h-156zM717 43h114q143 0 220 81.5t77 223.5q0 126 -66 197t-188 71q-123 0 -198.5 -73.5t-75.5 -208.5q0 -165 117 -291z" />
    <glyph glyph-name="uniFEE3" unicode="&#x645;" horiz-adv-x="1134" arabic-form="initial" 
d="M549 0h-549v152h262q-88 120 -88 272q0 191 125.5 311.5t316.5 120.5q190 0 298 -122.5t108 -309.5q0 -69 -15 -129.5t-50 -115.5t-88.5 -94t-135 -62t-184.5 -23zM338 426q0 -144 108 -274h119q80 0 138.5 22t91.5 61t48 86.5t15 104.5q0 126 -70.5 200t-187.5 74
q-116 0 -189 -72t-73 -202z" />
    <glyph glyph-name="uniFEE4" unicode="&#x645;" horiz-adv-x="1183" arabic-form="medial" 
d="M0 152h209q-35 87 -35 186q0 190 128.5 310t318.5 120q86 0 155.5 -24.5t114.5 -66t75 -98t43 -117t13 -126.5q0 -102 -33 -184h195q41 0 41 -76t-41 -76h-303q-128 -109 -353 -109h-120q-64 47 -111 109h-297v152zM608 616q-123 0 -198.5 -73.5t-75.5 -208.5
q0 -165 117 -291h114q143 0 220 81.5t77 223.5q0 126 -66 197t-188 71z" />
    <glyph glyph-name="uniFEE6" unicode="&#x646;" horiz-adv-x="1458" arabic-form="final" 
d="M655 838q-45 0 -73.5 28.5t-28.5 73.5q0 43 28.5 71.5t73.5 28.5q44 0 71.5 -28.5t27.5 -71.5q0 -45 -27.5 -73.5t-71.5 -28.5zM1458 152q41 0 41 -76t-41 -76h-287q-47 -163 -189 -249.5t-351 -86.5q-135 0 -241 36.5t-172.5 101t-101 150.5t-34.5 189q0 162 86 365
l143 -49q-65 -162 -65 -295q0 -174 102 -258t289 -84q395 0 395 379v485h160v-532h266z" />
    <glyph glyph-name="uniFEE7" unicode="&#x646;" horiz-adv-x="518" arabic-form="initial" 
d="M326 1071q-45 0 -74 29t-29 74q0 43 29 71.5t74 28.5q44 0 71 -28.5t27 -71.5q0 -45 -27 -74t-71 -29zM0 0v152q133 0 189.5 61t56.5 211v410h160v-437q0 -208 -101 -302.5t-305 -94.5z" />
    <glyph glyph-name="uniFEE8" unicode="&#x646;" horiz-adv-x="671" arabic-form="medial" 
d="M326 1071q-45 0 -74 29t-29 74q0 43 29 71.5t74 28.5q44 0 71 -28.5t27 -71.5q0 -45 -27 -74t-71 -29zM672 152q41 0 41 -76t-41 -76q-242 0 -328 141q-95 -141 -344 -141v152q133 0 189.5 61t56.5 211v410h160v-449q0 -233 266 -233z" />
    <glyph glyph-name="uniFEE9" unicode="&#x647;" horiz-adv-x="1060" arabic-form="isolated" 
d="M514 -10q-106 0 -189.5 32.5t-136 89.5t-79.5 131t-27 160q0 88 28 168t80 144t136 102.5t188 38.5q105 0 189.5 -38.5t136.5 -103t80 -144.5t28 -167q0 -185 -117 -299t-317 -114zM520 145q125 0 194.5 64t69.5 199q0 131 -68 211.5t-202 80.5t-201 -81t-67 -209
q0 -135 73 -200t201 -65z" />
    <glyph glyph-name="uniFEEA" unicode="&#x647;" horiz-adv-x="1136" arabic-form="final" 
d="M1137 152q41 0 41 -76t-41 -76q-280 0 -344 106q-132 -63 -281 -63q-195 0 -312.5 96.5t-117.5 270.5q0 191 130 307.5t357 116.5h346v-476q0 -122 48 -164t174 -42zM748 250v432h-209q-131 0 -212 -65.5t-81 -188.5q0 -115 72.5 -172t207.5 -57q138 0 222 51z" />
    <glyph glyph-name="uniFEEB" unicode="&#x647;" horiz-adv-x="1282" arabic-form="initial" 
d="M315 442q0 -92 47.5 -157.5t122.5 -100.5q84 30 136.5 94.5t52.5 161.5t-52 159.5t-128 62.5q-77 0 -128 -63.5t-51 -156.5zM678 152h346q6 40 6 88q0 265 -268 391q55 -85 55 -191q0 -88 -38 -163.5t-101 -124.5zM145 743l27 140q187 -13 336.5 -41t277.5 -79.5
t213.5 -124t133 -177.5t47.5 -238q0 -100 -27 -223h-389q-169 0 -279 39q-110 -39 -282 -39h-203v152h203q59 0 92 4q-55 47 -89 120t-34 160q0 88 42.5 169.5t117.5 127.5q-113 8 -187 10z" />
    <glyph glyph-name="uniFEEC" unicode="&#x647;" horiz-adv-x="1038" arabic-form="medial" 
d="M0 152h168v235q0 210 96 334.5t287 124.5q92 0 163 -32.5t113 -87.5t63 -122t21 -143q0 -184 -106 -309h233q41 0 41 -76t-41 -76h-166q54 -97 54 -186q0 -139 -102 -222.5t-279 -83.5q-377 0 -377 386v106h-168v152zM535 690q-98 0 -152.5 -69.5t-54.5 -212.5v-256h155
q122 0 195.5 84t73.5 210q0 108 -57 176t-160 68zM328 -94q0 -127 55 -184.5t174 -57.5q205 0 205 164q0 89 -62 172h-372v-94z" />
    <glyph glyph-name="uniFEEE" unicode="&#x648;" horiz-adv-x="1116" arabic-form="final" 
d="M606 0q-252 0 -372.5 110t-120.5 300q0 186 114.5 316t300.5 130q175 0 281 -104t106 -287v-313h201q41 0 41 -76t-41 -76h-207q-12 -78 -48 -140t-101 -112t-169.5 -77t-242.5 -27q-41 0 -96 4l-8 145q66 -4 94 -4q375 0 412 211h-144zM276 430q0 -140 83 -209t268 -69
h129v254q0 140 -60.5 217t-173.5 77q-105 0 -175.5 -73t-70.5 -197z" />
    <glyph glyph-name="uniFEF0" unicode="&#x649;" horiz-adv-x="1570" arabic-form="final" 
d="M1571 152q41 0 41 -76t-41 -76h-170q40 -32 60 -78.5t20 -91.5q0 -151 -194 -256.5t-515 -105.5q-355 0 -522.5 124.5t-167.5 352.5q0 118 49 268l148 -39q-33 -126 -33 -209q0 -177 122.5 -259.5t413.5 -82.5q250 0 392.5 61t142.5 154q0 60 -60.5 115.5t-179.5 85.5
l-248 63l39 134l277 -66q79 -18 198 -18h228z" />
    <glyph glyph-name="uniFEF2" unicode="&#x64a;" horiz-adv-x="1570" arabic-form="final" 
d="M1571 152q41 0 41 -76t-41 -76h-170q40 -32 60 -78.5t20 -91.5q0 -151 -194 -256.5t-515 -105.5q-355 0 -522.5 124.5t-167.5 352.5q0 118 49 268l148 -39q-33 -126 -33 -209q0 -177 122.5 -259.5t413.5 -82.5q250 0 392.5 61t142.5 154q0 60 -60.5 115.5t-179.5 85.5
l-248 63l39 134l277 -66q79 -18 198 -18h228zM621 -711q44 0 72 -29t28 -73q0 -43 -28 -71.5t-72 -28.5q-43 0 -72 28.5t-29 71.5q0 44 29 73t72 29zM909 -711q43 0 71 -29t28 -73q0 -43 -28 -71.5t-71 -28.5q-44 0 -73 28.5t-29 71.5q0 44 29 73t73 29z" />
    <glyph glyph-name="uniFEF3" unicode="&#x64a;" horiz-adv-x="577" arabic-form="initial" 
d="M0 0v152h14q124 0 177 62.5t53 209.5v410h159v-437q0 -205 -99 -301t-294 -96h-10zM94 -381q-43 0 -71.5 28.5t-28.5 71.5q0 44 28.5 73.5t71.5 29.5q44 0 72.5 -29.5t28.5 -73.5q0 -43 -28.5 -71.5t-72.5 -28.5zM383 -381q-44 0 -73 28.5t-29 71.5q0 44 29 73.5t73 29.5
q43 0 70.5 -29.5t27.5 -73.5q0 -43 -27.5 -71.5t-70.5 -28.5z" />
    <glyph glyph-name="uniFEF4" unicode="&#x64a;" horiz-adv-x="669" arabic-form="medial" 
d="M670 152q41 0 41 -76t-41 -76q-242 0 -328 141q-97 -141 -332 -141h-10v152h14q124 0 177 62.5t53 209.5v410h159v-449q0 -233 267 -233zM154 -178q44 0 72 -29t28 -74q0 -43 -28 -71.5t-72 -28.5q-43 0 -72 28.5t-29 71.5q0 44 29 73.5t72 29.5zM442 -178q43 0 71 -29.5
t28 -73.5q0 -43 -28 -71.5t-71 -28.5q-44 0 -73 28.5t-29 71.5q0 44 29 73.5t73 29.5z" />
    <glyph glyph-name="uniFEF5" unicode="&#xfef5;" horiz-adv-x="1353" arabic-form="isolated" 
d="M801 0h-740v152h428v974h160v-974h133q134 0 196 62.5t62 209.5v1124h160v-1169q0 -179 -102.5 -279t-296.5 -100zM250 1372q77 72 153 72q37 0 142 -27.5t145 -27.5q32 0 53.5 9t59.5 40l61 -60q-58 -90 -166 -90q-56 0 -163 26.5t-138 26.5q-43 0 -92 -34z" />
    <glyph glyph-name="uniFEF6" unicode="&#xfef6;" horiz-adv-x="1466" arabic-form="final" 
d="M61 152h428v974h160v-974h133q134 0 196 62.5t62 209.5v1124h160v-1163q0 -233 266 -233q41 0 41 -76t-41 -76q-242 0 -329 145q-102 -145 -336 -145h-740v152zM250 1372q77 72 153 72q37 0 142 -27.5t145 -27.5q32 0 53.5 9t59.5 40l61 -60q-58 -90 -166 -90
q-56 0 -163 26.5t-138 26.5q-43 0 -92 -34z" />
    <glyph glyph-name="uniFEF7" unicode="&#xfef7;" horiz-adv-x="1353" arabic-form="isolated" 
d="M801 0h-740v152h428v974h160v-974h133q134 0 196 62.5t62 209.5v1124h160v-1169q0 -179 -102.5 -279t-296.5 -100zM410 1358h71q-28 51 -28 100q0 70 48 112t124 42q35 0 98 -13l-14 -77q-36 8 -68 8q-46 0 -75 -21.5t-29 -62.5q0 -40 28 -88h176v-80h-331v80z" />
    <glyph glyph-name="uniFEF8" unicode="&#xfef8;" horiz-adv-x="1466" arabic-form="final" 
d="M61 0v152h428v974h160v-974h133q134 0 196 62.5t62 209.5v1124h160v-1163q0 -233 266 -233q41 0 41 -76t-41 -76q-242 0 -329 145q-102 -145 -336 -145h-740zM410 1278v80h71q-28 51 -28 100q0 70 48 112t124 42q35 0 98 -13l-14 -77q-36 8 -68 8q-46 0 -75 -21.5
t-29 -62.5q0 -40 28 -88h176v-80h-331z" />
    <glyph glyph-name="uniFEF9" unicode="&#xfef9;" horiz-adv-x="1353" arabic-form="isolated" 
d="M801 0h-740v152h428v974h160v-974h133q134 0 196 62.5t62 209.5v1124h160v-1169q0 -179 -102.5 -279t-296.5 -100zM733 -510h-332v80h72q-29 53 -29 100q0 70 48 112t124 42q41 0 99 -12l-15 -78q-36 8 -67 8q-47 0 -76 -21.5t-29 -62.5q0 -38 29 -88h176v-80z" />
    <glyph glyph-name="uniFEFA" unicode="&#xfefa;" horiz-adv-x="1466" arabic-form="final" 
d="M61 0v152h428v974h160v-974h133q134 0 196 62.5t62 209.5v1124h160v-1163q0 -233 266 -233q41 0 41 -76t-41 -76q-242 0 -329 145q-102 -145 -336 -145h-740zM733 -510h-332v80h72q-29 53 -29 100q0 70 48 112t124 42q41 0 99 -12l-15 -78q-36 8 -67 8q-47 0 -76 -21.5
t-29 -62.5q0 -38 29 -88h176v-80z" />
    <glyph glyph-name="uniFEFB" unicode="&#xfefb;" horiz-adv-x="1353" arabic-form="isolated" 
d="M801 0h-740v152h428v974h160v-974h133q134 0 196 62.5t62 209.5v1124h160v-1169q0 -179 -102.5 -279t-296.5 -100z" />
    <glyph glyph-name="uniFEFC" unicode="&#xfefc;" horiz-adv-x="1466" arabic-form="final" 
d="M61 0v152h428v974h160v-974h133q134 0 196 62.5t62 209.5v1124h160v-1163q0 -233 266 -233q41 0 41 -76t-41 -76q-242 0 -329 145q-102 -145 -336 -145h-740z" />
    <glyph glyph-name=".notdef" horiz-adv-x="1048" 
d="M1049 1470v-1470h-1049v1470h1049zM946 102v1264h-844v-1264h844zM530 1247q111 0 182.5 -74t71.5 -194q0 -74 -29.5 -127t-103.5 -121q-66 -61 -79.5 -94.5t-15.5 -125.5q0 -7 -0.5 -10.5t-0.5 -10v-11.5h-94q-4 24 -4 51q0 91 28.5 150.5t96.5 124.5q52 50 75 85.5
t23 80.5q0 72 -46.5 123t-109.5 51q-70 0 -113 -49.5t-55 -145.5l-102 17q12 136 83 208t193 72zM455 377h114v-137h-114v137z" />
    <glyph glyph-name="uni0000" horiz-adv-x="0" 
 />
    <glyph glyph-name="uni0000" horiz-adv-x="0" 
 />
    <glyph glyph-name="uni000D" unicode="&#xd;" horiz-adv-x="569" 
 />
    <glyph glyph-name="space" unicode=" " horiz-adv-x="569" 
 />
    <glyph glyph-name="exclam" unicode="!" horiz-adv-x="569" 
d="M371 1450v-1044h-172v1044h172zM408 111q0 -49 -37 -86t-86 -37q-48 0 -85.5 37t-37.5 86q0 51 36 86.5t87 35.5t87 -36t36 -86z" />
    <glyph glyph-name="quotedbl" unicode="&#x22;" horiz-adv-x="1062" 
d="M608 958v492h148v-492h-148zM307 958v492h148v-492h-148z" />
    <glyph glyph-name="numbersign" unicode="#" 
d="M262 436h-201v135h222l41 312h-201v135h221l62 432h137l-62 -432h258l62 432h137l-61 -432h200v-135h-219l-43 -312h201v-135h-221l-62 -436h-137l61 436h-258l-61 -436h-137zM463 883l-43 -312h258l43 312h-258z" />
    <glyph glyph-name="dollar" unicode="$" 
d="M524 -25q-296 0 -438 191l143 125q41 -66 123 -109.5t172 -46.5v520q-206 55 -305.5 157.5t-99.5 258.5q0 159 113.5 272t291.5 132v135h99v-135q120 0 224 -44t175 -120l-137 -125q-99 129 -262 129v-510q234 -69 332 -163.5t98 -252.5q0 -169 -118 -284t-312 -130v-145
h-99v145zM623 629v-494q109 13 177 82t68 164q0 89 -58.5 149.5t-186.5 98.5zM303 1069q0 -36 7.5 -64t29.5 -59.5t68 -60t116 -54.5v484q-103 -20 -162 -86.5t-59 -159.5z" />
    <glyph glyph-name="percent" unicode="%" horiz-adv-x="1705" 
d="M1370 1450l-909 -1516l-113 66l909 1516zM436 1475q152 0 255.5 -104.5t103.5 -254.5q0 -148 -104 -253t-253 -105q-153 0 -256.5 104.5t-103.5 253.5t103.5 254t254.5 105zM225 1116q0 -86 64 -148.5t147 -62.5q85 0 148 63t63 148q0 84 -63 147.5t-150 63.5
q-80 0 -144.5 -62.5t-64.5 -148.5zM1270 692q151 0 254.5 -105t103.5 -253q0 -146 -102.5 -252.5t-255.5 -106.5q-149 0 -254 105t-105 254t104 253.5t255 104.5zM1059 334q0 -85 63 -148t148 -63q86 0 148.5 63.5t62.5 147.5q0 85 -63 148t-148 63q-83 0 -147 -61.5
t-64 -149.5z" />
    <glyph glyph-name="ampersand" unicode="&#x26;" horiz-adv-x="1478" 
d="M645 1477q162 0 262.5 -88.5t100.5 -233.5q0 -108 -76 -198.5t-232 -170.5l308 -325l194 325h195l-279 -446l332 -340h-236l-196 209q-98 -124 -200.5 -179t-233.5 -55q-199 0 -330 116.5t-131 297.5q0 131 81 238t240 182q-95 95 -134.5 173.5t-39.5 162.5
q0 150 107 241t268 91zM442 1135q0 -48 29 -99.5t123 -144.5q142 73 192 133.5t50 134.5q0 75 -52.5 122.5t-134.5 47.5q-88 0 -147.5 -55t-59.5 -139zM295 395q0 -112 83 -192t200 -80q87 0 162 44t173 157l-362 381q-144 -79 -200 -150t-56 -160z" />
    <glyph glyph-name="quotesingle" unicode="'" horiz-adv-x="569" 
d="M358 1450v-492h-147v492h147z" />
    <glyph glyph-name="parenleft" unicode="(" horiz-adv-x="569" 
d="M522 1417q-262 -361 -262 -827q0 -244 59.5 -423.5t202.5 -408.5l-110 -77q-145 200 -222 436t-77 475q0 498 299 907z" />
    <glyph glyph-name="parenright" unicode=")" horiz-adv-x="569" 
d="M158 1499q142 -198 220.5 -435.5t78.5 -473.5q0 -249 -77 -480t-222 -429l-111 81q262 361 262 830q0 240 -59.5 419.5t-202.5 409.5z" />
    <glyph glyph-name="asterisk" unicode="*" horiz-adv-x="909" 
d="M393 1450h123v-305l291 98l39 -119l-289 -98l182 -244l-100 -77l-184 251l-179 -251l-102 77l178 244l-289 98l39 119l291 -98v305z" />
    <glyph glyph-name="plus" unicode="+" horiz-adv-x="1363" 
d="M147 553v135h467v467h136v-467h467v-135h-467v-467h-136v467h-467z" />
    <glyph glyph-name="comma" unicode="," horiz-adv-x="569" 
d="M432 209l-168 -492h-158l140 492h186z" />
    <glyph glyph-name="hyphen" unicode="-" horiz-adv-x="681" 
d="M592 565v-147h-502v147h502z" />
    <glyph glyph-name="period" unicode="." horiz-adv-x="569" 
d="M408 111q0 -49 -37 -86t-86 -37q-48 0 -85.5 36.5t-37.5 86.5q0 51 36 86.5t87 35.5t87 -35.5t36 -86.5z" />
    <glyph glyph-name="slash" unicode="/" horiz-adv-x="757" 
d="M623 1536l129 -49l-617 -1575l-129 51z" />
    <glyph glyph-name="zero" unicode="0" 
d="M569 1475q239 0 365.5 -197.5t126.5 -552.5q0 -356 -126.5 -553t-365.5 -197t-365 197.5t-126 552.5t126 552.5t365 197.5zM250 725q0 -293 82 -447.5t237 -154.5q156 0 238 154t82 448t-82 448t-240 154q-152 0 -234.5 -153t-82.5 -449z" />
    <glyph glyph-name="one" unicode="1" 
d="M737 1450v-1450h-172v1229h-4l-260 -219l-102 125l389 315h149z" />
    <glyph glyph-name="two" unicode="2" 
d="M584 1475q196 0 319 -107.5t123 -286.5q0 -54 -8 -101t-28 -90.5t-40 -77.5t-58 -76.5t-67.5 -72t-81.5 -79.5l-446 -420v-4h739v-160h-934v197l557 542q67 65 109 117t59.5 94t22 68t4.5 63q0 108 -75.5 177t-188.5 69q-108 0 -181.5 -62t-93.5 -169l-186 16
q29 172 151 267.5t304 95.5z" />
    <glyph glyph-name="three" unicode="3" 
d="M541 1475q190 0 311 -103t121 -274q0 -113 -68 -205t-180 -129v-4q135 -24 216 -125.5t81 -239.5q0 -191 -132.5 -305.5t-346.5 -114.5q-178 0 -297 78.5t-170 227.5l174 57q35 -112 102 -163.5t191 -51.5q127 0 211 82t84 203q0 133 -95.5 206.5t-281.5 73.5h-43v148h55
q163 0 245.5 60.5t82.5 190.5q0 106 -69 173t-179 67q-91 0 -159.5 -41.5t-106.5 -120.5l-166 64q51 118 162 182t258 64z" />
    <glyph glyph-name="four" unicode="4" 
d="M72 332v190l575 928h211v-958h209v-160h-209v-332h-172v332h-614zM682 1249l-463 -757h467v757h-4z" />
    <glyph glyph-name="five" unicode="5" 
d="M971 1450v-160h-592l-6 -391q74 35 186 35q202 0 332.5 -133t130.5 -344q0 -212 -140.5 -347t-357.5 -135q-297 0 -428 265l172 65q40 -87 110.5 -134.5t160.5 -47.5q136 0 223.5 93.5t87.5 240.5q0 150 -97 239.5t-261 89.5q-140 0 -295 -90l14 754h760z" />
    <glyph glyph-name="six" unicode="6" 
d="M807 1450l-389 -604l4 -4q81 43 194 43q189 0 314 -127t125 -328q0 -202 -136 -328.5t-350 -126.5q-213 0 -349 125.5t-136 329.5q0 103 30.5 195.5t106.5 212.5l385 612h201zM256 430q0 -132 87 -219.5t226 -87.5t226.5 87.5t87.5 219.5q0 135 -90 221t-226 86
q-133 0 -222 -86.5t-89 -220.5z" />
    <glyph glyph-name="seven" unicode="7" 
d="M983 1450v-160l-580 -1290h-194l590 1290h-701v160h885z" />
    <glyph glyph-name="eight" unicode="8" 
d="M569 1475q180 0 297 -107.5t117 -269.5q0 -108 -65 -199t-173 -123v-4q130 -29 208.5 -132.5t78.5 -240.5q0 -187 -129 -305.5t-334 -118.5q-202 0 -332.5 118t-130.5 306q0 137 77.5 240t209.5 133v4q-108 30 -172.5 120.5t-64.5 201.5q0 165 117.5 271t295.5 106z
M328 1087q0 -104 68.5 -171.5t172.5 -67.5q105 0 173.5 67t68.5 172t-69 172.5t-175 67.5q-104 0 -171.5 -68t-67.5 -172zM279 412q0 -124 82.5 -206.5t207.5 -82.5t208 83.5t83 205.5q0 124 -84 206t-209 82q-119 0 -203.5 -81t-84.5 -207z" />
    <glyph glyph-name="nine" unicode="9" 
d="M573 1475q136 0 245 -55.5t173 -160t64 -239.5q0 -94 -28 -186.5t-120 -237.5l-375 -596h-200l389 604l-4 4q-79 -43 -197 -43q-188 0 -312 128t-124 321q0 212 136.5 336.5t352.5 124.5zM256 1020q0 -136 88.5 -221.5t224.5 -85.5t225 86t89 221q0 133 -89.5 220
t-226.5 87q-133 0 -222 -86.5t-89 -220.5z" />
    <glyph glyph-name="colon" unicode=":" horiz-adv-x="569" 
d="M408 860q0 -49 -37.5 -86t-85.5 -37q-46 0 -84.5 36.5t-38.5 86.5q0 51 36.5 87t86.5 36q52 0 87.5 -37t35.5 -86zM408 111q0 -49 -37 -86t-86 -37q-48 0 -85.5 37t-37.5 86q0 51 36 86.5t87 35.5t87 -36t36 -86z" />
    <glyph glyph-name="semicolon" unicode=";" horiz-adv-x="569" 
d="M285 983q52 0 87.5 -37t35.5 -86t-37.5 -86t-85.5 -37q-46 0 -84.5 36.5t-38.5 86.5q0 51 36.5 87t86.5 36zM432 209l-168 -492h-158l140 492h186z" />
    <glyph glyph-name="less" unicode="&#x3c;" horiz-adv-x="1363" 
d="M147 680l1070 475v-135l-904 -399l904 -400v-135l-1070 475v119z" />
    <glyph glyph-name="equal" unicode="=" horiz-adv-x="1363" 
d="M1217 713h-1070v135h1070v-135zM147 528h1070v-135h-1070v135z" />
    <glyph glyph-name="greater" unicode="&#x3e;" horiz-adv-x="1363" 
d="M1217 561l-1070 -475v135l904 400l-904 399v135l1070 -475v-119z" />
    <glyph glyph-name="question" unicode="?" horiz-adv-x="987" 
d="M492 1487q179 0 289 -100t110 -265q0 -96 -43.5 -178t-153.5 -182q-40 -37 -66.5 -67t-40 -50t-20 -44t-7.5 -36.5t-1 -40.5v-118h-172v139q0 52 6 84.5t29 68.5t49.5 65t85.5 89l25 25q60 60 92.5 115t32.5 124q0 100 -60 161.5t-158 61.5q-99 0 -165.5 -60t-83.5 -163
l-185 21q29 164 147 257t290 93zM473 233q50 0 86.5 -35.5t36.5 -86.5q0 -49 -37.5 -86t-85.5 -37q-49 0 -86 37t-37 86t36.5 85.5t86.5 36.5z" />
    <glyph glyph-name="at" unicode="@" horiz-adv-x="1638" 
d="M1548 860q0 -96 -29.5 -188.5t-78.5 -164t-111 -126.5t-129.5 -84t-130.5 -29q-57 0 -93.5 34.5t-37.5 100.5h-4q-65 -74 -124 -104.5t-132 -30.5q-128 0 -208.5 91t-80.5 229q0 147 60.5 279t171 215t243.5 83q168 0 230 -168h4l37 129h133l-168 -565q-23 -74 -23 -117
q0 -41 49 -41q70 0 137.5 68.5t108.5 172.5t41 206q0 146 -73.5 267t-201.5 190t-282 69q-174 0 -320 -90t-228.5 -239.5t-82.5 -321.5t83 -321.5t229 -239.5t319 -90q150 0 290 66.5t226 181.5h129q-96 -166 -270 -262.5t-375 -96.5q-128 0 -246 39t-211.5 109.5
t-163.5 164.5t-107.5 209.5t-37.5 239.5q0 154 60 295t162 243.5t244.5 163t299.5 60.5q192 0 351 -83t250 -227t91 -317zM715 403q83 0 158.5 73.5t117 173.5t41.5 188q0 75 -50.5 133.5t-117.5 58.5q-85 0 -162 -66.5t-121 -165.5t-44 -198q0 -84 51.5 -140.5t126.5 -56.5
z" />
    <glyph glyph-name="A" unicode="A" horiz-adv-x="1441" 
d="M207 0h-195l639 1450h162l617 -1450h-201l-148 356h-725zM424 516h592l-287 713h-4z" />
    <glyph glyph-name="B" unicode="B" horiz-adv-x="1290" 
d="M618 0h-438v1450h443q223 0 352 -92.5t129 -263.5q0 -122 -67.5 -207t-186.5 -121v-4q144 -13 236 -113.5t92 -242.5q0 -135 -71.5 -227.5t-195.5 -135.5t-293 -43zM352 160h299q146 0 244 66t98 186q0 128 -91.5 196t-252.5 68h-297v-516zM352 836h246q163 0 242.5 57
t79.5 178q0 108 -77.5 163.5t-226.5 55.5h-264v-454z" />
    <glyph glyph-name="C" unicode="C" horiz-adv-x="1441" 
d="M834 1487q164 0 298 -60t214 -167l-150 -109q-65 86 -160 131t-202 45q-155 0 -283 -83t-199 -221t-71 -298q0 -166 69 -303.5t196.5 -218t287.5 -80.5q260 0 419 203l129 -109q-191 -254 -548 -254q-210 0 -379.5 101t-264 275t-94.5 386t94.5 386t264 275t379.5 101z
" />
    <glyph glyph-name="D" unicode="D" horiz-adv-x="1517" 
d="M694 1450q119 0 228 -31t199.5 -93t157.5 -148t104.5 -202.5t37.5 -250.5q0 -137 -38.5 -254.5t-106.5 -203t-159 -146.5t-197.5 -91t-221.5 -30h-544v1450h540zM653 160q275 0 429.5 146t154.5 419q0 272 -155 418.5t-429 146.5h-327v-1130h327z" />
    <glyph glyph-name="E" unicode="E" horiz-adv-x="1214" 
d="M180 0v1450h912v-160h-740v-454h690v-160h-690v-516h776v-160h-948z" />
    <glyph glyph-name="F" unicode="F" 
d="M180 0v1450h899v-160h-727v-479h676v-160h-676v-651h-172z" />
    <glyph glyph-name="G" unicode="G" horiz-adv-x="1593" 
d="M877 1487q321 0 512 -191l-129 -135q-75 79 -179 122.5t-217 43.5q-165 0 -298.5 -78t-209 -215.5t-75.5 -308.5q0 -262 168.5 -432t431.5 -170q90 0 186.5 23t173.5 61v444h-334v160h506v-713q-249 -135 -543 -135q-223 0 -399.5 96t-275.5 270t-99 396q0 163 59 304.5
t162 242t248 158t312 57.5z" />
    <glyph glyph-name="H" unicode="H" horiz-adv-x="1478" 
d="M180 0v1450h172v-614h774v614h172v-1450h-172v676h-774v-676h-172z" />
    <glyph glyph-name="I" unicode="I" horiz-adv-x="532" 
d="M352 1450v-1450h-172v1450h172z" />
    <glyph glyph-name="J" unicode="J" horiz-adv-x="987" 
d="M807 1450v-1077q0 -87 -25.5 -160.5t-75.5 -129.5t-130 -88t-183 -32q-156 0 -257 79t-130 232l172 35q18 -89 72.5 -137.5t144.5 -48.5q240 0 240 303v1024h172z" />
    <glyph glyph-name="K" unicode="K" horiz-adv-x="1290" 
d="M180 0v1450h172v-627h25l659 627h248l-717 -662l752 -788h-252l-690 737h-25v-737h-172z" />
    <glyph glyph-name="L" unicode="L" horiz-adv-x="1024" 
d="M352 1450v-1290h664v-160h-836v1450h172z" />
    <glyph glyph-name="M" unicode="M" horiz-adv-x="1857" 
d="M180 0v1450h256l492 -1137h4l495 1137h250v-1450h-172v1217h-4l-520 -1217h-104l-521 1217h-4v-1217h-172z" />
    <glyph glyph-name="N" unicode="N" horiz-adv-x="1593" 
d="M352 0h-172v1450h217l840 -1204h4v1204h172v-1450h-217l-840 1204h-4v-1204z" />
    <glyph glyph-name="O" unicode="O" horiz-adv-x="1708" 
d="M854 1487q164 0 305.5 -58.5t240.5 -160t155.5 -242.5t56.5 -301q0 -215 -97 -389t-271 -273.5t-390 -99.5q-162 0 -303.5 58t-241 159t-156.5 242.5t-57 302.5t56.5 302.5t156 242.5t241 159t304.5 58zM281 725q0 -167 72 -304t203.5 -217.5t297.5 -80.5q163 0 294.5 79
t205 217t73.5 306t-73 305.5t-205 217t-297 79.5q-162 0 -293 -79.5t-204.5 -217.5t-73.5 -305z" />
    <glyph glyph-name="P" unicode="P" horiz-adv-x="1214" 
d="M352 0h-172v1450h441q235 0 366 -102t131 -295q0 -192 -129.5 -297t-337.5 -105h-299v-651zM352 1290v-479h299q131 0 207 64t76 176t-75.5 175.5t-207.5 63.5h-299z" />
    <glyph glyph-name="Q" unicode="Q" horiz-adv-x="1708" 
d="M842 1487q209 0 380 -98t268 -268.5t97 -377.5q0 -188 -96.5 -355t-255.5 -236v-5h448v-147h-845q-155 0 -292.5 57.5t-236 156.5t-156 237t-57.5 292q0 206 96.5 376t268 269t381.5 99zM281 743q0 -161 73.5 -294.5t202.5 -211t285 -77.5q159 0 288.5 79.5t201 212.5
t71.5 291q0 120 -42 227t-115.5 186t-179 125t-226.5 46q-157 0 -285.5 -77.5t-201 -211.5t-72.5 -295z" />
    <glyph glyph-name="R" unicode="R" horiz-adv-x="1251" 
d="M352 0h-172v1450h395q297 0 425 -99t128 -298q0 -155 -92.5 -255.5t-269.5 -129.5l412 -668h-211l-394 651h-221v-651zM352 811h205q114 0 192 17.5t119.5 51t58.5 74.5t17 97q0 123 -83 181t-257 58h-252v-479z" />
    <glyph glyph-name="S" unicode="S" 
d="M604 1487q258 0 406 -170l-142 -123q-41 66 -111.5 99.5t-152.5 33.5q-138 0 -223.5 -66.5t-85.5 -177.5q0 -102 70 -159t241 -109q242 -71 335 -169t93 -259q0 -192 -143 -308t-367 -116q-148 0 -265.5 53.5t-180.5 147.5l147 121q47 -77 129.5 -119.5t180.5 -42.5
q127 0 221 71t94 181q0 32 -5 58.5t-18 48.5t-25.5 38.5t-38 32.5t-45 27t-56 24.5t-62 22t-72.5 24t-77 25.5q-183 64 -261.5 156t-78.5 237q0 187 138.5 302.5t354.5 115.5z" />
    <glyph glyph-name="T" unicode="T" horiz-adv-x="1175" 
d="M23 1290v160h1130v-160h-479v-1290h-172v1290h-479z" />
    <glyph glyph-name="U" unicode="U" horiz-adv-x="1441" 
d="M174 549v901h172v-872q0 -219 95.5 -337t279.5 -118t279.5 117t95.5 329v881h172v-903q0 -271 -141.5 -427.5t-405.5 -156.5t-405.5 157.5t-141.5 428.5z" />
    <glyph glyph-name="V" unicode="V" horiz-adv-x="1251" 
d="M-18 1450h194l447 -1192h4l460 1192h183l-568 -1450h-165z" />
    <glyph glyph-name="W" unicode="W" horiz-adv-x="1972" 
d="M436 0l-424 1450h191l329 -1204h5l356 1204h192l355 -1204h4l336 1204h180l-426 -1450h-186l-359 1229h-4l-360 -1229h-189z" />
    <glyph glyph-name="X" unicode="X" horiz-adv-x="1290" 
d="M207 0h-213l528 764l-487 686h221l391 -567l387 567h215l-487 -686l534 -764h-227l-430 643z" />
    <glyph glyph-name="Y" unicode="Y" horiz-adv-x="1216" 
d="M-18 1450h219l407 -655l420 655h207l-541 -825v-625h-172v625z" />
    <glyph glyph-name="Z" unicode="Z" horiz-adv-x="1175" 
d="M1106 1450v-147l-838 -1143h848v-160h-1057v154l838 1136h-825v160h1034z" />
    <glyph glyph-name="bracketleft" unicode="[" horiz-adv-x="530" 
d="M57 -319v1818h338v-123h-190v-1573h190v-122h-338z" />
    <glyph glyph-name="backslash" unicode="\" horiz-adv-x="757" 
d="M135 1536l617 -1573l-129 -51l-617 1575z" />
    <glyph glyph-name="bracketright" unicode="]" horiz-adv-x="530" 
d="M473 -319h-338v122h191v1573h-191v123h338v-1818z" />
    <glyph glyph-name="asciicircum" unicode="^" horiz-adv-x="1363" 
d="M164 563l457 887h122l457 -887h-151l-367 715l-367 -715h-151z" />
    <glyph glyph-name="underscore" unicode="_" horiz-adv-x="1024" 
d="M1024 -154v-102h-1024v102h1024z" />
    <glyph glyph-name="grave" unicode="`" horiz-adv-x="491" 
d="M174 1450l213 -295h-145l-293 295h225z" />
    <glyph glyph-name="a" unicode="a" horiz-adv-x="1062" 
d="M453 -25q-158 0 -257.5 78t-99.5 207q0 170 139.5 253t452.5 83h74v27q0 105 -62 159t-176 54q-173 0 -284 -105l-101 105q72 72 172 109.5t209 37.5q205 0 303.5 -98.5t98.5 -296.5v-430q0 -66 14 -158h-154q-10 31 -10 143h-4q-111 -168 -315 -168zM586 461
q-146 0 -232 -47t-86 -138q0 -81 54.5 -123t156.5 -42q128 0 205.5 81.5t77.5 231.5v37h-176z" />
    <glyph glyph-name="b" unicode="b" horiz-adv-x="1251" 
d="M303 479q0 -156 95 -256t245 -100q152 0 246 101t94 255q0 155 -94 256t-248 101q-149 0 -243.5 -101.5t-94.5 -255.5zM143 1548h160v-729h4q139 164 344 164q224 0 364 -142t140 -362q0 -212 -137.5 -358t-341.5 -146q-121 0 -221 53.5t-148 141.5h-4v-170h-160v1548z
" />
    <glyph glyph-name="c" unicode="c" horiz-adv-x="987" 
d="M594 983q227 0 367 -152l-127 -112q-97 117 -242 117q-149 0 -236.5 -97.5t-87.5 -259.5q0 -152 91.5 -254t232.5 -102q158 0 244 119l118 -113q-134 -154 -362 -154q-221 0 -358.5 140.5t-137.5 363.5q0 221 139 362.5t359 141.5z" />
    <glyph glyph-name="d" unicode="d" horiz-adv-x="1251" 
d="M575 -25q-133 0 -243 66t-173 182t-63 256q0 220 140.5 362t363.5 142q205 0 344 -164h4v729h160v-1548h-160v170h-4q-49 -90 -149.5 -142.5t-219.5 -52.5zM268 479q0 -156 95 -256t245 -100q152 0 246 101t94 255q0 155 -94 256t-248 101q-149 0 -243.5 -101.5
t-94.5 -255.5z" />
    <glyph glyph-name="e" unicode="e" 
d="M588 983q96 0 177 -31t143.5 -92t98 -161t35.5 -230v-39h-774q12 -134 101 -220.5t215 -86.5q191 0 303 145l121 -94q-77 -101 -179 -150t-245 -49q-219 0 -353.5 142.5t-134.5 361.5q0 221 139 362.5t353 141.5zM870 565q-6 126 -82 198.5t-208 72.5
q-125 0 -209.5 -71.5t-102.5 -199.5h602z" />
    <glyph glyph-name="f" unicode="f" horiz-adv-x="645" 
d="M25 958h208v218q0 397 338 397q77 0 125 -25l-22 -143q-56 20 -109 20q-94 0 -133 -53t-39 -198v-216h234v-135h-234v-823h-160v823h-208v135z" />
    <glyph glyph-name="g" unicode="g" horiz-adv-x="1251" 
d="M96 479q0 229 138.5 366.5t369.5 137.5q110 0 204 -51.5t136 -136.5h4v163h160v-925q0 -246 -133.5 -385.5t-388.5 -139.5q-144 0 -259 43t-212 140l114 131q152 -166 357 -166q362 0 362 385v125h-4q-54 -85 -143.5 -131.5t-196.5 -46.5q-221 0 -364.5 138.5
t-143.5 352.5zM604 836q-145 0 -240.5 -101.5t-95.5 -255.5q0 -144 98.5 -244t239.5 -100q153 0 247.5 99t94.5 249q0 156 -95.5 254.5t-248.5 98.5z" />
    <glyph glyph-name="h" unicode="h" 
d="M311 0h-159v1548h159v-723h4q43 72 128 115t182 43q176 0 269 -102.5t93 -280.5v-600h-160v582q0 116 -54 185t-165 69q-145 0 -221 -96t-76 -265v-475z" />
    <glyph glyph-name="i" unicode="i" horiz-adv-x="491" 
d="M246 1450q48 0 82 -34t34 -83q0 -51 -32.5 -83.5t-83.5 -32.5t-84 32.5t-33 83.5q0 49 34.5 83t82.5 34zM326 958v-958h-160v958h160z" />
    <glyph glyph-name="j" unicode="j" horiz-adv-x="491" 
d="M246 1450q48 0 82 -34t34 -83q0 -51 -32.5 -83.5t-83.5 -32.5t-84 32.5t-33 83.5q0 49 34.5 83t82.5 34zM326 958v-1171q0 -123 -74 -201t-209 -78q-67 0 -113 21l19 139q41 -12 78 -12q72 0 105.5 46.5t33.5 141.5v1114h160z" />
    <glyph glyph-name="k" unicode="k" horiz-adv-x="1024" 
d="M152 0v1548h159v-1011l437 421h227l-463 -436l510 -522h-236l-475 504v-504h-159z" />
    <glyph glyph-name="l" unicode="l" horiz-adv-x="491" 
d="M326 1548v-1548h-160v1548h160z" />
    <glyph glyph-name="m" unicode="m" horiz-adv-x="1744" 
d="M143 958h152q0 -29 2 -77t2 -80h4q38 82 126 132t196 50q217 0 301 -182q57 94 130 138t175 44q185 0 273.5 -97.5t88.5 -293.5v-592h-159v580q0 124 -59.5 190t-174.5 66q-106 0 -177 -81t-71 -196v-559h-159v555q0 144 -43 212.5t-144 68.5q-143 0 -219 -96t-76 -271
v-469h-159v745q0 32 -4.5 108.5t-4.5 104.5z" />
    <glyph glyph-name="n" unicode="n" 
d="M143 958h152q0 -29 2 -77t2 -80h4q38 82 126 132t194 50q179 0 271.5 -102.5t92.5 -280.5v-600h-160v582q0 116 -54 185t-165 69q-146 0 -221.5 -96.5t-75.5 -270.5v-469h-159v745q0 32 -4.5 108.5t-4.5 104.5z" />
    <glyph glyph-name="o" unicode="o" horiz-adv-x="1216" 
d="M608 983q224 0 368 -141t144 -363q0 -221 -144.5 -362.5t-367.5 -141.5t-367.5 141.5t-144.5 362.5q0 220 143.5 362t368.5 142zM268 479q0 -156 95 -256t245 -100q152 0 246 101t94 255q0 155 -94.5 256t-247.5 101q-149 0 -243.5 -101.5t-94.5 -255.5z" />
    <glyph glyph-name="p" unicode="p" horiz-adv-x="1251" 
d="M143 -467v1425h160v-139h4q142 164 344 164q224 0 364 -142t140 -362q0 -140 -63 -256t-173 -182t-243 -66q-121 0 -221 53.5t-148 141.5h-4v-637h-160zM303 479q0 -156 95 -256t245 -100q152 0 246 101t94 255q0 155 -94.5 256t-247.5 101q-149 0 -243.5 -101.5
t-94.5 -255.5z" />
    <glyph glyph-name="q" unicode="q" horiz-adv-x="1251" 
d="M268 479q0 -156 95 -256t245 -100q152 0 246 101t94 255q0 155 -94.5 256t-247.5 101q-149 0 -243.5 -101.5t-94.5 -255.5zM575 983q119 0 219.5 -52.5t149.5 -142.5h4v170h160v-1425h-160v606h-4q-139 -164 -344 -164q-223 0 -363.5 141.5t-140.5 362.5q0 140 63 256
t173 182t243 66z" />
    <glyph glyph-name="r" unicode="r" horiz-adv-x="720" 
d="M623 983q36 0 65 -10l-10 -162q-46 12 -86 12q-137 0 -209 -90.5t-72 -257.5v-475h-159v745q0 32 -4.5 108.5t-4.5 104.5h152q0 -29 2 -77t2 -80h4q38 82 126 132t194 50z" />
    <glyph glyph-name="s" unicode="s" horiz-adv-x="872" 
d="M444 983q111 0 196.5 -45t129.5 -129l-133 -88q-69 115 -203 115q-81 0 -134.5 -37.5t-53.5 -96.5q0 -94 239 -139q169 -32 242.5 -100t73.5 -187q0 -140 -104 -220.5t-279 -80.5q-132 0 -220.5 43t-152.5 136l127 98q59 -71 116 -100t130 -29q92 0 151.5 40t59.5 107
q0 66 -56 100t-215 68q-143 31 -207.5 93t-64.5 169q0 127 103 205t255 78z" />
    <glyph glyph-name="t" unicode="t" horiz-adv-x="720" 
d="M233 823h-208v135h208v273h160v-273h283v-135h-283v-512q0 -109 35 -148.5t109 -39.5q82 0 141 33l6 -146q-80 -35 -186 -35q-142 0 -203.5 69t-61.5 243v536z" />
    <glyph glyph-name="u" unicode="u" 
d="M152 358v600h159v-581q0 -115 54.5 -184.5t164.5 -69.5q146 0 221.5 96.5t75.5 263.5v475h160v-745q0 -31 4 -110t4 -103h-151q0 35 -2 81t-2 77h-4q-37 -81 -125 -132t-197 -51q-175 0 -268.5 103t-93.5 280z" />
    <glyph glyph-name="v" unicode="v" horiz-adv-x="987" 
d="M20 958h187l299 -751h4l285 751h172l-379 -958h-176z" />
    <glyph glyph-name="w" unicode="w" horiz-adv-x="1517" 
d="M340 0l-311 958h176l219 -737h4l248 737h168l252 -737h4l217 737h172l-309 -958h-158l-272 737h-5l-241 -737h-164z" />
    <glyph glyph-name="x" unicode="x" horiz-adv-x="1024" 
d="M205 0h-199l393 516l-344 442h209l254 -344l240 344h194l-329 -442l395 -516h-211l-303 414z" />
    <glyph glyph-name="y" unicode="y" horiz-adv-x="987" 
d="M20 958h187l297 -751h4l285 751h174l-469 -1194q-57 -145 -128.5 -200.5t-185.5 -55.5q-83 0 -143 25l20 139q38 -16 113 -16q62 0 102.5 32.5t69.5 108.5l72 197z" />
    <glyph glyph-name="z" unicode="z" horiz-adv-x="909" 
d="M834 958v-122l-564 -701h578v-135h-787v125l564 698h-539v135h748z" />
    <glyph glyph-name="braceleft" unicode="{" horiz-adv-x="681" 
d="M68 651q78 3 127 72t49 154v364q0 112 64 185t161 73h133v-123h-110q-101 0 -101 -153v-371q0 -54 -20 -108t-61 -97.5t-95 -54.5v-4q84 -18 130 -91.5t46 -164.5v-375q0 -154 96 -154h115v-122h-139q-93 0 -156 72.5t-63 183.5v364q0 91 -50 157.5t-126 69.5v123z" />
    <glyph glyph-name="bar" unicode="|" horiz-adv-x="454" 
d="M295 1536v-2048h-135v2048h135z" />
    <glyph glyph-name="braceright" unicode="}" horiz-adv-x="681" 
d="M80 1376v123h137q91 0 156 -73t65 -177v-372q0 -87 49.5 -155t126.5 -71v-123q-77 -3 -126.5 -69.5t-49.5 -157.5v-371q0 -105 -63 -177t-152 -72h-143v122h115q96 0 96 154v375q0 93 45 165.5t131 90.5v4q-78 16 -127 94.5t-49 161.5v375q0 153 -101 153h-110z" />
    <glyph glyph-name="asciitilde" unicode="~" horiz-adv-x="1363" 
d="M1085 762l68 -98q-76 -107 -134.5 -144t-123.5 -37q-51 0 -113 22t-111 48t-109.5 48t-108.5 22q-111 0 -174 -144l-68 99q70 102 127.5 141t128.5 39q51 0 113.5 -22t112 -48t110 -48t106.5 -22q56 0 98.5 34.5t77.5 109.5z" />
    <glyph glyph-name="uni00A0" unicode="&#xa0;" horiz-adv-x="569" 
 />
    <glyph glyph-name="exclamdown" unicode="&#xa1;" horiz-adv-x="569" 
d="M285 1008q48 0 85.5 -37t37.5 -86q0 -50 -36 -86.5t-87 -36.5t-87 36t-36 87q0 50 38.5 86.5t84.5 36.5zM371 590v-1045h-172v1045h172z" />
    <glyph glyph-name="cent" unicode="&#xa2;" 
d="M137 479q0 200 117.5 338t312.5 160v141h99v-135q204 -9 335 -152l-127 -112q-93 106 -208 117v-713q131 12 211 119l118 -113q-121 -141 -329 -154v-135h-99v135q-195 25 -312.5 163.5t-117.5 340.5zM567 831q-118 -20 -188 -115t-70 -237q0 -131 70 -227t188 -127v706z
" />
    <glyph glyph-name="sterling" unicode="&#xa3;" 
d="M117 0v160h221v516h-197v135h197v174q0 232 114.5 361t323.5 129q203 0 330 -127l-113 -121q-53 50 -105 75t-116 25q-135 0 -198.5 -86t-63.5 -260v-170h332v-135h-332v-516h504v-160h-897z" />
    <glyph glyph-name="currency" unicode="&#xa4;" 
d="M258 1128q136 109 311 109q176 0 312 -109l110 109l90 -90l-110 -111q110 -134 110 -311q0 -171 -110 -309l110 -113l-90 -90l-110 113q-141 -113 -312 -113q-167 0 -311 113l-111 -113l-90 90l111 113q-111 139 -111 309q0 181 111 311l-111 111l90 90zM217 725
q0 -144 105.5 -254.5t246.5 -110.5t247 110.5t106 254.5q0 148 -104.5 256.5t-250.5 108.5q-140 0 -245 -108.5t-105 -256.5z" />
    <glyph glyph-name="yen" unicode="&#xa5;" 
d="M0 1450h205l364 -670l365 670h205l-391 -670h233v-123h-307l-19 -32v-146h326v-123h-326v-356h-172v356h-325v123h325v146l-18 32h-307v123h233z" />
    <glyph glyph-name="brokenbar" unicode="&#xa6;" horiz-adv-x="454" 
d="M295 666h-135v716h135v-716zM160 358h135v-716h-135v716z" />
    <glyph glyph-name="section" unicode="&#xa7;" 
d="M592 1487q122 0 218 -51t138 -142l-153 -84q-21 58 -77.5 93.5t-133.5 35.5q-88 0 -151.5 -45t-63.5 -131q0 -68 32 -102t109 -72l207 -102q136 -67 195 -142t59 -167q0 -172 -176 -273q141 -91 141 -252q0 -157 -117.5 -252.5t-300.5 -95.5q-145 0 -250 66.5t-153 185.5
l157 74q25 -90 93 -134t165 -44q99 0 160.5 50t61.5 128q0 68 -37.5 109.5t-147.5 97.5l-260 133q-160 82 -160 256q0 95 51.5 164.5t155.5 121.5q-157 90 -157 242q0 150 113.5 241t281.5 91zM307 653q0 -105 135 -170l224 -108q56 23 94.5 75t38.5 103q0 118 -166 201
l-152 75q-95 -36 -134.5 -77.5t-39.5 -98.5z" />
    <glyph glyph-name="dieresis" unicode="&#xa8;" horiz-adv-x="491" 
d="M43 1401q44 0 77.5 -34t33.5 -77q0 -44 -33.5 -77t-77.5 -33t-77.5 33t-33.5 77q0 43 33.5 77t77.5 34zM449 1401q44 0 77 -33.5t33 -77.5q0 -47 -31.5 -78.5t-78.5 -31.5q-45 0 -78 32t-33 78q0 44 33.5 77.5t77.5 33.5z" />
    <glyph glyph-name="copyright" unicode="&#xa9;" horiz-adv-x="1638" 
d="M819 1487q208 0 383 -101.5t277 -277t102 -383.5q0 -210 -102.5 -385.5t-277.5 -276t-382 -100.5q-209 0 -384 101.5t-276.5 276.5t-101.5 384q0 208 102 383.5t277 277t383 101.5zM193 725q0 -133 48 -252.5t130.5 -207.5t199 -139.5t248.5 -51.5q131 0 248.5 52
t200 140t130.5 207.5t48 251.5q0 176 -81.5 325.5t-226.5 237.5t-321 88q-173 0 -316.5 -87t-225.5 -236.5t-82 -327.5zM844 1190q153 0 256.5 -81.5t126.5 -227.5h-125q-20 91 -89.5 144.5t-166.5 53.5q-142 0 -229 -97.5t-87 -256.5q0 -150 91.5 -253t228.5 -103
q97 0 167 58.5t85 150.5h127q-32 -147 -135.5 -233.5t-243.5 -86.5q-200 0 -327.5 132t-127.5 335q0 211 123 338t326 127z" />
    <glyph glyph-name="ordfeminine" unicode="&#xaa;" horiz-adv-x="690" 
d="M283 868q-101 0 -158 48t-57 133q0 96 83 145t271 49h70v25q0 42 -44 69t-106 27q-53 0 -105 -18.5t-77 -45.5l-64 86q44 42 110 65.5t136 23.5q144 0 208 -60.5t64 -177.5v-272q0 -29 9 -84h-125q-6 46 -6 92h-5q-51 -105 -204 -105zM391 1145q-107 0 -147.5 -23.5
t-40.5 -70.5q0 -33 31 -52.5t85 -19.5q72 0 122.5 39t50.5 94v33h-101z" />
    <glyph glyph-name="guillemotleft" unicode="&#xab;" horiz-adv-x="1024" 
d="M524 856l-239 -364l239 -365l-112 -74l-293 439l293 438zM905 856l-239 -364l239 -365l-112 -74l-293 439l293 438z" />
    <glyph glyph-name="logicalnot" unicode="&#xac;" horiz-adv-x="1363" 
d="M1217 848v-569h-136v434h-934v135h1070z" />
    <glyph glyph-name="uni00AD" unicode="&#xad;" horiz-adv-x="681" 
d="M592 565v-147h-502v147h502z" />
    <glyph glyph-name="registered" unicode="&#xae;" horiz-adv-x="1638" 
d="M57 725q0 209 101.5 384t276.5 276.5t384 101.5t384.5 -102.5t276.5 -277.5t101 -382q0 -208 -102 -383.5t-277 -277t-383 -101.5t-383 101t-277 276.5t-102 384.5zM817 1376q-171 0 -314.5 -86t-226.5 -235.5t-83 -329.5q0 -133 48 -252.5t130.5 -207.5t199 -139.5
t248.5 -51.5q131 0 248.5 52t200 140t130.5 207.5t48 251.5q0 129 -47 248t-128.5 208t-200 142t-253.5 53zM664 281h-136v890h342q306 0 306 -253q0 -107 -60 -169.5t-176 -74.5l256 -393h-145l-242 383h-145v-383zM850 1061h-186v-287h165q118 0 164.5 37.5t46.5 112.5
q0 137 -190 137z" />
    <glyph glyph-name="macron" unicode="&#xaf;" horiz-adv-x="491" 
d="M528 1352v-123h-565v123h565z" />
    <glyph glyph-name="degree" unicode="&#xb0;" horiz-adv-x="819" 
d="M410 1475q124 0 208 -85.5t84 -207.5q0 -120 -83 -206.5t-209 -86.5q-125 0 -209 86t-84 207q0 124 85.5 208.5t207.5 84.5zM227 1182q0 -70 54.5 -126.5t128.5 -56.5q75 0 128.5 57t53.5 126q0 67 -52 124.5t-130 57.5q-75 0 -129 -56.5t-54 -125.5z" />
    <glyph glyph-name="plusminus" unicode="&#xb1;" horiz-adv-x="1363" 
d="M147 676v135h467v344h136v-344h467v-135h-467v-344h-136v344h-467zM147 86v135h1070v-135h-1070z" />
    <glyph glyph-name="twosuperior" unicode="&#xb2;" horiz-adv-x="739" 
d="M379 1475q132 0 209.5 -69t77.5 -187q0 -138 -134 -256l-294 -256v-5h436v-110h-608v119l340 305q35 31 52.5 48.5t37 43.5t27 52t7.5 59q0 62 -42.5 103.5t-104.5 41.5q-66 0 -112 -37t-58 -100l-129 10q17 115 94 176.5t201 61.5z" />
    <glyph glyph-name="threesuperior" unicode="&#xb3;" horiz-adv-x="739" 
d="M365 1475q125 0 202.5 -63t77.5 -165q0 -68 -45 -123t-117 -75v-5q88 -12 140.5 -71.5t52.5 -145.5q0 -112 -86 -179.5t-225 -67.5q-240 0 -302 188l111 47q23 -59 73.5 -92t117.5 -33q78 0 127 40.5t49 103.5q0 157 -230 157h-24v111h37q88 0 137 37t49 104
q0 59 -37.5 90t-107.5 31q-123 0 -166 -86l-113 51q35 72 107 109t172 37z" />
    <glyph glyph-name="acute" unicode="&#xb4;" horiz-adv-x="491" 
d="M543 1450l-293 -295h-146l213 295h226z" />
    <glyph glyph-name="mu" unicode="&#xb5;" 
d="M152 -467v1425h159v-581q0 -116 54 -185t165 -69q146 0 221.5 96t75.5 264v475h160v-745q0 -31 4 -110t4 -103h-151q0 18 -2 71t-2 87h-4q-37 -81 -125 -132t-197 -51q-112 0 -203 52v-494h-159z" />
    <glyph glyph-name="paragraph" unicode="&#xb6;" horiz-adv-x="1228" 
d="M170 1028q0 198 125.5 310t333.5 112h506v-1708h-148v1573h-242v-1573h-147v905q-188 0 -308 110t-120 271z" />
    <glyph glyph-name="periodcentered" unicode="&#xb7;" horiz-adv-x="569" 
d="M285 756q51 0 87 -36.5t36 -86.5q0 -49 -37 -86t-86 -37q-48 0 -85.5 37t-37.5 86q0 51 36.5 87t86.5 36z" />
    <glyph glyph-name="cedilla" unicode="&#xb8;" horiz-adv-x="491" 
d="M231 0h93l-93 -131l18 3t24.5 3.5t27.5 1.5q69 0 117.5 -38.5t48.5 -102.5q0 -82 -66.5 -131t-175.5 -49q-113 0 -200 43l34 75q65 -32 148 -32q56 0 90.5 22t34.5 62q0 36 -30.5 56.5t-76.5 20.5q-26 0 -80 -16l-41 39z" />
    <glyph glyph-name="onesuperior" unicode="&#xb9;" horiz-adv-x="739" 
d="M371 1462h118v-870h-135v721h-4l-166 -135l-67 94z" />
    <glyph glyph-name="ordmasculine" unicode="&#xba;" horiz-adv-x="790" 
d="M395 1475q144 0 239 -84.5t95 -216.5q0 -135 -93 -220.5t-241 -85.5t-241 85.5t-93 220.5q0 132 95 216.5t239 84.5zM197 1174q0 -83 55.5 -139t142.5 -56q85 0 142 57t57 138q0 78 -56.5 134t-144.5 56q-84 0 -140 -55.5t-56 -134.5z" />
    <glyph glyph-name="guillemotright" unicode="&#xbb;" horiz-adv-x="1024" 
d="M231 930l293 -438l-293 -439l-112 74l239 365l-239 364zM612 930l293 -438l-293 -439l-112 74l239 365l-239 364z" />
    <glyph glyph-name="onequarter" unicode="&#xbc;" horiz-adv-x="1708" 
d="M979 184v129l375 557h159v-575h115v-111h-115v-184h-135v184h-399zM305 0l909 1516l113 -66l-909 -1516zM80 1272l254 190h119v-870h-136v723h-4l-166 -137zM1102 295h276v416h-4z" />
    <glyph glyph-name="onehalf" unicode="&#xbd;" horiz-adv-x="1708" 
d="M1292 1450l-909 -1516l-113 66l910 1516zM322 1462h118v-870h-135v721h-4l-166 -135l-67 94zM1346 883q132 0 209 -69t77 -187q0 -139 -133 -256l-295 -256v-4h436v-111h-608v119l340 305q47 42 68.5 64.5t39 59t17.5 79.5q0 62 -42.5 103.5t-104.5 41.5q-66 0 -112 -37
t-58 -100l-129 10q17 115 94 176.5t201 61.5z" />
    <glyph glyph-name="threequarters" unicode="&#xbe;" horiz-adv-x="1708" 
d="M1008 184v129l374 557h160v-575h115v-111h-115v-184h-135v184h-399zM51 768l113 47q21 -57 71.5 -91t118.5 -34q76 0 126 39.5t50 104.5q0 157 -231 157h-23v111h33q92 0 141.5 36.5t49.5 104.5q0 59 -38 90t-108 31q-123 0 -166 -86l-112 51q71 146 278 146
q125 0 203 -63t78 -165q0 -67 -44 -121t-118 -77v-5q87 -12 140 -72t53 -145q0 -112 -87.5 -179.5t-224.5 -67.5q-238 0 -303 188zM385 0l909 1516l113 -66l-909 -1516zM1403 711l-273 -412v-4h277v416h-4z" />
    <glyph glyph-name="questiondown" unicode="&#xbf;" horiz-adv-x="987" 
d="M514 1008q46 0 84.5 -36.5t38.5 -86.5t-36 -86.5t-87 -36.5t-87 36t-36 87q0 49 37.5 86t85.5 37zM600 590v-150q0 -39 -8 -73.5t-18.5 -58t-33.5 -52t-38 -44t-48.5 -47t-50.5 -48.5q-122 -122 -122 -238q0 -99 59 -161t158 -62t165 59t85 164l184 -20
q-29 -164 -146.5 -257.5t-289.5 -93.5q-179 0 -289.5 100t-110.5 265q0 92 43 175.5t154 182.5q92 83 113.5 128.5t21.5 146.5v84h172z" />
    <glyph glyph-name="Agrave" unicode="&#xc0;" horiz-adv-x="1441" 
d="M12 0l639 1450h162l617 -1450h-201l-148 356h-725l-149 -356h-195zM424 516h592l-287 713h-4zM717 1552l-293 295h225l213 -295h-145z" />
    <glyph glyph-name="Aacute" unicode="&#xc1;" horiz-adv-x="1441" 
d="M12 0l639 1450h162l617 -1450h-201l-148 356h-725l-149 -356h-195zM424 516h592l-287 713h-4zM580 1552l213 295h225l-293 -295h-145z" />
    <glyph glyph-name="Acircumflex" unicode="&#xc2;" horiz-adv-x="1441" 
d="M12 0l639 1450h162l617 -1450h-201l-148 356h-725l-149 -356h-195zM424 516h592l-287 713h-4zM399 1552l228 295h186l229 -295h-165l-162 209l-160 -209h-156z" />
    <glyph glyph-name="Atilde" unicode="&#xc3;" horiz-adv-x="1441" 
d="M12 0l639 1450h162l617 -1450h-201l-148 356h-725l-149 -356h-195zM424 516h592l-287 713h-4zM477 1577h-98q17 98 72 155.5t133 57.5q51 0 106.5 -20.5t101.5 -41t74 -20.5q70 0 99 90h98q-17 -101 -67 -157t-124 -56q-60 0 -162 41t-139 41q-67 0 -94 -90z" />
    <glyph glyph-name="Adieresis" unicode="&#xc4;" horiz-adv-x="1441" 
d="M12 0l639 1450h162l617 -1450h-201l-148 356h-725l-149 -356h-195zM725 1229l-301 -713h592l-287 713h-4zM924 1577q-47 0 -79 32t-32 79q0 45 32 77.5t79 32.5t78.5 -32.5t31.5 -77.5q0 -47 -31.5 -79t-78.5 -32zM408 1688q0 44 33 77t77 33t77.5 -33t33.5 -77
q0 -47 -33 -79t-78 -32t-77.5 32t-32.5 79z" />
    <glyph glyph-name="Aring" unicode="&#xc5;" horiz-adv-x="1441" 
d="M12 0l639 1450h162l617 -1450h-201l-148 356h-725l-149 -356h-195zM424 516h592l-287 713h-4zM518 1698q0 83 59 143t144 60q87 0 145 -59t58 -144t-58 -144t-145 -59t-145 59t-58 144zM721 1815q-47 0 -82 -35t-35 -82q0 -48 34 -82.5t83 -34.5t83 34.5t34 82.5
q0 45 -35 81t-82 36z" />
    <glyph glyph-name="AE" unicode="&#xc6;" horiz-adv-x="1933" 
d="M186 0h-206l942 1450h890v-160h-602v-454h566v-160h-566v-516h627v-160h-799v393h-600zM1014 1290l-473 -737h497v737h-24z" />
    <glyph glyph-name="Ccedilla" unicode="&#xc7;" horiz-adv-x="1441" 
d="M834 1487q164 0 298 -60t214 -167l-150 -109q-65 86 -160 131t-202 45q-116 0 -219.5 -49t-176 -131t-115 -192.5t-42.5 -229.5q0 -166 70 -303.5t197 -218t286 -80.5q260 0 419 203l129 -109q-191 -254 -548 -254l-66 -94q5 1 17.5 3t25.5 3.5t29 1.5q66 0 115 -39
t49 -102q0 -81 -66.5 -130.5t-173.5 -49.5q-116 0 -203 43l35 75q68 -32 147 -32q57 0 91 22t34 62q0 36 -30 56.5t-76 20.5q-26 0 -80 -16l-41 39l104 143q-188 19 -337 125t-230.5 271.5t-81.5 359.5q0 212 95 386t264.5 275t378.5 101z" />
    <glyph glyph-name="Egrave" unicode="&#xc8;" horiz-adv-x="1214" 
d="M180 0v1450h912v-160h-740v-454h690v-160h-690v-516h776v-160h-948zM311 1847h226l213 -295h-146z" />
    <glyph glyph-name="Eacute" unicode="&#xc9;" horiz-adv-x="1214" 
d="M1128 0h-948v1450h912v-160h-740v-454h690v-160h-690v-516h776v-160zM467 1552l213 295h225l-293 -295h-145z" />
    <glyph glyph-name="Ecircumflex" unicode="&#xca;" horiz-adv-x="1214" 
d="M180 0v1450h912v-160h-740v-454h690v-160h-690v-516h776v-160h-948zM287 1552l227 295h186l230 -295h-166l-162 209l-160 -209h-155z" />
    <glyph glyph-name="Edieresis" unicode="&#xcb;" horiz-adv-x="1214" 
d="M1128 0h-948v1450h912v-160h-740v-454h690v-160h-690v-516h776v-160zM700 1688q0 45 32 77.5t79 32.5t79 -32.5t32 -77.5q0 -47 -32 -79t-79 -32t-79 32t-32 79zM295 1688q0 44 33.5 77t77.5 33t77 -33t33 -77q0 -47 -32.5 -79t-77.5 -32t-78 32t-33 79z" />
    <glyph glyph-name="Igrave" unicode="&#xcc;" horiz-adv-x="532" 
d="M195 1847l213 -295h-146l-293 295h226zM352 1450v-1450h-172v1450h172z" />
    <glyph glyph-name="Iacute" unicode="&#xcd;" horiz-adv-x="532" 
d="M563 1847l-293 -295h-145l213 295h225zM352 1450v-1450h-172v1450h172z" />
    <glyph glyph-name="Icircumflex" unicode="&#xce;" horiz-adv-x="532" 
d="M180 0v1450h172v-1450h-172zM100 1552h-155l227 295h186l230 -295h-166l-162 209z" />
    <glyph glyph-name="Idieresis" unicode="&#xcf;" horiz-adv-x="532" 
d="M63 1798q44 0 77.5 -33t33.5 -77q0 -47 -33 -79t-78 -32t-77.5 32t-32.5 79q0 44 33 77t77 33zM469 1798q47 0 79 -32.5t32 -77.5q0 -47 -32 -79t-79 -32t-79 32t-32 79q0 45 32 77.5t79 32.5zM352 1450v-1450h-172v1450h172z" />
    <glyph glyph-name="Eth" unicode="&#xd0;" horiz-adv-x="1517" 
d="M6 823h148v627h542q149 0 280.5 -50t230.5 -141t156.5 -229.5t57.5 -304.5q0 -135 -38 -252t-105 -203t-158.5 -147.5t-200 -92t-227.5 -30.5h-538v688h-148v135zM326 160h338q265 0 419 146.5t154 418.5q0 271 -153 418t-420 147h-338v-467h516v-135h-516v-528z" />
    <glyph glyph-name="Ntilde" unicode="&#xd1;" horiz-adv-x="1593" 
d="M180 0v1450h217l840 -1204h4v1204h172v-1450h-217l-840 1204h-4v-1204h-172zM455 1577q17 99 71.5 156t132.5 57q51 0 107 -20.5t102 -41t74 -20.5q69 0 98 90h99q-17 -101 -67 -157t-124 -56q-60 0 -162 41t-139 41q-67 0 -94 -90h-98z" />
    <glyph glyph-name="Ograve" unicode="&#xd2;" horiz-adv-x="1708" 
d="M782 1847l213 -295h-145l-293 295h225zM854 1487q164 0 305.5 -58.5t240.5 -160t155.5 -242.5t56.5 -301q0 -215 -97 -389t-271 -273.5t-390 -99.5q-162 0 -303.5 58t-241 159t-156.5 242.5t-57 302.5t56.5 302.5t156 242.5t241 159t304.5 58zM281 725q0 -167 72 -304
t203.5 -217.5t297.5 -80.5q163 0 294.5 79t205 217t73.5 306t-73 305.5t-205 217t-297 79.5q-162 0 -293 -79.5t-204.5 -217.5t-73.5 -305z" />
    <glyph glyph-name="Oacute" unicode="&#xd3;" horiz-adv-x="1708" 
d="M1151 1847l-293 -295h-145l213 295h225zM854 1487q164 0 305.5 -58.5t240.5 -160t155.5 -242.5t56.5 -301q0 -215 -97 -389t-271 -273.5t-390 -99.5q-162 0 -303.5 58t-241 159t-156.5 242.5t-57 302.5t56.5 302.5t156 242.5t241 159t304.5 58zM281 725q0 -167 72 -304
t203.5 -217.5t297.5 -80.5q163 0 294.5 79t205 217t73.5 306t-73 305.5t-205 217t-297 79.5q-162 0 -293 -79.5t-204.5 -217.5t-73.5 -305z" />
    <glyph glyph-name="Ocircumflex" unicode="&#xd4;" horiz-adv-x="1708" 
d="M96 725q0 161 56.5 302.5t156 242.5t241 159t304.5 58q164 0 305.5 -58.5t240.5 -160t155.5 -242.5t56.5 -301q0 -215 -97 -389t-271 -273.5t-390 -99.5q-162 0 -303.5 58t-241 159t-156.5 242.5t-57 302.5zM281 725q0 -167 72 -304t203.5 -217.5t297.5 -80.5
q163 0 294.5 79t205 217t73.5 306t-73 305.5t-205 217t-297 79.5q-162 0 -293 -79.5t-204.5 -217.5t-73.5 -305zM532 1552l228 295h186l230 -295h-166l-162 209l-160 -209h-156z" />
    <glyph glyph-name="Otilde" unicode="&#xd5;" horiz-adv-x="1708" 
d="M1098 1798h98q-17 -101 -66.5 -157t-123.5 -56q-60 0 -162 41t-139 41q-68 0 -95 -90h-98q17 98 72 155.5t133 57.5q51 0 106.5 -20.5t101.5 -41t74 -20.5q70 0 99 90zM854 1487q164 0 305.5 -58.5t240.5 -160t155.5 -242.5t56.5 -301q0 -215 -97 -389t-271 -273.5
t-390 -99.5q-162 0 -303.5 58t-241 159t-156.5 242.5t-57 302.5t56.5 302.5t156 242.5t241 159t304.5 58zM281 725q0 -167 72 -304t203.5 -217.5t297.5 -80.5q163 0 294.5 79t205 217t73.5 306t-73 305.5t-205 217t-297 79.5q-162 0 -293 -79.5t-204.5 -217.5t-73.5 -305z
" />
    <glyph glyph-name="Odieresis" unicode="&#xd6;" horiz-adv-x="1708" 
d="M651 1798q44 0 77.5 -33t33.5 -77q0 -47 -33 -79t-78 -32t-77.5 32t-32.5 79q0 44 33 77t77 33zM1057 1798q47 0 78.5 -32.5t31.5 -77.5q0 -47 -31.5 -79t-78.5 -32t-79 32t-32 79q0 45 32 77.5t79 32.5zM854 1487q164 0 305.5 -58.5t240.5 -160t155.5 -242.5t56.5 -301
q0 -215 -97 -389t-271 -273.5t-390 -99.5q-162 0 -303.5 58t-241 159t-156.5 242.5t-57 302.5t56.5 302.5t156 242.5t241 159t304.5 58zM281 725q0 -167 72 -304t203.5 -217.5t297.5 -80.5q163 0 294.5 79t205 217t73.5 306t-73 305.5t-205 217t-297 79.5q-162 0 -293 -79.5
t-204.5 -217.5t-73.5 -305z" />
    <glyph glyph-name="multiply" unicode="&#xd7;" horiz-adv-x="1363" 
d="M289 1114l393 -395l395 393l99 -94l-398 -397l398 -394l-99 -100l-395 397l-395 -397l-99 96l396 398l-396 393z" />
    <glyph glyph-name="Oslash" unicode="&#xd8;" horiz-adv-x="1708" 
d="M1487 1511l86 -77l-162 -177q96 -102 148.5 -238t52.5 -294q0 -213 -98 -387.5t-271.5 -274.5t-388.5 -100q-282 0 -483 162l-166 -180l-82 78l166 180q-193 215 -193 522q0 216 100 391t273 273t385 98q272 0 471 -154zM281 725q0 -225 129 -389l798 870
q-153 121 -356 121q-158 0 -289.5 -79.5t-206.5 -217.5t-75 -305zM489 254q153 -131 365 -131q162 0 293.5 79t205.5 217t74 306q0 236 -137 401z" />
    <glyph glyph-name="Ugrave" unicode="&#xd9;" horiz-adv-x="1441" 
d="M174 549v901h172v-872q0 -219 95.5 -337t279.5 -118t279.5 117t95.5 329v881h172v-903q0 -271 -141.5 -427.5t-405.5 -156.5t-405.5 157.5t-141.5 428.5zM424 1847h225l213 -295h-145z" />
    <glyph glyph-name="Uacute" unicode="&#xda;" horiz-adv-x="1441" 
d="M174 549v901h172v-872q0 -219 95.5 -337t279.5 -118t279.5 117t95.5 329v881h172v-903q0 -271 -141.5 -427.5t-405.5 -156.5t-405.5 157.5t-141.5 428.5zM580 1552l213 295h225l-293 -295h-145z" />
    <glyph glyph-name="Ucircumflex" unicode="&#xdb;" horiz-adv-x="1441" 
d="M174 549v901h172v-872q0 -219 95.5 -337t279.5 -118t279.5 117t95.5 329v881h172v-903q0 -271 -141.5 -427.5t-405.5 -156.5t-405.5 157.5t-141.5 428.5zM555 1552h-156l228 295h186l229 -295h-165l-162 209z" />
    <glyph glyph-name="Udieresis" unicode="&#xdc;" horiz-adv-x="1441" 
d="M174 549v901h172v-872q0 -219 95.5 -337t279.5 -118t279.5 117t95.5 329v881h172v-903q0 -271 -141.5 -427.5t-405.5 -156.5t-405.5 157.5t-141.5 428.5zM813 1688q0 45 32 77.5t79 32.5t78.5 -32.5t31.5 -77.5q0 -47 -31.5 -79t-78.5 -32t-79 32t-32 79zM408 1688
q0 44 33 77t77 33t77.5 -33t33.5 -77q0 -47 -33 -79t-78 -32t-77.5 32t-32.5 79z" />
    <glyph glyph-name="Yacute" unicode="&#xdd;" horiz-adv-x="1216" 
d="M522 625l-540 825h219l407 -655l420 655h207l-541 -825v-625h-172v625zM467 1552l213 295h225l-293 -295h-145z" />
    <glyph glyph-name="Thorn" unicode="&#xde;" horiz-adv-x="1214" 
d="M180 0v1450h172v-256h260q244 0 375 -101.5t131 -295.5q0 -192 -129 -297t-344 -105h-293v-395h-172zM352 555h299q131 0 207 64t76 176t-75.5 175.5t-207.5 63.5h-299v-479z" />
    <glyph glyph-name="germandbls" unicode="&#xdf;" horiz-adv-x="1214" 
d="M600 1573q179 0 290 -100.5t111 -264.5q0 -118 -57.5 -201.5t-167.5 -121.5v-4q161 -18 254.5 -138.5t93.5 -296.5q0 -209 -136.5 -340t-350.5 -131q-73 0 -129 19v145q45 -16 106 -16q153 0 245.5 92.5t92.5 245.5q0 158 -98 253t-272 95h-39v135h37q124 0 193 68.5
t69 177.5q0 104 -70 169.5t-180 65.5q-139 0 -210 -86.5t-71 -248.5v-1090h-159v1106q0 216 117.5 341.5t330.5 125.5z" />
    <glyph glyph-name="agrave" unicode="&#xe0;" horiz-adv-x="1062" 
d="M453 -25q-158 0 -257.5 78t-99.5 207q0 170 139.5 253t452.5 83h74v27q0 105 -62 159t-176 54q-173 0 -284 -105l-101 105q72 72 172 109.5t209 37.5q205 0 303.5 -98.5t98.5 -296.5v-430q0 -66 14 -158h-154q-10 31 -10 143h-4q-111 -168 -315 -168zM268 276
q0 -81 54.5 -123t156.5 -42q128 0 205.5 81.5t77.5 231.5v37h-176q-146 0 -232 -47t-86 -138zM528 1188l-292 295h225l213 -295h-146z" />
    <glyph glyph-name="aacute" unicode="&#xe1;" horiz-adv-x="1062" 
d="M453 -25q-158 0 -257.5 78t-99.5 207q0 170 139.5 253t452.5 83h74v27q0 105 -62 159t-176 54q-173 0 -284 -105l-101 105q72 72 172 109.5t209 37.5q205 0 303.5 -98.5t98.5 -296.5v-430q0 -66 14 -158h-154q-10 31 -10 143h-4q-111 -168 -315 -168zM586 461
q-146 0 -232 -47t-86 -138q0 -81 54.5 -123t156.5 -42q128 0 205.5 81.5t77.5 231.5v37h-176zM537 1188h-146l213 295h225z" />
    <glyph glyph-name="acircumflex" unicode="&#xe2;" horiz-adv-x="1062" 
d="M453 -25q-158 0 -257.5 78t-99.5 207q0 170 139.5 253t452.5 83h74v27q0 105 -62 159t-176 54q-173 0 -284 -105l-101 105q72 72 172 109.5t209 37.5q205 0 303.5 -98.5t98.5 -296.5v-430q0 -66 14 -158h-154q-10 31 -10 143h-4q-111 -168 -315 -168zM586 461
q-146 0 -232 -47t-86 -138q0 -81 54.5 -123t156.5 -42q128 0 205.5 81.5t77.5 231.5v37h-176zM211 1188l227 295h187l229 -295h-166l-162 209l-159 -209h-156z" />
    <glyph glyph-name="atilde" unicode="&#xe3;" horiz-adv-x="1062" 
d="M453 -25q-158 0 -257.5 78t-99.5 207q0 170 139.5 253t452.5 83h74v27q0 105 -62 159t-176 54q-173 0 -284 -105l-101 105q72 72 172 109.5t209 37.5q205 0 303.5 -98.5t98.5 -296.5v-430q0 -66 14 -158h-154q-10 31 -10 143h-4q-111 -168 -315 -168zM586 461
q-146 0 -232 -47t-86 -138q0 -81 54.5 -123t156.5 -42q128 0 205.5 81.5t77.5 231.5v37h-176zM190 1212q15 97 70.5 155t134.5 58q61 0 157 -41t128 -41q39 0 60.5 24t35.5 67h98q-17 -103 -66 -158t-124 -55q-58 0 -160 41t-141 41q-34 0 -59.5 -26t-34.5 -65h-99z" />
    <glyph glyph-name="adieresis" unicode="&#xe4;" horiz-adv-x="1062" 
d="M96 260q0 170 139.5 253t452.5 83h74v27q0 105 -62 159t-176 54q-173 0 -284 -105l-101 105q72 72 172 109.5t209 37.5q205 0 303.5 -98.5t98.5 -296.5v-430q0 -66 14 -158h-154q-10 31 -10 143h-4q-111 -168 -315 -168q-158 0 -257.5 78t-99.5 207zM586 461
q-146 0 -232 -47t-86 -138q0 -81 54.5 -123t156.5 -42q128 0 205.5 81.5t77.5 231.5v37h-176zM625 1323q0 44 33 77.5t77 33.5t77.5 -33.5t33.5 -77.5q0 -47 -32 -79t-79 -32q-45 0 -77.5 32t-32.5 79zM330 1212q-44 0 -77.5 33.5t-33.5 77.5q0 43 33.5 77t77.5 34t77 -34
t33 -77q0 -44 -33 -77.5t-77 -33.5z" />
    <glyph glyph-name="aring" unicode="&#xe5;" horiz-adv-x="1062" 
d="M96 260q0 170 139.5 253t452.5 83h74v27q0 105 -62 159t-176 54q-173 0 -284 -105l-101 105q72 72 172 109.5t209 37.5q205 0 303.5 -98.5t98.5 -296.5v-430q0 -66 14 -158h-154q-10 31 -10 143h-4q-111 -168 -315 -168q-158 0 -257.5 78t-99.5 207zM268 276
q0 -81 54.5 -123t156.5 -42q128 0 205.5 81.5t77.5 231.5v37h-176q-146 0 -232 -47t-86 -138zM330 1354q0 85 58.5 143.5t143.5 58.5q87 0 145 -57.5t58 -144.5q0 -85 -58.5 -144t-144.5 -59q-85 0 -143.5 59t-58.5 144zM416 1354q0 -48 33.5 -82.5t82.5 -34.5t83 34.5
t34 82.5q0 45 -35 80.5t-82 35.5t-81.5 -35.5t-34.5 -80.5z" />
    <glyph glyph-name="ae" unicode="&#xe6;" horiz-adv-x="1744" 
d="M96 264q0 301 467 301h209v19q0 121 -65 186.5t-177 65.5q-157 0 -278 -95l-102 107q77 67 177 101t205 34q115 0 201 -43t131 -119q156 162 340 162q96 0 177.5 -31.5t144 -92.5t98 -160t35.5 -226v-43h-739q3 -133 83.5 -220t194.5 -87q193 0 305 145l121 -94
q-77 -101 -179 -150t-247 -49q-116 0 -214.5 55.5t-149.5 151.5q-50 -100 -146.5 -153.5t-234.5 -53.5q-158 0 -257.5 78t-99.5 211zM268 270q0 -70 62 -108.5t162 -38.5q124 0 202 78t78 209v20h-244q-118 0 -189 -42t-71 -118zM920 565h567q-5 124 -82 197.5t-209 73.5
q-106 0 -187.5 -79t-88.5 -192z" />
    <glyph glyph-name="ccedilla" unicode="&#xe7;" horiz-adv-x="987" 
d="M592 983q229 0 369 -152l-127 -112q-97 117 -242 117q-149 0 -236.5 -97.5t-87.5 -259.5q0 -152 91.5 -254t232.5 -102q158 0 244 119l118 -113q-125 -143 -325 -149l-78 -111q5 1 18 3t26 3.5t28 1.5q68 0 115.5 -39t47.5 -102q0 -82 -66.5 -131t-172.5 -49
q-116 0 -203 43l35 75q68 -32 145 -32q57 0 92 22t35 62q0 36 -30 56.5t-76 20.5q-34 0 -80 -16l-41 39l113 156q-203 17 -322 154.5t-119 342.5q0 219 137.5 361.5t358.5 142.5z" />
    <glyph glyph-name="egrave" unicode="&#xe8;" 
d="M498 1483l213 -295h-146l-293 295h226zM588 983q96 0 177 -31t143.5 -92t98 -161t35.5 -230v-39h-774q12 -134 101 -220.5t215 -86.5q191 0 303 145l121 -94q-77 -101 -179 -150t-245 -49q-219 0 -353.5 142.5t-134.5 361.5q0 221 139 362.5t353 141.5zM870 565
q-6 126 -82 198.5t-208 72.5q-125 0 -209.5 -71.5t-102.5 -199.5h602z" />
    <glyph glyph-name="eacute" unicode="&#xe9;" 
d="M866 1483l-293 -295h-145l213 295h225zM588 983q96 0 177 -31t143.5 -92t98 -161t35.5 -230v-39h-774q12 -134 101 -220.5t215 -86.5q191 0 303 145l121 -94q-77 -101 -179 -150t-245 -49q-219 0 -353.5 142.5t-134.5 361.5q0 221 139 362.5t353 141.5zM870 565
q-6 126 -82 198.5t-208 72.5q-125 0 -209.5 -71.5t-102.5 -199.5h602z" />
    <glyph glyph-name="ecircumflex" unicode="&#xea;" 
d="M96 479q0 221 139 362.5t353 141.5q96 0 177 -31t143.5 -92t98 -161t35.5 -230v-39h-774q12 -134 101 -220.5t215 -86.5q191 0 303 145l121 -94q-77 -101 -179 -150t-245 -49q-219 0 -353.5 142.5t-134.5 361.5zM268 565h602q-6 126 -82 198.5t-208 72.5
q-125 0 -209.5 -71.5t-102.5 -199.5zM248 1188l227 295h187l229 -295h-166l-162 209l-160 -209h-155z" />
    <glyph glyph-name="edieresis" unicode="&#xeb;" 
d="M367 1434q44 0 77 -34t33 -77q0 -44 -33 -77.5t-77 -33.5t-77.5 33.5t-33.5 77.5q0 43 33.5 77t77.5 34zM772 1434q44 0 77.5 -33.5t33.5 -77.5q0 -47 -32 -79t-79 -32q-45 0 -77.5 32t-32.5 79q0 44 33 77.5t77 33.5zM588 983q96 0 177 -31t143.5 -92t98 -161t35.5 -230
v-39h-774q12 -134 101 -220.5t215 -86.5q191 0 303 145l121 -94q-77 -101 -179 -150t-245 -49q-219 0 -353.5 142.5t-134.5 361.5q0 221 139 362.5t353 141.5zM870 565q-6 126 -82 198.5t-208 72.5q-125 0 -209.5 -71.5t-102.5 -199.5h602z" />
    <glyph glyph-name="igrave" unicode="&#xec;" horiz-adv-x="491" 
d="M174 1483l213 -295h-145l-293 295h225zM326 958v-958h-160v958h160z" />
    <glyph glyph-name="iacute" unicode="&#xed;" horiz-adv-x="491" 
d="M543 1483l-293 -295h-146l213 295h226zM326 958v-958h-160v958h160z" />
    <glyph glyph-name="icircumflex" unicode="&#xee;" horiz-adv-x="491" 
d="M166 0v958h160v-958h-160zM80 1188h-156l228 295h186l229 -295h-166l-161 209z" />
    <glyph glyph-name="idieresis" unicode="&#xef;" horiz-adv-x="491" 
d="M43 1434q44 0 77.5 -34t33.5 -77q0 -44 -33.5 -77.5t-77.5 -33.5t-77.5 33.5t-33.5 77.5q0 43 33.5 77t77.5 34zM449 1434q44 0 77 -33.5t33 -77.5q0 -47 -31.5 -79t-78.5 -32q-45 0 -78 32t-33 79q0 44 33.5 77.5t77.5 33.5zM326 958v-958h-160v958h160z" />
    <glyph glyph-name="eth" unicode="&#xf0;" horiz-adv-x="1216" 
d="M440 1595q126 -102 187 -163l219 110l94 -80l-227 -114q101 -96 171.5 -182t126 -184t82.5 -207t27 -232q0 -267 -134.5 -417.5t-377.5 -150.5q-224 0 -368 141.5t-144 362.5t143.5 362.5t366.5 141.5q171 0 268 -100l3 4q-92 171 -310 389l-219 -111l-86 84l217 109
q-63 60 -180 155zM268 479q0 -156 95 -256t245 -100q151 0 245.5 101t94.5 255t-95 255.5t-247 101.5q-149 0 -243.5 -101.5t-94.5 -255.5z" />
    <glyph glyph-name="ntilde" unicode="&#xf1;" 
d="M152 745q0 32 -4.5 108.5t-4.5 104.5h152q0 -29 2 -77t2 -80h4q38 82 126 132t194 50q179 0 271.5 -102.5t92.5 -280.5v-600h-160v582q0 116 -54 185t-165 69q-146 0 -221.5 -96.5t-75.5 -270.5v-469h-159v745zM326 1212h-99q15 97 70.5 155t134.5 58q61 0 157 -41
t128 -41q39 0 60.5 24t35.5 67h98q-17 -103 -66 -158t-124 -55q-58 0 -160 41t-141 41q-34 0 -59.5 -26t-34.5 -65z" />
    <glyph glyph-name="ograve" unicode="&#xf2;" horiz-adv-x="1216" 
d="M537 1483l213 -295h-146l-293 295h226zM608 983q224 0 368 -141t144 -363q0 -221 -144.5 -362.5t-367.5 -141.5t-367.5 141.5t-144.5 362.5q0 220 143.5 362t368.5 142zM268 479q0 -156 95 -256t245 -100q152 0 246 101t94 255q0 155 -94.5 256t-247.5 101
q-149 0 -243.5 -101.5t-94.5 -255.5z" />
    <glyph glyph-name="oacute" unicode="&#xf3;" horiz-adv-x="1216" 
d="M905 1483l-293 -295h-145l213 295h225zM608 983q224 0 368 -141t144 -363q0 -221 -144.5 -362.5t-367.5 -141.5t-367.5 141.5t-144.5 362.5q0 220 143.5 362t368.5 142zM268 479q0 -156 95 -256t245 -100q152 0 246 101t94 255q0 155 -94.5 256t-247.5 101
q-149 0 -243.5 -101.5t-94.5 -255.5z" />
    <glyph glyph-name="ocircumflex" unicode="&#xf4;" horiz-adv-x="1216" 
d="M96 479q0 220 143.5 362t368.5 142q224 0 368 -141t144 -363q0 -221 -144.5 -362.5t-367.5 -141.5t-367.5 141.5t-144.5 362.5zM268 479q0 -156 95 -256t245 -100q152 0 246 101t94 255q0 155 -94.5 256t-247.5 101q-149 0 -243.5 -101.5t-94.5 -255.5zM287 1188l227 295
h186l230 -295h-166l-162 209l-160 -209h-155z" />
    <glyph glyph-name="otilde" unicode="&#xf5;" horiz-adv-x="1216" 
d="M852 1434h98q-17 -103 -66 -158t-124 -55q-58 0 -160 41t-141 41q-34 0 -59.5 -26t-34.5 -65h-99q15 97 70.5 155t134.5 58q61 0 157 -41t128 -41q39 0 60.5 24t35.5 67zM608 983q224 0 368 -141t144 -363q0 -221 -144.5 -362.5t-367.5 -141.5t-367.5 141.5t-144.5 362.5
q0 220 143.5 362t368.5 142zM268 479q0 -156 95 -256t245 -100q152 0 246 101t94 255q0 155 -94.5 256t-247.5 101q-149 0 -243.5 -101.5t-94.5 -255.5z" />
    <glyph glyph-name="odieresis" unicode="&#xf6;" horiz-adv-x="1216" 
d="M406 1434q44 0 77 -34t33 -77q0 -44 -33 -77.5t-77 -33.5t-77.5 33.5t-33.5 77.5q0 43 33.5 77t77.5 34zM811 1434q44 0 77.5 -33.5t33.5 -77.5q0 -47 -32 -79t-79 -32q-45 0 -78 32t-33 79q0 44 33.5 77.5t77.5 33.5zM608 983q224 0 368 -141t144 -363
q0 -221 -144.5 -362.5t-367.5 -141.5t-367.5 141.5t-144.5 362.5q0 220 143.5 362t368.5 142zM268 479q0 -156 95 -256t245 -100q152 0 246 101t94 255q0 155 -94.5 256t-247.5 101q-149 0 -243.5 -101.5t-94.5 -255.5z" />
    <glyph glyph-name="divide" unicode="&#xf7;" horiz-adv-x="1363" 
d="M682 1075q45 0 81 -35t36 -82t-35 -81.5t-82 -34.5t-82 34.5t-35 81.5q0 48 34 82.5t83 34.5zM1217 688v-135h-1070v135h1070zM682 399q45 0 81 -35t36 -81q0 -49 -34.5 -83t-82.5 -34q-47 0 -82 35t-35 82q0 48 34 82t83 34z" />
    <glyph glyph-name="oslash" unicode="&#xf8;" horiz-adv-x="1216" 
d="M1071 1020l70 -66l-137 -141q116 -138 116 -334q0 -220 -143.5 -362t-368.5 -142q-191 0 -323 107l-140 -143l-69 65l139 143q-119 132 -119 332q0 221 144 362.5t368 141.5q187 0 326 -104zM268 479q0 -124 64 -213l489 498q-87 72 -215 72q-149 0 -243.5 -101.5
t-94.5 -255.5zM395 195q89 -72 213 -72q151 0 245.5 101t94.5 255q0 125 -63 213z" />
    <glyph glyph-name="ugrave" unicode="&#xf9;" 
d="M152 358v600h159v-581q0 -115 54.5 -184.5t164.5 -69.5q146 0 221.5 96.5t75.5 263.5v475h160v-745q0 -31 4 -110t4 -103h-151q0 35 -2 81t-2 77h-4q-37 -81 -125 -132t-197 -51q-175 0 -268.5 103t-93.5 280zM565 1188l-293 295h226l213 -295h-146z" />
    <glyph glyph-name="uacute" unicode="&#xfa;" 
d="M152 358v600h159v-581q0 -115 54.5 -184.5t164.5 -69.5q146 0 221.5 96.5t75.5 263.5v475h160v-745q0 -31 4 -110t4 -103h-151q0 35 -2 81t-2 77h-4q-37 -81 -125 -132t-197 -51q-175 0 -268.5 103t-93.5 280zM573 1188h-145l213 295h225z" />
    <glyph glyph-name="ucircumflex" unicode="&#xfb;" 
d="M152 358v600h159v-581q0 -115 54.5 -184.5t164.5 -69.5q146 0 221.5 96.5t75.5 263.5v475h160v-745q0 -31 4 -110t4 -103h-151q0 35 -2 81t-2 77h-4q-37 -81 -125 -132t-197 -51q-175 0 -268.5 103t-93.5 280zM403 1188h-155l227 295h187l229 -295h-166l-162 209z" />
    <glyph glyph-name="udieresis" unicode="&#xfc;" 
d="M152 358v600h159v-581q0 -115 54.5 -184.5t164.5 -69.5q146 0 221.5 96.5t75.5 263.5v475h160v-745q0 -31 4 -110t4 -103h-151q0 35 -2 81t-2 77h-4q-37 -81 -125 -132t-197 -51q-175 0 -268.5 103t-93.5 280zM772 1212q-45 0 -77.5 32t-32.5 79q0 44 33 77.5t77 33.5
t77.5 -33.5t33.5 -77.5q0 -47 -32 -79t-79 -32zM367 1212q-44 0 -77.5 33.5t-33.5 77.5q0 43 33.5 77t77.5 34t77 -34t33 -77q0 -44 -33 -77.5t-77 -33.5z" />
    <glyph glyph-name="yacute" unicode="&#xfd;" horiz-adv-x="987" 
d="M418 -6l-398 964h187l297 -751h4l285 751h174l-469 -1194q-57 -145 -128.5 -200.5t-185.5 -55.5q-83 0 -143 25l20 139q38 -16 113 -16q62 0 102.5 32.5t69.5 108.5zM352 1188l213 295h226l-293 -295h-146z" />
    <glyph glyph-name="thorn" unicode="&#xfe;" horiz-adv-x="1251" 
d="M303 -467h-160v2015h160v-729h4q142 164 344 164q224 0 364 -142t140 -362q0 -140 -63 -256t-173 -182t-243 -66q-121 0 -221 53.5t-148 141.5h-4v-637zM303 479q0 -156 95 -256t245 -100q152 0 246 101t94 255q0 155 -94.5 256t-247.5 101q-149 0 -243.5 -101.5
t-94.5 -255.5z" />
    <glyph glyph-name="ydieresis" unicode="&#xff;" horiz-adv-x="987" 
d="M20 958h187l297 -751h4l285 751h174l-469 -1194q-57 -145 -128.5 -200.5t-185.5 -55.5q-83 0 -143 25l20 139q38 -16 113 -16q62 0 102.5 32.5t69.5 108.5l72 197zM696 1212q-45 0 -77.5 32t-32.5 79q0 44 33 77.5t77 33.5t77.5 -33.5t33.5 -77.5q0 -47 -32 -79t-79 -32z
M291 1212q-44 0 -77.5 33.5t-33.5 77.5q0 43 33.5 77t77.5 34t77 -34t33 -77q0 -44 -33 -77.5t-77 -33.5z" />
    <glyph glyph-name="dotlessi" unicode="&#x131;" horiz-adv-x="491" 
d="M326 958v-958h-160v958h160z" />
    <glyph glyph-name="Lslash" unicode="&#x141;" horiz-adv-x="1024" 
d="M20 477l160 137v836h172v-688l443 381v-162l-443 -381v-440h664v-160h-836v453l-160 -138v162z" />
    <glyph glyph-name="lslash" unicode="&#x142;" horiz-adv-x="491" 
d="M0 633l166 166v749h160v-590l166 166v-166l-166 -165v-793h-160v631l-166 -166v168z" />
    <glyph glyph-name="OE" unicode="&#x152;" horiz-adv-x="1972" 
d="M113 725q0 155 57 288t160 230t254.5 152t333.5 55h929v-160h-614v-454h577v-160h-577v-516h627v-160h-947q-238 0 -421 94.5t-281 259t-98 371.5zM297 725q0 -119 43.5 -222.5t122.5 -179.5t196 -119.5t256 -43.5h146v1130h-152q-270 0 -441 -159.5t-171 -405.5z" />
    <glyph glyph-name="oe" unicode="&#x153;" horiz-adv-x="1857" 
d="M567 983q129 0 226 -45.5t174 -146.5q147 192 362 192q205 0 330 -133t125 -383v-37h-740q3 -131 81.5 -219t197.5 -88q101 0 174 35t131 110l121 -94q-77 -101 -179 -150t-247 -49q-116 0 -207 51.5t-149 145.5q-147 -197 -394 -197q-226 0 -362.5 137.5t-136.5 366.5
q0 217 138.5 360.5t354.5 143.5zM246 479q0 -156 87 -256t232 -100q151 0 241.5 97.5t90.5 258.5q0 157 -88.5 257t-237.5 100q-147 0 -236 -99t-89 -258zM1612 565q-5 124 -83 197.5t-206 73.5q-106 0 -188 -78t-91 -193h568z" />
    <glyph glyph-name="Scaron" unicode="&#x160;" 
d="M78 164l147 121q47 -77 129.5 -119.5t180.5 -42.5q127 0 221 71t94 181q0 32 -5 58.5t-18 48.5t-25.5 38.5t-38 32.5t-45 27t-56 24.5t-62 22t-72.5 24t-77 25.5q-183 64 -261.5 156t-78.5 237q0 187 138.5 302.5t354.5 115.5q258 0 406 -170l-142 -123
q-41 66 -111.5 99.5t-152.5 33.5q-138 0 -223.5 -66.5t-85.5 -177.5q0 -102 70 -159t241 -109q242 -71 335 -169t93 -259q0 -192 -143 -308t-367 -116q-148 0 -265.5 53.5t-180.5 147.5zM250 1847h166l159 -209l158 209h156l-225 -295h-187z" />
    <glyph glyph-name="scaron" unicode="&#x161;" horiz-adv-x="872" 
d="M45 154l127 98q59 -71 116 -100t130 -29q92 0 151.5 40t59.5 107q0 66 -56 100t-215 68q-143 31 -207.5 93t-64.5 169q0 127 103 205t255 78q111 0 196.5 -45t129.5 -129l-133 -88q-69 115 -203 115q-81 0 -134.5 -37.5t-53.5 -96.5q0 -94 239 -139q169 -32 242.5 -100
t73.5 -187q0 -140 -104 -220.5t-279 -80.5q-132 0 -220.5 43t-152.5 136zM344 1188l-227 295h166l159 -209l158 209h156l-226 -295h-186z" />
    <glyph glyph-name="Ydieresis" unicode="&#x178;" horiz-adv-x="1216" 
d="M522 625l-540 825h219l407 -655l420 655h207l-541 -825v-625h-172v625zM811 1577q-47 0 -79 32t-32 79q0 45 32 77.5t79 32.5t79 -32.5t32 -77.5q0 -47 -32 -79t-79 -32zM295 1688q0 44 33.5 77t77.5 33t77 -33t33 -77q0 -47 -32.5 -79t-77.5 -32t-78 32t-33 79z" />
    <glyph glyph-name="Zcaron" unicode="&#x17d;" horiz-adv-x="1175" 
d="M1116 0h-1057v154l838 1136h-825v160h1034v-147l-838 -1143h848v-160zM496 1552l-228 295h166l160 -209l158 209h155l-225 -295h-186z" />
    <glyph glyph-name="zcaron" unicode="&#x17e;" horiz-adv-x="909" 
d="M848 0h-787v125l564 698h-539v135h748v-122l-564 -701h578v-135zM362 1188l-227 295h166l160 -209l157 209h156l-225 -295h-187z" />
    <glyph glyph-name="florin" unicode="&#x192;" 
d="M-20 -246l73 129q55 -30 107 -30q67 0 107.5 43t64.5 172l123 667h-222v135h248l47 250q17 90 46 156t60 103.5t71.5 60t74 29t72.5 6.5q122 0 213 -58l-76 -127q-56 37 -117 37q-69 0 -110.5 -46t-61.5 -148l-51 -263h234v-135h-258l-131 -692q-34 -180 -112.5 -259
t-223.5 -79q-101 0 -178 49z" />
    <glyph glyph-name="circumflex" unicode="&#x2c6;" horiz-adv-x="491" 
d="M80 1155h-156l228 295h186l229 -295h-166l-161 209z" />
    <glyph glyph-name="caron" unicode="&#x2c7;" horiz-adv-x="491" 
d="M-74 1450h166l160 -209l158 209h155l-225 -295h-186z" />
    <glyph glyph-name="uni02C9" unicode="&#x2c9;" horiz-adv-x="491" 
d="M528 1352v-123h-565v123h565z" />
    <glyph glyph-name="breve" unicode="&#x2d8;" horiz-adv-x="491" 
d="M-68 1438h101q17 -78 74 -119t139 -41q94 0 143 36t72 124h98q-13 -132 -95.5 -201.5t-219.5 -69.5t-221 71t-91 200z" />
    <glyph glyph-name="dotaccent" unicode="&#x2d9;" horiz-adv-x="491" 
d="M246 1401q46 0 78 -33t32 -78q0 -50 -30 -80t-80 -30q-47 0 -79 31.5t-32 78.5q0 45 32 78t79 33z" />
    <glyph glyph-name="ring" unicode="&#x2da;" horiz-adv-x="491" 
d="M246 1524q87 0 145 -58t58 -145q0 -85 -58.5 -144t-144.5 -59q-85 0 -144 59t-59 144t59 144t144 59zM129 1321q0 -48 34 -82.5t83 -34.5t82.5 34.5t33.5 82.5q0 45 -35 81t-81 36q-47 0 -82 -36t-35 -81z" />
    <glyph glyph-name="ogonek" unicode="&#x2db;" horiz-adv-x="491" 
d="M223 0h105q-74 -56 -115 -117.5t-41 -118.5q0 -42 23.5 -68t66.5 -26q70 0 111 41l43 -84q-80 -80 -189 -80q-79 0 -134.5 50.5t-55.5 123.5q0 70 51 148t135 131z" />
    <glyph glyph-name="tilde" unicode="&#x2dc;" horiz-adv-x="491" 
d="M489 1401h99q-17 -103 -66.5 -158t-124.5 -55q-58 0 -160 41t-141 41q-34 0 -59.5 -25.5t-34.5 -64.5h-98q15 97 70.5 155t134.5 58q61 0 156.5 -41t127.5 -41q39 0 60.5 23.5t35.5 66.5z" />
    <glyph glyph-name="hungarumlaut" unicode="&#x2dd;" horiz-adv-x="491" 
d="M414 1155h-140l224 295h209zM92 1155h-137l205 295h196z" />
    <glyph glyph-name="uni0394" unicode="&#x394;" horiz-adv-x="1372" 
d="M758 1458l588 -1458h-1315l575 1458h152zM217 127h932l-469 1194z" />
    <glyph glyph-name="uni0394" unicode="&#x3b4;" horiz-adv-x="1372" 
d="M758 1458l588 -1458h-1315l575 1458h152zM217 127h932l-469 1194z" />
    <glyph glyph-name="uni03A9" unicode="&#x3a9;" horiz-adv-x="1523" 
d="M96 119h404v168q-186 52 -295 208.5t-109 356.5q0 134 53 251.5t142 198.5t209 128t252 47q130 0 249 -46.5t208 -127.5t141.5 -198t52.5 -251t-46 -249t-138.5 -199.5t-219.5 -118.5v-168h404v-119h-514v371q178 31 277.5 158.5t99.5 320.5q0 219 -149.5 360.5
t-366.5 141.5t-367 -143t-150 -359q0 -192 99.5 -321t277.5 -158v-371h-514v119z" />
    <glyph glyph-name="uni03A9" unicode="&#x3c9;" horiz-adv-x="1523" 
d="M96 119h404v168q-186 52 -295 208.5t-109 356.5q0 134 53 251.5t142 198.5t209 128t252 47q130 0 249 -46.5t208 -127.5t141.5 -198t52.5 -251t-46 -249t-138.5 -199.5t-219.5 -118.5v-168h404v-119h-514v371q178 31 277.5 158.5t99.5 320.5q0 219 -149.5 360.5
t-366.5 141.5t-367 -143t-150 -359q0 -192 99.5 -321t277.5 -158v-371h-514v119z" />
    <glyph glyph-name="uni03BC" unicode="&#x3bc;" 
d="M152 -467v1425h159v-581q0 -116 54 -185t165 -69q146 0 221.5 96t75.5 264v475h160v-745q0 -31 4 -110t4 -103h-151q0 18 -2 71t-2 87h-4q-37 -81 -125 -132t-197 -51q-112 0 -203 52v-494h-159z" />
    <glyph glyph-name="pi" unicode="&#x3c0;" horiz-adv-x="1153" 
d="M209 838h-143v120h1011v-120h-155v-631q0 -59 17.5 -82t59.5 -23q39 0 86 21v-100q-69 -35 -131 -35q-84 0 -123.5 45.5t-39.5 163.5v641h-451v-838h-131v838z" />
    <glyph glyph-name="uni060C" unicode="&#x60c;" horiz-adv-x="618" 
d="M156 0l168 492h157l-139 -492h-186z" />
    <glyph glyph-name="uni0615" unicode="&#x615;" horiz-adv-x="0" 
d="M-272 1130v82h100v349h82v-207q81 94 182 94q82 0 131 -55.5t49 -145.5q0 -58 -20 -117h-524zM86 1366q-52 0 -101 -40t-79 -114h282q5 30 5 37q0 53 -29.5 85t-77.5 32z" />
    <glyph glyph-name="uni061B" unicode="&#x61b;" horiz-adv-x="581" 
d="M182 385l168 492h158l-139 -492h-187zM260 -12q-48 0 -85.5 36.5t-37.5 86.5q0 51 36 86.5t87 35.5t87 -35.5t36 -86.5q0 -49 -36.5 -86t-86.5 -37z" />
    <glyph glyph-name="uni061F" unicode="&#x61f;" horiz-adv-x="952" 
d="M387 406v118q0 28 -1 40.5t-7.5 36.5t-20 44t-40 50t-66.5 67q-110 100 -153.5 182t-43.5 178q0 165 110.5 265t289.5 100q172 0 289.5 -93t146.5 -257l-184 -21q-17 103 -84 163t-166 60q-98 0 -157.5 -61.5t-59.5 -161.5q0 -69 32.5 -124t92.5 -115q115 -116 140 -149
q46 -60 52 -134q2 -22 2 -49v-139h-172zM473 -12q-48 0 -85.5 37t-37.5 86q0 51 36.5 86.5t86.5 35.5t86.5 -36.5t36.5 -85.5t-37 -86t-86 -37z" />
    <glyph glyph-name="uni0621" unicode="&#x621;" horiz-adv-x="966" 
d="M115 139h182q-82 107 -82 244q0 160 113 268.5t288 108.5q110 0 205 -31l-30 -137q-77 20 -152 20q-127 0 -202 -64t-75 -179q0 -118 103 -230h399v-139h-749v139z" />
    <glyph glyph-name="uni0622" unicode="&#x622;" horiz-adv-x="466" 
d="M362 1667q-56 0 -163 26.5t-138 26.5q-43 0 -92 -34l-55 65q77 72 154 72q38 0 142 -28t144 -28q32 0 53 9.5t60 40.5l61 -60q-58 -90 -166 -90zM154 0v1548h159v-1548h-159z" />
    <glyph glyph-name="uni0623" unicode="&#x623;" horiz-adv-x="466" 
d="M154 1548h159v-1548h-159v1548zM74 1657v80h71q-28 51 -28 100q0 70 48 112t124 42q35 0 98 -13l-14 -77q-36 8 -68 8q-46 0 -75 -21.5t-29 -62.5q0 -40 28 -88h177v-80h-332z" />
    <glyph glyph-name="uni0624" unicode="&#x624;" horiz-adv-x="1028" 
d="M535 0q-197 0 -309.5 109t-112.5 299q0 90 28 170.5t79.5 142.5t131 98.5t176.5 36.5q188 0 287.5 -108.5t99.5 -282.5v-381q0 -74 -17 -137t-58.5 -120t-105 -96.5t-162 -63t-224.5 -23.5q-26 0 -96 4l-8 145q66 -4 96 -4q201 0 307.5 63t106.5 191q-101 -43 -219 -43z
M276 426q0 -136 73.5 -203t207.5 -67q108 0 199 32v218q0 148 -62 221t-174 73q-108 0 -176 -72.5t-68 -201.5zM301 1114v103h92q-35 62 -35 129q0 89 60 141.5t157 52.5q59 0 127 -14l-18 -101q-63 11 -86 11q-55 0 -94 -26t-39 -83q0 -52 37 -110h225v-103h-426z" />
    <glyph glyph-name="uni0625" unicode="&#x625;" horiz-adv-x="466" 
d="M154 1548h159v-1548h-159v1548zM66 -510v80h71q-28 51 -28 100q0 70 48 112t124 42q40 0 98 -12l-14 -78q-36 8 -68 8q-46 0 -75 -21.5t-29 -62.5q0 -40 28 -88h176v-80h-331z" />
    <glyph glyph-name="uni0626" unicode="&#x626;" horiz-adv-x="1556" 
d="M762 -336q-680 0 -680 436q0 119 49 269l148 -39q-33 -132 -33 -209q0 -162 126 -231.5t390 -69.5q241 0 374.5 53.5t133.5 138.5q0 37 -28 69t-73 58.5t-99.5 53.5t-109 59t-99.5 69t-73 91t-28 118q0 140 111 233t309 93q91 0 219 -31l-29 -151q-101 26 -196 26
q-118 0 -183 -44t-65 -117q0 -45 28 -82t73 -64t99 -52.5t108 -54t99 -62t73 -83t28 -110.5q0 -164 -183.5 -265.5t-488.5 -101.5zM158 655h92q-35 62 -35 129q0 90 60 142.5t157 52.5q59 0 127 -14l-18 -101q-57 10 -86 10q-55 0 -94 -26t-39 -82q0 -55 36 -111h226v-102
h-426v102z" />
    <glyph glyph-name="uni0627" unicode="&#x627;" horiz-adv-x="466" 
d="M154 0v1548h159v-1548h-159z" />
    <glyph glyph-name="uni0628" unicode="&#x628;" horiz-adv-x="1902" 
d="M1630 834h160v-480q0 -157 -104.5 -255.5t-294.5 -98.5h-844q-216 0 -340.5 104.5t-124.5 282.5q0 146 65 322l148 -39q-49 -175 -49 -254q0 -264 323 -264h803q134 0 196 62.5t62 209.5v410zM905 -178q44 0 71.5 -29t27.5 -74q0 -43 -27.5 -71.5t-71.5 -28.5
q-45 0 -73.5 28.5t-28.5 71.5q0 45 28.5 74t73.5 29z" />
    <glyph glyph-name="uni0629" unicode="&#x629;" horiz-adv-x="1060" 
d="M367 1094q-43 0 -72 29t-29 73q0 43 29 71.5t72 28.5q44 0 72 -28.5t28 -71.5q0 -44 -28 -73t-72 -29zM655 1094q-44 0 -73 29t-29 73q0 43 29 71.5t73 28.5q43 0 71 -28.5t28 -71.5q0 -44 -28 -73t-71 -29zM514 -10q-106 0 -189.5 32.5t-136 89.5t-79.5 131t-27 160
q0 88 28 168t80 144t136 102.5t188 38.5q105 0 189.5 -38.5t136.5 -103t80 -144.5t28 -167q0 -185 -117 -299t-317 -114zM520 145q125 0 194.5 64t69.5 199q0 131 -68 211.5t-202 80.5t-201 -81t-67 -209q0 -135 73 -200t201 -65z" />
    <glyph glyph-name="uni062A" unicode="&#x62a;" horiz-adv-x="1902" 
d="M778 879q-43 0 -71.5 29t-28.5 73q0 43 28.5 71.5t71.5 28.5q44 0 72.5 -28.5t28.5 -71.5q0 -44 -28.5 -73t-72.5 -29zM1067 879q-44 0 -73 29t-29 73q0 43 29 71.5t73 28.5q43 0 70.5 -28.5t27.5 -71.5q0 -44 -27.5 -73t-70.5 -29zM1630 834h160v-480
q0 -157 -104.5 -255.5t-294.5 -98.5h-844q-216 0 -340.5 104.5t-124.5 282.5q0 146 65 322l148 -39q-49 -175 -49 -254q0 -264 323 -264h803q134 0 196 62.5t62 209.5v410z" />
    <glyph glyph-name="uni062B" unicode="&#x62b;" horiz-adv-x="1902" 
d="M928 1110q-43 0 -72 29t-29 73q0 42 29.5 71.5t71.5 29.5q43 0 71.5 -29.5t28.5 -71.5q0 -44 -28 -73t-72 -29zM778 879q-43 0 -71.5 29t-28.5 73q0 43 28.5 71.5t71.5 28.5q44 0 72.5 -28.5t28.5 -71.5q0 -44 -28.5 -73t-72.5 -29zM965 981q0 43 29 71.5t73 28.5
q43 0 70.5 -28.5t27.5 -71.5q0 -44 -27.5 -73t-70.5 -29q-44 0 -73 29t-29 73zM1630 834h160v-480q0 -157 -104.5 -255.5t-294.5 -98.5h-844q-216 0 -340.5 104.5t-124.5 282.5q0 146 65 322l148 -39q-49 -175 -49 -254q0 -264 323 -264h803q134 0 196 62.5t62 209.5v410z
" />
    <glyph glyph-name="uni062C" unicode="&#x62c;" horiz-adv-x="1273" 
d="M618 856q134 0 237 -40.5t167 -114.5t96.5 -174t32.5 -224q0 -142 -41 -303h-649q-104 0 -159.5 -47.5t-55.5 -136.5q0 -96 67 -144.5t193 -48.5q49 0 104 10l31 -149q-72 -16 -156 -16q-179 0 -291 92t-112 254q0 154 97.5 246t262.5 92h537q16 62 16 139
q0 187 -101 298t-300 111q-101 0 -219 -36l-37 143q132 49 280 49zM618 -74q39 0 64 -26t25 -66t-24.5 -65t-64.5 -25q-41 0 -66.5 25t-25.5 65t25.5 66t66.5 26z" />
    <glyph glyph-name="uni062D" unicode="&#x62d;" horiz-adv-x="1273" 
d="M461 0q-104 0 -159.5 -47.5t-55.5 -136.5q0 -96 67 -144.5t193 -48.5q72 0 178 27l29 -146q-113 -36 -228 -36q-179 0 -291 92t-112 254q0 154 97.5 246t262.5 92h537q16 62 16 139q0 187 -101 298t-300 111q-101 0 -219 -36l-37 143q132 49 280 49q134 0 237 -40.5
t167 -114.5t96.5 -174t32.5 -224q0 -142 -41 -303h-649z" />
    <glyph glyph-name="uni062E" unicode="&#x62e;" horiz-adv-x="1273" 
d="M618 1094q-45 0 -73.5 28.5t-28.5 73.5q0 43 28.5 71.5t73.5 28.5q44 0 71.5 -28.5t27.5 -71.5q0 -45 -27.5 -73.5t-71.5 -28.5zM461 0q-104 0 -159.5 -47.5t-55.5 -136.5q0 -96 67 -144.5t193 -48.5q72 0 178 27l29 -146q-113 -36 -228 -36q-179 0 -291 92t-112 254
q0 154 97.5 246t262.5 92h537q16 62 16 139q0 187 -101 298t-300 111q-101 0 -219 -36l-37 143q132 49 280 49q134 0 237 -40.5t167 -114.5t96.5 -174t32.5 -224q0 -142 -41 -303h-649z" />
    <glyph glyph-name="uni062F" unicode="&#x62f;" horiz-adv-x="1046" 
d="M82 0v152h682v36q0 161 -107 308t-299 270l97 129q137 -90 230 -180.5t144.5 -185t73 -187.5t21.5 -205v-137h-842z" />
    <glyph glyph-name="uni0630" unicode="&#x630;" horiz-adv-x="1046" 
d="M393 1071q-45 0 -73.5 29t-28.5 74q0 43 28.5 71.5t73.5 28.5q44 0 71.5 -28.5t27.5 -71.5q0 -45 -27.5 -74t-71.5 -29zM82 0v152h682v36q0 161 -107 308t-299 270l97 129q137 -90 230 -180.5t144.5 -185t73 -187.5t21.5 -205v-137h-842z" />
    <glyph glyph-name="uni0631" unicode="&#x631;" horiz-adv-x="602" 
d="M25 -352l-33 147q105 17 168 53t96 105t33 178v703h160v-668q0 -470 -424 -518z" />
    <glyph glyph-name="uni0632" unicode="&#x632;" horiz-adv-x="602" 
d="M369 1071q-45 0 -74 29t-29 74q0 43 29 71.5t74 28.5q44 0 71 -28.5t27 -71.5q0 -45 -27 -74t-71 -29zM25 -352l-33 147q105 17 168 53t96 105t33 178v703h160v-668q0 -470 -424 -518z" />
    <glyph glyph-name="uni0633" unicode="&#x633;" horiz-adv-x="2453" 
d="M631 -336q-135 0 -241 36.5t-172.5 101t-101 150.5t-34.5 189q0 162 86 365l143 -49q-65 -162 -65 -295q0 -174 102 -258t289 -84q395 0 395 379v485h160v-365q0 -167 199 -167q107 0 160 55t53 201v276h159v-362q0 -170 209 -170q114 0 161.5 62t47.5 210v410h160v-480
q0 -167 -97 -260.5t-270 -93.5q-97 0 -169 33t-109 92q-91 -131 -303 -131q-138 0 -209 59q-32 -188 -179.5 -288.5t-373.5 -100.5z" />
    <glyph glyph-name="uni0634" unicode="&#x634;" horiz-adv-x="2453" 
d="M631 -336q-135 0 -241 36.5t-172.5 101t-101 150.5t-34.5 189q0 162 86 365l143 -49q-65 -162 -65 -295q0 -174 102 -258t289 -84q395 0 395 379v485h160v-365q0 -167 199 -167q107 0 160 55t53 201v276h159v-362q0 -170 209 -170q114 0 161.5 62t47.5 210v410h160v-480
q0 -167 -97 -260.5t-270 -93.5q-97 0 -169 33t-109 92q-91 -131 -303 -131q-138 0 -209 59q-32 -188 -179.5 -288.5t-373.5 -100.5zM1536 922q-43 0 -71.5 29t-28.5 73q0 43 28.5 71.5t71.5 28.5q44 0 72 -28.5t28 -71.5q0 -44 -28 -73t-72 -29zM1825 922q-44 0 -73.5 29
t-29.5 73q0 43 29.5 71.5t73.5 28.5q43 0 70.5 -28.5t27.5 -71.5q0 -44 -27.5 -73t-70.5 -29zM1585 1255q0 42 29.5 71.5t71.5 29.5q43 0 71.5 -29.5t28.5 -71.5q0 -44 -28 -73t-72 -29q-43 0 -72 29t-29 73z" />
    <glyph glyph-name="uni0635" unicode="&#x635;" horiz-adv-x="2732" 
d="M2154 856q222 0 338.5 -140.5t116.5 -371.5q0 -167 -57 -344h-1155q-135 0 -213 51q-33 -187 -180 -287t-373 -100q-135 0 -241 36.5t-172.5 101t-101 150.5t-34.5 189q0 162 86 365l143 -49q-65 -162 -65 -295q0 -174 102 -258t289 -84q395 0 395 379v485h160v-391
q0 -101 111 -131q386 694 851 694zM2423 152q24 94 24 184q0 162 -79.5 263t-229.5 101q-341 0 -665 -548h950z" />
    <glyph glyph-name="uni0636" unicode="&#x636;" horiz-adv-x="2732" 
d="M1974 1094q-45 0 -73.5 28.5t-28.5 73.5q0 43 28.5 71.5t73.5 28.5q44 0 71.5 -28.5t27.5 -71.5q0 -45 -27.5 -73.5t-71.5 -28.5zM2154 856q222 0 338.5 -140.5t116.5 -371.5q0 -167 -57 -344h-1155q-135 0 -213 51q-33 -187 -180 -287t-373 -100q-135 0 -241 36.5
t-172.5 101t-101 150.5t-34.5 189q0 162 86 365l143 -49q-65 -162 -65 -295q0 -174 102 -258t289 -84q395 0 395 379v485h160v-391q0 -101 111 -131q386 694 851 694zM2423 152q24 94 24 184q0 162 -79.5 263t-229.5 101q-341 0 -665 -548h950z" />
    <glyph glyph-name="uni0637" unicode="&#x637;" horiz-adv-x="1736" 
d="M82 0v152h213v1396h160v-1145q160 224 342 338.5t364 114.5q112 0 200.5 -41.5t142.5 -113t82 -163t28 -196.5q0 -159 -58 -342h-1474zM461 152h966q25 98 25 188q0 159 -78 259.5t-227 100.5q-168 0 -354 -143.5t-332 -404.5z" />
    <glyph glyph-name="uni0638" unicode="&#x638;" horiz-adv-x="1736" 
d="M82 0v152h213v1396h160v-1145q160 224 342 338.5t364 114.5q112 0 200.5 -41.5t142.5 -113t82 -163t28 -196.5q0 -159 -58 -342h-1474zM461 152h966q25 98 25 188q0 159 -78 259.5t-227 100.5q-168 0 -354 -143.5t-332 -404.5zM915 1196q0 43 29 71.5t74 28.5
q44 0 71 -28.5t27 -71.5q0 -45 -27 -73.5t-71 -28.5q-46 0 -74.5 29t-28.5 73z" />
    <glyph glyph-name="uni0639" unicode="&#x639;" horiz-adv-x="1062" 
d="M487 0q-115 0 -178 -47.5t-63 -134.5q0 -102 71 -148.5t193 -46.5q84 0 174 23l29 -146q-100 -32 -207 -32q-198 0 -311 91t-113 255q0 128 78 215t211 112q-121 147 -121 320q0 176 123.5 285.5t351.5 109.5q103 0 221 -31l-31 -151q-106 26 -192 26q-146 0 -225.5 -66
t-79.5 -183q0 -87 40 -165.5t95 -133.5h440v-152h-506z" />
    <glyph glyph-name="uni063A" unicode="&#x63a;" horiz-adv-x="1062" 
d="M725 1094q-45 0 -73.5 28.5t-28.5 73.5q0 43 28.5 71.5t73.5 28.5q44 0 71 -28.5t27 -71.5q0 -45 -27 -73.5t-71 -28.5zM487 0q-115 0 -178 -47.5t-63 -134.5q0 -102 71 -148.5t193 -46.5q84 0 174 23l29 -146q-100 -32 -207 -32q-198 0 -311 91t-113 255q0 128 78 215
t211 112q-121 147 -121 320q0 176 123.5 285.5t351.5 109.5q103 0 221 -31l-31 -151q-106 26 -192 26q-146 0 -225.5 -66t-79.5 -183q0 -87 40 -165.5t95 -133.5h440v-152h-506z" />
    <glyph glyph-name="uni0640" unicode="&#x640;" horiz-adv-x="106" 
d="M0 0v152h106q41 0 41 -76t-41 -76h-106z" />
    <glyph glyph-name="uni0641" unicode="&#x641;" horiz-adv-x="2129" 
d="M547 0q-216 0 -340.5 104.5t-124.5 282.5q0 146 65 322l148 -39q-49 -175 -49 -254q0 -264 323 -264h691q-86 110 -86 270q0 189 121.5 311.5t322.5 122.5q105 0 184 -36.5t124.5 -100t68 -141t22.5 -168.5q0 -189 -88 -410h-1382zM1337 418q0 -141 103 -266h377
q36 136 36 247q0 139 -62 220t-187 81q-127 0 -197 -78t-70 -204zM1516 1196q0 43 28.5 71.5t73.5 28.5q44 0 71 -28.5t27 -71.5q0 -45 -27 -73.5t-71 -28.5q-45 0 -73.5 28.5t-28.5 73.5z" />
    <glyph glyph-name="uni0642" unicode="&#x642;" horiz-adv-x="1587" 
d="M940 1094q-43 0 -71.5 29t-28.5 73q0 43 28.5 71.5t71.5 28.5q44 0 72 -28.5t28 -71.5q0 -44 -28 -73t-72 -29zM1229 1094q-44 0 -73.5 29t-29.5 73q0 43 29.5 71.5t73.5 28.5q43 0 70.5 -28.5t27.5 -71.5q0 -44 -27.5 -73t-70.5 -29zM797 -336q-361 0 -538 118t-177 357
q0 131 49 271l148 -39q-33 -103 -33 -209q0 -178 128.5 -260t424.5 -82q514 0 514 223q-101 -43 -219 -43q-197 0 -309.5 109t-112.5 299q0 90 28 170.5t79.5 142.5t131 98.5t176.5 36.5q188 0 288 -118t100 -308v-315q0 -231 -163 -341t-515 -110zM1116 156q108 0 199 32
v197q0 315 -236 315q-107 0 -175 -72.5t-68 -201.5q0 -136 73 -203t207 -67z" />
    <glyph glyph-name="uni0643" unicode="&#x643;" horiz-adv-x="1699" 
d="M547 0q-216 0 -340.5 104.5t-124.5 282.5q0 146 65 322l148 -39q-49 -175 -49 -254q0 -264 323 -264h584q73 0 118 13t71 47t35 82.5t9 129.5v1124h160v-1194q0 -184 -99 -269t-294 -85h-606zM1044 649h-405v99h104q-32 51 -32 114q0 81 58 137t153 56q38 0 100 -17
l-16 -96q-46 12 -82 12q-49 0 -80 -24t-31 -74q0 -60 41 -108h190v-99z" />
    <glyph glyph-name="uni0644" unicode="&#x644;" horiz-adv-x="1345" 
d="M625 -336q-250 0 -396.5 129.5t-146.5 347.5q0 162 86 365l141 -49q-34 -108 -48.5 -170.5t-14.5 -128.5q0 -338 389 -338q397 0 397 379v1349h160v-1392q0 -229 -153.5 -360.5t-413.5 -131.5z" />
    <glyph glyph-name="uni0645" unicode="&#x645;" horiz-adv-x="1323" 
d="M82 -532v350q0 157 87 245.5t245 88.5h26q-78 128 -78 272q0 191 126 311.5t317 120.5q190 0 297.5 -122.5t107.5 -309.5q0 -69 -15 -129.5t-50 -115.5t-88.5 -94t-135 -62t-184.5 -23h-321q-83 0 -130.5 -46.5t-47.5 -135.5v-350h-156zM788 700q-116 0 -189 -72
t-73 -202q0 -56 17 -111t33.5 -85.5t46.5 -77.5h131q80 0 138.5 22t91.5 61t48 86.5t15 104.5q0 125 -70.5 199.5t-188.5 74.5z" />
    <glyph glyph-name="uni0646" unicode="&#x646;" horiz-adv-x="1345" 
d="M655 838q-45 0 -73.5 28.5t-28.5 73.5q0 43 28.5 71.5t73.5 28.5q44 0 71.5 -28.5t27.5 -71.5q0 -45 -27.5 -73.5t-71.5 -28.5zM631 -336q-135 0 -241 36.5t-172.5 101t-101 150.5t-34.5 189q0 162 86 365l143 -49q-65 -162 -65 -295q0 -174 102 -258t289 -84
q395 0 395 379v485h160v-528q0 -237 -152.5 -364.5t-408.5 -127.5z" />
    <glyph glyph-name="uni0647" unicode="&#x647;" horiz-adv-x="1060" 
d="M514 -10q-106 0 -189.5 32.5t-136 89.5t-79.5 131t-27 160q0 88 28 168t80 144t136 102.5t188 38.5q105 0 189.5 -38.5t136.5 -103t80 -144.5t28 -167q0 -185 -117 -299t-317 -114zM520 145q125 0 194.5 64t69.5 199q0 131 -68 211.5t-202 80.5t-201 -81t-67 -209
q0 -135 73 -200t201 -65z" />
    <glyph glyph-name="uni0648" unicode="&#x648;" horiz-adv-x="1028" 
d="M252 -352l-8 145q66 -4 96 -4q201 0 307.5 63t106.5 191q-101 -43 -219 -43q-197 0 -309.5 109t-112.5 299q0 90 28 170.5t79.5 142.5t131 98.5t176.5 36.5q188 0 287.5 -108.5t99.5 -282.5v-381q0 -74 -17 -137t-58.5 -120t-105 -96.5t-162 -63t-224.5 -23.5
q-26 0 -96 4zM557 156q108 0 199 32v218q0 148 -62 221t-174 73q-108 0 -176 -72.5t-68 -201.5q0 -136 73.5 -203t207.5 -67z" />
    <glyph glyph-name="uni0649" unicode="&#x649;" horiz-adv-x="1556" 
d="M762 -336q-680 0 -680 436q0 119 49 269l148 -39q-33 -132 -33 -209q0 -162 126 -231.5t390 -69.5q241 0 374.5 53.5t133.5 138.5q0 37 -28 69t-73 58.5t-99.5 53.5t-109 59t-99.5 69t-73 91t-28 118q0 140 111 233t309 93q91 0 219 -31l-29 -151q-101 26 -196 26
q-118 0 -183 -44t-65 -117q0 -45 28 -82t73 -64t99 -52.5t108 -54t99 -62t73 -83t28 -110.5q0 -164 -183.5 -265.5t-488.5 -101.5z" />
    <glyph glyph-name="uni064A" unicode="&#x64a;" horiz-adv-x="1556" 
d="M762 -336q-680 0 -680 436q0 119 49 269l148 -39q-33 -132 -33 -209q0 -162 126 -231.5t390 -69.5q241 0 374.5 53.5t133.5 138.5q0 37 -28 69t-73 58.5t-99.5 53.5t-109 59t-99.5 69t-73 91t-28 118q0 140 111 233t309 93q91 0 219 -31l-29 -151q-101 26 -196 26
q-118 0 -183 -44t-65 -117q0 -45 28 -82t73 -64t99 -52.5t108 -54t99 -62t73 -83t28 -110.5q0 -164 -183.5 -265.5t-488.5 -101.5zM608 -717q-43 0 -71.5 29t-28.5 72q0 44 28.5 73t71.5 29q44 0 72.5 -29t28.5 -73q0 -43 -28.5 -72t-72.5 -29zM897 -717q-44 0 -73 29
t-29 72q0 44 29 73t73 29q43 0 70.5 -29t27.5 -73q0 -43 -28 -72t-70 -29z" />
    <glyph glyph-name="uni064B" unicode="&#x64b;" horiz-adv-x="0" 
d="M-231 1303l-7 2l13 77l456 70l7 -2l-13 -78zM-231 1114l-7 2l13 78l456 70l7 -2l-13 -78z" />
    <glyph glyph-name="uni064C" unicode="&#x64c;" horiz-adv-x="0" 
d="M152 1577q59 0 95 -51.5t36 -134.5q0 -118 -68 -191.5t-152 -73.5q-41 0 -76 23t-54.5 51t-42 51t-40.5 23q-31 0 -81 -68l-52 47q67 99 140 99q31 0 61 -23t50 -51t47.5 -51t54.5 -23q39 0 69.5 24.5t48.5 65.5q-8 -2 -28 -2q-64 0 -108 31.5t-44 93.5q0 63 42.5 111.5
t101.5 48.5zM176 1368q21 0 33 2v19q0 110 -64 110q-29 0 -47 -22t-18 -50q0 -59 96 -59z" />
    <glyph glyph-name="uni064D" unicode="&#x64d;" horiz-adv-x="0" 
d="M-231 -334l-7 2l13 78l456 70l7 -2l-13 -78zM-231 -502l-7 2l13 78l456 70l7 -2l-13 -78z" />
    <glyph glyph-name="uni064E" unicode="&#x64e;" horiz-adv-x="0" 
d="M-231 1114l-7 2l13 78l456 70l7 -2l-13 -78z" />
    <glyph glyph-name="uni064F" unicode="&#x64f;" horiz-adv-x="0" 
d="M37 1577q59 0 95 -51.5t36 -134.5q0 -127 -64 -196t-155 -69q-64 0 -117 31l33 70q44 -23 84 -23t73 24.5t52 65.5q-8 -2 -29 -2q-64 0 -107.5 31.5t-43.5 93.5q0 63 42 111.5t101 48.5zM61 1368q21 0 33 2v19q0 47 -16 78.5t-49 31.5q-29 0 -46.5 -22t-17.5 -50
q0 -59 96 -59z" />
    <glyph glyph-name="uni0650" unicode="&#x650;" horiz-adv-x="0" 
d="M-231 -334l-7 2l13 78l456 70l7 -2l-13 -78z" />
    <glyph glyph-name="uni0651" unicode="&#x651;" horiz-adv-x="0" 
d="M207 1407q31 -58 31 -119q0 -63 -34 -102t-93 -39q-60 0 -97 37q-31 -58 -110 -58q-67 0 -104.5 37t-37.5 97q0 47 23 100l55 -14q-8 -31 -8 -58q0 -74 72 -74q59 0 59 76q0 25 -2 39l59 14q13 -47 13 -79v-2q27 -31 71 -31q62 0 62 61q0 39 -16 92z" />
    <glyph glyph-name="uni0652" unicode="&#x652;" horiz-adv-x="0" 
d="M0 1120q-67 0 -104 37t-37 103q0 65 38.5 117.5t102.5 52.5t102.5 -52.5t38.5 -117.5q0 -66 -37 -103t-104 -37zM0 1200q61 0 61 66q0 35 -16.5 58.5t-44.5 23.5t-44.5 -23.5t-16.5 -58.5q0 -66 61 -66z" />
    <glyph glyph-name="uni0653" unicode="&#x653;" horiz-adv-x="0" 
d="M141 1120q-56 0 -163 27t-138 27q-42 0 -92 -35l-55 65q77 72 153 72q37 0 141.5 -27.5t145.5 -27.5q32 0 53.5 9t59.5 40l61 -60q-58 -90 -166 -90z" />
    <glyph glyph-name="uni0654" unicode="&#x654;" horiz-adv-x="0" 
d="M-166 1190h72q-29 53 -29 100q0 70 48 112t124 42q40 0 98 -12l-14 -78q-36 8 -67 8q-47 0 -76 -21.5t-29 -62.5q0 -38 29 -88h176v-80h-332v80z" />
    <glyph glyph-name="uni0655" unicode="&#x655;" horiz-adv-x="0" 
d="M-166 -430h72q-29 53 -29 100q0 70 48 112t124 42q40 0 98 -12l-14 -78q-36 8 -67 8q-47 0 -76 -21.5t-29 -62.5q0 -38 29 -88h176v-80h-332v80z" />
    <glyph glyph-name="uni0656" unicode="&#x656;" horiz-adv-x="0" 
d="M-41 -569v360h82v-336l-70 -24h-12z" />
    <glyph glyph-name="uni0658" unicode="&#x658;" horiz-adv-x="0" 
d="M-131 1370l72 -24q-23 -60 -23 -97q0 -73 86 -73q41 0 59.5 21.5t18.5 68.5v104h82v-104q0 -81 -42.5 -126.5t-117.5 -45.5q-78 0 -123 39t-45 110q0 59 33 127z" />
    <glyph glyph-name="uni0660" unicode="&#x660;" horiz-adv-x="1105" 
d="M553 449l-156 155l156 150l154 -152z" />
    <glyph glyph-name="uni0661" unicode="&#x661;" horiz-adv-x="1105" 
d="M473 0v1337h160v-1337h-160z" />
    <glyph glyph-name="uni0662" unicode="&#x662;" horiz-adv-x="1105" 
d="M178 0v1337h160v-284q137 -60 258 -60q124 0 167 78.5t28 257.5l159 8q15 -252 -69 -371.5t-287 -119.5q-22 0 -44.5 2t-39.5 4.5t-38 7t-33 8t-31.5 10t-26 9t-24 9t-19.5 7.5v-903h-160z" />
    <glyph glyph-name="uni0663" unicode="&#x663;" horiz-adv-x="1105" 
d="M78 1337h160v-288q71 -27 137 -27q88 0 120 71t17 234l160 10q15 -179 -27 -293q71 -22 125 -22q88 0 120 71t17 234l160 10q19 -227 -49 -341.5t-215 -114.5q-117 0 -236 51q-60 -51 -159 -51q-88 0 -170 30v-911h-160v1337z" />
    <glyph glyph-name="uni0664" unicode="&#x664;" horiz-adv-x="1105" 
d="M930 147l8 -145q-147 -16 -256 -16q-512 0 -512 317q0 114 69.5 213.5t194.5 165.5q-84 42 -142.5 117.5t-58.5 167.5q0 171 143.5 272.5t424.5 101.5q44 0 69 -2v-147q-29 2 -84 2q-197 0 -293 -61t-96 -168q0 -89 82 -144t230 -55q52 0 127 10v-149q-137 -12 -239 -44
t-157 -75t-80.5 -87t-25.5 -89q0 -104 91.5 -149.5t281.5 -45.5q86 0 223 10z" />
    <glyph glyph-name="uni0665" unicode="&#x665;" horiz-adv-x="1105" 
d="M553 -16q-80 0 -146 16t-124.5 56t-98.5 103t-63 160.5t-23 225.5q0 164 25.5 299t69 225.5t102.5 152.5t123.5 89.5t134.5 27.5q71 0 135.5 -27.5t123.5 -89.5t102 -152.5t68.5 -225.5t25.5 -299q0 -128 -23 -225.5t-63 -160.5t-98.5 -103t-124.5 -56t-146 -16zM553 137
q139 0 215 102t76 312q0 288 -85.5 461.5t-205.5 173.5t-205.5 -173.5t-85.5 -461.5q0 -209 76.5 -311.5t214.5 -102.5z" />
    <glyph glyph-name="uni0666" unicode="&#x666;" horiz-adv-x="1105" 
d="M725 0v1188h-627v149h787v-1337h-160z" />
    <glyph glyph-name="uni0667" unicode="&#x667;" horiz-adv-x="1105" 
d="M918 1352l169 -52l-444 -1300h-178l-449 1305l170 47l367 -1121z" />
    <glyph glyph-name="uni0668" unicode="&#x668;" horiz-adv-x="1105" 
d="M1087 27l-169 -47l-367 1120l-365 -1120l-170 51l445 1300h178z" />
    <glyph glyph-name="uni0669" unicode="&#x669;" horiz-adv-x="1105" 
d="M123 932q0 189 116.5 297t319.5 108h344v-1337h-160v563q-78 -4 -112 -4q-249 0 -378.5 95t-129.5 278zM287 932q0 -111 94 -170.5t258 -59.5q39 0 104 7v479h-145q-149 0 -230 -66t-81 -190z" />
    <glyph glyph-name="uni066A" unicode="&#x66a;" horiz-adv-x="1105" 
d="M274 1024l-163 164l163 164l166 -164zM301 -45l-119 45l596 1352l119 -45zM831 0l-163 164l163 162l164 -164z" />
    <glyph glyph-name="uni066B" unicode="&#x66b;" horiz-adv-x="509" 
d="M399 152l-168 -492h-157l139 492h186z" />
    <glyph glyph-name="uni066C" unicode="&#x66c;" horiz-adv-x="432" 
d="M322 264l-117 -344h-131l98 344h150z" />
    <glyph glyph-name="uni066D" unicode="&#x66d;" horiz-adv-x="1724" 
d="M416 -201l-49 41l231 545l-514 307l16 76l613 -76l129 590h61l121 -590l612 76l23 -76l-535 -305l250 -547l-55 -41l-447 406z" />
    <glyph glyph-name="uni066E" unicode="&#x66e;" horiz-adv-x="1902" 
d="M1630 834h160v-480q0 -157 -104.5 -255.5t-294.5 -98.5h-844q-216 0 -340.5 104.5t-124.5 282.5q0 146 65 322l148 -39q-49 -175 -49 -254q0 -264 323 -264h803q134 0 196 62.5t62 209.5v410z" />
    <glyph glyph-name="uni066F" unicode="&#x66f;" horiz-adv-x="1587" 
d="M797 -336q-361 0 -538 118t-177 357q0 131 49 271l148 -39q-33 -103 -33 -209q0 -178 128.5 -260t424.5 -82q514 0 514 223q-101 -43 -219 -43q-197 0 -309.5 109t-112.5 299q0 90 28 170.5t79.5 142.5t131 98.5t176.5 36.5q188 0 288 -118t100 -308v-315
q0 -231 -163 -341t-515 -110zM1116 156q108 0 199 32v197q0 315 -236 315q-107 0 -175 -72.5t-68 -201.5q0 -136 73 -203t207 -67z" />
    <glyph glyph-name="uni0670" unicode="&#x670;" horiz-adv-x="0" 
d="M-41 1137v360h82v-336l-70 -24h-12z" />
    <glyph glyph-name="uni0671" unicode="&#x671;" horiz-adv-x="466" 
d="M154 1548h159v-1548h-159v1548zM446 1657h-503v80h102v207h80v-89q75 99 178 99q75 0 119.5 -48t44.5 -130q0 -55 -21 -119zM295 1874q-52 0 -100 -38t-76 -99h264q6 24 6 43q0 44 -26.5 69t-67.5 25z" />
    <glyph glyph-name="uni0679" unicode="&#x679;" horiz-adv-x="1902" 
d="M82 387q0 146 65 322l148 -39q-49 -175 -49 -254q0 -264 323 -264h803q134 0 196 62.5t62 209.5v410h160v-480q0 -157 -104.5 -255.5t-294.5 -98.5h-844q-216 0 -340.5 104.5t-124.5 282.5zM635 891v82h100v348h82v-207q81 94 182 94q83 0 132 -55t49 -145
q0 -56 -21 -117h-524zM813 973h283q4 24 4 37q0 53 -29.5 84.5t-77.5 31.5q-52 0 -101 -39.5t-79 -113.5z" />
    <glyph glyph-name="uni067E" unicode="&#x67e;" horiz-adv-x="1902" 
d="M1630 834h160v-480q0 -157 -104.5 -255.5t-294.5 -98.5h-844q-216 0 -340.5 104.5t-124.5 282.5q0 146 65 322l148 -39q-49 -175 -49 -254q0 -264 323 -264h803q134 0 196 62.5t62 209.5v410zM856 -281q0 -44 -28 -73t-72 -29q-43 0 -72 29t-29 73q0 43 29 72t72 29
q44 0 72 -29t28 -72zM1044 -180q43 0 71 -29t28 -72q0 -44 -28 -73t-71 -29q-44 0 -73 29t-29 73q0 43 29 72t73 29zM903 -408q44 0 72.5 -29t28.5 -73q0 -43 -28.5 -71.5t-72.5 -28.5q-43 0 -71.5 28.5t-28.5 71.5q0 44 28.5 73t71.5 29z" />
    <glyph glyph-name="uni0686" unicode="&#x686;" horiz-adv-x="1273" 
d="M618 856q134 0 237 -40.5t167 -114.5t96.5 -174t32.5 -224q0 -142 -41 -303h-649q-104 0 -159.5 -47.5t-55.5 -136.5q0 -96 67 -144.5t193 -48.5q49 0 104 10l31 -149q-72 -16 -156 -16q-179 0 -291 92t-112 254q0 154 97.5 246t262.5 92h537q16 62 16 139
q0 187 -101 298t-300 111q-101 0 -219 -36l-37 143q132 49 280 49zM633 -98q31 0 50 -19.5t19 -50.5t-19.5 -51.5t-49.5 -20.5q-31 0 -50.5 20.5t-19.5 51.5t19.5 50.5t50.5 19.5zM836 -98q29 0 48 -19.5t19 -50.5t-19 -51.5t-48 -20.5q-32 0 -52 20.5t-20 51.5t20 50.5
t52 19.5zM735 -256q32 0 52 -20.5t20 -51.5t-20 -51t-52 -20q-29 0 -49 20t-20 51t20 51.5t49 20.5z" />
    <glyph glyph-name="uni0688" unicode="&#x688;" horiz-adv-x="1046" 
d="M924 0h-842v152h682v36q0 161 -107 308t-299 270l97 129q137 -90 230 -180.5t144.5 -185t73 -187.5t21.5 -205v-137zM102 1165h101v348h82v-206q81 94 182 94q82 0 131 -55.5t49 -145.5q0 -58 -20 -117h-525v82zM461 1319q-52 0 -101 -40t-79 -114h282q4 24 4 37
q0 54 -29 85.5t-77 31.5z" />
    <glyph glyph-name="uni0691" unicode="&#x691;" horiz-adv-x="602" 
d="M-8 -205q105 17 168 53t96 105t33 178v703h160v-668q0 -470 -424 -518zM78 1083v82h100v348h82v-206q81 94 182 94q83 0 132 -55.5t49 -145.5q0 -56 -21 -117h-524zM436 1319q-52 0 -101 -40t-79 -114h283q4 24 4 37q0 53 -29.5 85t-77.5 32z" />
    <glyph glyph-name="uni0698" unicode="&#x698;" horiz-adv-x="602" 
d="M371 1303q-43 0 -72 29t-29 73q0 41 29 70.5t72 29.5q44 0 72 -29t28 -71q0 -44 -28 -73t-72 -29zM221 1071q-43 0 -71.5 29.5t-28.5 73.5q0 43 28.5 71.5t71.5 28.5q44 0 72.5 -28.5t28.5 -71.5q0 -44 -28.5 -73.5t-72.5 -29.5zM510 1071q-44 0 -73 29.5t-29 73.5
q0 43 29 71.5t73 28.5q43 0 70.5 -28.5t27.5 -71.5q0 -44 -27.5 -73.5t-70.5 -29.5zM25 -352l-33 147q105 17 168 53t96 105t33 178v703h160v-668q0 -470 -424 -518z" />
    <glyph glyph-name="uni06A1" unicode="&#x6a1;" horiz-adv-x="2129" 
d="M82 387q0 146 65 322l148 -39q-49 -175 -49 -254q0 -264 323 -264h691q-86 110 -86 270q0 189 121.5 311.5t322.5 122.5q105 0 184 -36.5t124.5 -100t68 -141t22.5 -168.5q0 -189 -88 -410h-1382q-216 0 -340.5 104.5t-124.5 282.5zM1337 418q0 -141 103 -266h377
q36 136 36 247q0 139 -62 220t-187 81q-127 0 -197 -78t-70 -204z" />
    <glyph glyph-name="uni06A4" unicode="&#x6a4;" horiz-adv-x="2129" 
d="M547 0q-216 0 -340.5 104.5t-124.5 282.5q0 146 65 322l148 -39q-49 -175 -49 -254q0 -264 323 -264h691q-86 110 -86 270q0 189 121.5 311.5t322.5 122.5q105 0 184 -36.5t124.5 -100t68 -141t22.5 -168.5q0 -189 -88 -410h-1382zM1337 418q0 -141 103 -266h377
q36 136 36 247q0 139 -62 220t-187 81q-127 0 -197 -78t-70 -204zM1370 1196q0 43 28.5 71.5t71.5 28.5q44 0 72.5 -28.5t28.5 -71.5q0 -44 -28.5 -73t-72.5 -29q-43 0 -71.5 29t-28.5 73zM1759 1094q-44 0 -73 29t-29 73q0 43 29 71.5t73 28.5q43 0 71 -28.5t28 -71.5
q0 -44 -28 -73t-71 -29zM1620 1325q-43 0 -71.5 29t-28.5 73q0 42 29 71.5t71 29.5q43 0 71.5 -29.5t28.5 -71.5q0 -44 -28 -73t-72 -29z" />
    <glyph glyph-name="uni06A9" unicode="&#x6a9;" horiz-adv-x="1742" 
d="M1018 907q143 -47 249 -105.5t173.5 -123t108 -145t56 -162t15.5 -181.5v-190h-1073q-216 0 -340.5 104.5t-124.5 282.5q0 146 65 322l148 -39q-49 -175 -49 -254q0 -264 323 -264h897v67q0 221 -137.5 354t-472.5 232v156l580 559l104 -107z" />
    <glyph glyph-name="uni06AF" unicode="&#x6af;" horiz-adv-x="1742" 
d="M1372 1585l-518 -495l-109 108l523 494zM1018 907q143 -47 249 -105.5t173.5 -123t108 -145t56 -162t15.5 -181.5v-190h-1073q-216 0 -340.5 104.5t-124.5 282.5q0 146 65 322l148 -39q-49 -175 -49 -254q0 -264 323 -264h897v67q0 221 -137.5 354t-472.5 232v156
l580 559l104 -107z" />
    <glyph glyph-name="uni06BA" unicode="&#x6ba;" horiz-adv-x="1345" 
d="M631 -336q-135 0 -241 36.5t-172.5 101t-101 150.5t-34.5 189q0 162 86 365l143 -49q-65 -162 -65 -295q0 -174 102 -258t289 -84q395 0 395 379v485h160v-528q0 -237 -152.5 -364.5t-408.5 -127.5z" />
    <glyph glyph-name="uni06BE" unicode="&#x6be;" horiz-adv-x="1503" 
d="M393 883q187 -13 336.5 -41t277.5 -79.5t213.5 -124t133 -177.5t47.5 -238q0 -100 -27 -223h-389q-168 0 -278 39q-110 -39 -283 -39q-200 0 -342 59l47 144q130 -51 295 -51q59 0 92 4q-55 47 -89 120t-34 160q0 88 42.5 169.5t117.5 127.5q-114 8 -186 10zM537 442
q0 -92 47.5 -157.5t122.5 -100.5q83 30 135.5 94.5t52.5 161.5t-52 159.5t-128 62.5q-77 0 -127.5 -63.5t-50.5 -156.5zM899 152h346q6 40 6 88q0 265 -268 391q55 -85 55 -191q0 -88 -38 -163.5t-101 -124.5z" />
    <glyph glyph-name="uni06C1" unicode="&#x6c1;" horiz-adv-x="1060" 
d="M514 -10q-106 0 -189.5 32.5t-136 89.5t-79.5 131t-27 160q0 88 28 168t80 144t136 102.5t188 38.5q105 0 189.5 -38.5t136.5 -103t80 -144.5t28 -167q0 -185 -117 -299t-317 -114zM520 145q125 0 194.5 64t69.5 199q0 131 -68 211.5t-202 80.5t-201 -81t-67 -209
q0 -135 73 -200t201 -65z" />
    <glyph glyph-name="uni06C2" unicode="&#x6c2;" horiz-adv-x="1060" 
d="M514 -10q-106 0 -189.5 32.5t-136 89.5t-79.5 131t-27 160q0 88 28 168t80 144t136 102.5t188 38.5q105 0 189.5 -38.5t136.5 -103t80 -144.5t28 -167q0 -185 -117 -299t-317 -114zM514 700q-134 0 -201 -81t-67 -209q0 -135 73 -200t201 -65q125 0 194.5 64t69.5 199
q0 131 -68 211.5t-202 80.5zM289 1114v103h92q-35 62 -35 129q0 89 60 141.5t157 52.5q59 0 127 -14l-18 -101q-63 11 -86 11q-55 0 -94 -26t-39 -83q0 -54 36 -110h226v-103h-426z" />
    <glyph glyph-name="uni06C3" unicode="&#x6c3;" horiz-adv-x="1060" 
d="M367 1094q-43 0 -72 29t-29 73q0 43 29 71.5t72 28.5q44 0 72 -28.5t28 -71.5q0 -44 -28 -73t-72 -29zM655 1094q-44 0 -73 29t-29 73q0 43 29 71.5t73 28.5q43 0 71 -28.5t28 -71.5q0 -44 -28 -73t-71 -29zM514 -10q-106 0 -189.5 32.5t-136 89.5t-79.5 131t-27 160
q0 88 28 168t80 144t136 102.5t188 38.5q105 0 189.5 -38.5t136.5 -103t80 -144.5t28 -167q0 -185 -117 -299t-317 -114zM520 145q125 0 194.5 64t69.5 199q0 131 -68 211.5t-202 80.5t-201 -81t-67 -209q0 -135 73 -200t201 -65z" />
    <glyph glyph-name="uni06CC" unicode="&#x6cc;" horiz-adv-x="1556" 
d="M762 -336q-680 0 -680 436q0 119 49 269l148 -39q-33 -132 -33 -209q0 -162 126 -231.5t390 -69.5q241 0 374.5 53.5t133.5 138.5q0 37 -28 69t-73 58.5t-99.5 53.5t-109 59t-99.5 69t-73 91t-28 118q0 140 111 233t309 93q91 0 219 -31l-29 -151q-101 26 -196 26
q-118 0 -183 -44t-65 -117q0 -45 28 -82t73 -64t99 -52.5t108 -54t99 -62t73 -83t28 -110.5q0 -164 -183.5 -265.5t-488.5 -101.5z" />
    <glyph glyph-name="uni06D2" unicode="&#x6d2;" horiz-adv-x="1509" 
d="M717 -20q-247 0 -392 30.5t-204.5 89.5t-59.5 156q0 60 22.5 110t58 84.5t79 64.5t87 56t79 53t58 62.5t22.5 77.5v70h149v-78q0 -66 -30 -121t-74.5 -89t-97 -68t-97 -60.5t-74.5 -63.5t-30 -80q0 -53 52.5 -82.5t169.5 -43t323 -13.5q328 0 739 70l8 -152
q-457 -73 -788 -73z" />
    <glyph glyph-name="uni06D3" unicode="&#x6d3;" horiz-adv-x="1509" 
d="M717 -20q-247 0 -392 30.5t-204.5 89.5t-59.5 156q0 60 22.5 110t58 84.5t79 64.5t87 56t79 53t58 62.5t22.5 77.5v70h149v-78q0 -66 -30 -121t-74.5 -89t-97 -68t-97 -60.5t-74.5 -63.5t-30 -80q0 -53 52.5 -82.5t169.5 -43t323 -13.5q328 0 739 70l8 -152
q-457 -73 -788 -73zM743 1090h-426v102h93q-35 62 -35 129q0 90 60 142.5t157 52.5q54 0 127 -15l-19 -100q-58 10 -86 10q-55 0 -94 -26t-39 -82q0 -53 37 -111h225v-102z" />
    <glyph glyph-name="uni06D4" unicode="&#x6d4;" horiz-adv-x="716" 
d="M119 221q75 -69 219 -69h317v-152h-317q-87 0 -154 20.5t-123 73.5z" />
    <glyph glyph-name="uni06D5" unicode="&#x6d5;" horiz-adv-x="1060" 
d="M514 -10q-106 0 -189.5 32.5t-136 89.5t-79.5 131t-27 160q0 88 28 168t80 144t136 102.5t188 38.5q105 0 189.5 -38.5t136.5 -103t80 -144.5t28 -167q0 -185 -117 -299t-317 -114zM520 145q125 0 194.5 64t69.5 199q0 131 -68 211.5t-202 80.5t-201 -81t-67 -209
q0 -135 73 -200t201 -65z" />
    <glyph glyph-name="uni06F0" unicode="&#x6f0;" horiz-adv-x="1105" 
d="M553 449l-156 155l156 150l154 -152z" />
    <glyph glyph-name="uni06F1" unicode="&#x6f1;" horiz-adv-x="1105" 
d="M473 0v1337h160v-1337h-160z" />
    <glyph glyph-name="uni06F2" unicode="&#x6f2;" horiz-adv-x="1105" 
d="M178 0v1337h160v-284q137 -60 258 -60q124 0 167 78.5t28 257.5l159 8q15 -252 -69 -371.5t-287 -119.5q-22 0 -44.5 2t-39.5 4.5t-38 7t-33 8t-31.5 10t-26 9t-24 9t-19.5 7.5v-903h-160z" />
    <glyph glyph-name="uni06F3" unicode="&#x6f3;" horiz-adv-x="1105" 
d="M78 1337h160v-288q71 -27 137 -27q88 0 120 71t17 234l160 10q15 -179 -27 -293q71 -22 125 -22q88 0 120 71t17 234l160 10q19 -227 -49 -341.5t-215 -114.5q-117 0 -236 51q-60 -51 -159 -51q-88 0 -170 30v-911h-160v1337z" />
    <glyph glyph-name="uni06F4" unicode="&#x6f4;" horiz-adv-x="1105" 
d="M100 1337h160v-327q113 -40 266 -56q-26 76 -26 146q0 125 69.5 189.5t204.5 64.5q91 0 187 -27l-37 -143q-64 22 -136 22q-145 0 -145 -143q0 -59 25 -117q189 0 360 33l19 -143q-185 -37 -385 -37q-219 0 -402 61v-860h-160v1337z" />
    <glyph glyph-name="uni06F5" unicode="&#x6f5;" horiz-adv-x="1105" 
d="M395 -12q-142 0 -224.5 124.5t-82.5 405.5q0 161 29.5 298.5t77.5 232t110 161.5t126.5 98t127.5 31q67 0 131 -29.5t124 -94.5t105 -159t72 -232.5t27 -305.5q0 -262 -79 -396t-204 -134q-48 0 -95.5 23.5t-82.5 58.5q-82 -82 -162 -82zM418 139q34 0 79 29t56 29
q10 0 30 -14.5t50 -29t63 -14.5q69 0 113.5 99t44.5 284q0 297 -89 481.5t-206 184.5q-56 0 -111 -50t-98.5 -135.5t-70.5 -211t-27 -265.5q0 -197 49.5 -292t116.5 -95z" />
    <glyph glyph-name="uni06F6" unicode="&#x6f6;" horiz-adv-x="1105" 
d="M868 897l127 -106l-708 -840l-127 106l461 547q-186 28 -296 123.5t-110 239.5q0 171 143 272.5t424 101.5q37 0 70 -2v-147q-29 2 -84 2q-197 0 -293 -61t-96 -168q0 -93 97 -151t265 -69z" />
    <glyph glyph-name="uni06F7" unicode="&#x6f7;" horiz-adv-x="1105" 
d="M918 1352l169 -52l-444 -1300h-178l-449 1305l170 47l367 -1121z" />
    <glyph glyph-name="uni06F8" unicode="&#x6f8;" horiz-adv-x="1105" 
d="M1087 27l-169 -47l-367 1120l-365 -1120l-170 51l445 1300h178z" />
    <glyph glyph-name="uni06F9" unicode="&#x6f9;" horiz-adv-x="1105" 
d="M123 932q0 189 116.5 297t319.5 108h344v-1337h-160v563q-78 -4 -112 -4q-249 0 -378.5 95t-129.5 278zM287 932q0 -111 94 -170.5t258 -59.5q39 0 104 7v479h-145q-149 0 -230 -66t-81 -190z" />
    <glyph glyph-name="Germandbls" unicode="&#x1e9e;" horiz-adv-x="1380" 
d="M1143 1311q-170 0 -271.5 -62.5t-101.5 -183.5q0 -28 7 -53t23 -48t31 -40.5t44 -39.5t47.5 -34.5t56 -37t55.5 -36.5q140 -96 206.5 -190t66.5 -230q0 -175 -118.5 -284t-303.5 -109q-271 0 -414 187l143 114q47 -71 119.5 -106t153.5 -35q106 0 171 60.5t66 164.5
q3 96 -49 158.5t-176 142.5q-78 50 -126.5 87t-95 86t-68 105.5t-21.5 123.5q0 186 196 282q-16 2 -43 2q-197 0 -292.5 -68.5t-96.5 -240.5v-1026h-172v1024q0 245 135 354t416 109q156 0 412 -23v-153z" />
    <glyph glyph-name="uni2002" unicode="&#x2002;" horiz-adv-x="1171" 
 />
    <glyph glyph-name="uni2003" unicode="&#x2003;" horiz-adv-x="2340" 
 />
    <glyph glyph-name="uni2009" unicode="&#x2009;" horiz-adv-x="233" 
 />
    <glyph glyph-name="uni200A" unicode="&#x200a;" horiz-adv-x="47" 
 />
    <glyph glyph-name="uni200C" unicode="&#x200c;" horiz-adv-x="0" 
d="M-160 2122l37 41l123 -125l121 123l37 -39l-119 -121l119 -121l-37 -39l-121 121l-123 -123l-37 41l121 121z" />
    <glyph glyph-name="uni200D" unicode="&#x200d;" horiz-adv-x="0" 
d="M-231 2030h464v-162h-53v108h-358v-108h-53v162z" />
    <glyph glyph-name="uni200E" unicode="&#x200e;" horiz-adv-x="0" 
d="M61 1839l-38 41l96 96h-295v54h295l-96 92l38 41l162 -162z" />
    <glyph glyph-name="uni200F" unicode="&#x200f;" horiz-adv-x="0" 
d="M-61 1841l-162 160l162 162l38 -37l-96 -96h297v-54h-295l94 -96z" />
    <glyph glyph-name="uni2011" unicode="&#x2011;" horiz-adv-x="681" 
d="M592 565v-147h-502v147h502z" />
    <glyph glyph-name="endash" unicode="&#x2013;" horiz-adv-x="1024" 
d="M1024 565v-147h-1024v147h1024z" />
    <glyph glyph-name="emdash" unicode="&#x2014;" horiz-adv-x="2048" 
d="M2048 565v-147h-2048v147h2048z" />
    <glyph glyph-name="quoteleft" unicode="&#x2018;" horiz-adv-x="569" 
d="M446 1450l-137 -492h-186l168 492h155z" />
    <glyph glyph-name="quoteright" unicode="&#x2019;" horiz-adv-x="569" 
d="M446 1450l-167 -492h-156l137 492h186z" />
    <glyph glyph-name="quotesinglbase" unicode="&#x201a;" horiz-adv-x="569" 
d="M446 209l-167 -492h-156l137 492h186z" />
    <glyph glyph-name="quotedblleft" unicode="&#x201c;" horiz-adv-x="1062" 
d="M748 958h-187l168 492h156zM178 958l168 492h156l-137 -492h-187z" />
    <glyph glyph-name="quotedblright" unicode="&#x201d;" horiz-adv-x="1062" 
d="M717 958h-156l137 492h187zM178 958l137 492h187l-168 -492h-156z" />
    <glyph glyph-name="quotedblbase" unicode="&#x201e;" horiz-adv-x="1062" 
d="M717 -283h-156l137 492h187zM178 -283l137 492h187l-168 -492h-156z" />
    <glyph glyph-name="dagger" unicode="&#x2020;" 
d="M72 899v135h417v416h160v-416h418v-135h-418v-1157h-160v1157h-417z" />
    <glyph glyph-name="daggerdbl" unicode="&#x2021;" 
d="M84 922v135h405v393h160v-393h406v-135h-406v-652h406v-135h-406v-393h-160v393h-405v135h405v652h-405z" />
    <glyph glyph-name="bullet" unicode="&#x2022;" horiz-adv-x="1024" 
d="M512 1087q149 0 255.5 -106.5t106.5 -255.5t-106.5 -256t-255.5 -107t-255.5 107t-106.5 256t106.5 255.5t255.5 106.5z" />
    <glyph glyph-name="ellipsis" unicode="&#x2026;" horiz-adv-x="2048" 
d="M342 233q50 0 86.5 -35.5t36.5 -86.5q0 -49 -37.5 -86t-85.5 -37q-50 0 -86.5 37t-36.5 86q0 51 36 86.5t87 35.5zM1024 233q50 0 86.5 -35.5t36.5 -86.5q0 -49 -36.5 -86t-86.5 -37t-86.5 37t-36.5 86q0 51 36 86.5t87 35.5zM1706 233q50 0 86.5 -35.5t36.5 -86.5
q0 -49 -36.5 -86t-86.5 -37q-48 0 -85.5 37t-37.5 86q0 51 36 86.5t87 35.5z" />
    <glyph glyph-name="uni202A" unicode="&#x202a;" horiz-adv-x="0" 
d="M119 1976h-117v54h117l-96 92l38 41l162 -162l-162 -162l-38 41zM-66 1976h-133v54h133v-54z" />
    <glyph glyph-name="uni202B" unicode="&#x202b;" horiz-adv-x="0" 
d="M-223 2001l162 162l38 -37l-96 -96h117v-54h-115l94 -96l-38 -39zM66 1976v54h133v-54h-133z" />
    <glyph glyph-name="uni202C" unicode="&#x202c;" horiz-adv-x="0" 
d="M-29 1837v238l-92 -95l-39 39l160 160l160 -160l-39 -39l-94 95v-238h-56z" />
    <glyph glyph-name="uni202D" unicode="&#x202d;" horiz-adv-x="0" 
d="M-49 1839l-37 41l96 96h-252v54h250l-94 92l37 41l162 -162zM102 1839l-36 41l124 121l-124 121l36 41l162 -162z" />
    <glyph glyph-name="uni202E" unicode="&#x202e;" horiz-adv-x="0" 
d="M-102 1896l-162 162l162 162l36 -39l-122 -123l122 -123zM49 1896l-160 162l160 162l39 -39l-96 -98h252v-51h-252l96 -97z" />
    <glyph glyph-name="perthousand" unicode="&#x2030;" horiz-adv-x="2084" 
d="M1188 1450l-909 -1516l-113 66l909 1516zM358 1475q131 0 226.5 -96.5t95.5 -225.5q0 -133 -94 -227.5t-228 -94.5t-227.5 94.5t-93.5 227.5q0 129 95 225.5t226 96.5zM172 1153q0 -72 55.5 -129t130.5 -57t131 57t56 129t-57 129t-132 57q-71 0 -127.5 -56.5
t-56.5 -129.5zM989 618q131 0 226.5 -96.5t95.5 -224.5q0 -132 -95 -227t-227 -95q-134 0 -227.5 94.5t-93.5 227.5q0 130 94.5 225.5t226.5 95.5zM1726 618q132 0 227 -96t95 -225q0 -132 -94.5 -227t-227.5 -95q-134 0 -227.5 94.5t-93.5 227.5q0 130 95 225.5t226 95.5z
M803 297q0 -72 56 -129t130 -57q72 0 129.5 57t57.5 129q0 70 -56 128t-133 58q-71 0 -127.5 -56.5t-56.5 -129.5zM1540 295q0 -72 56 -129t130 -57t130.5 57.5t56.5 128.5q0 72 -56 129t-133 57q-71 0 -127.5 -56.5t-56.5 -129.5z" />
    <glyph glyph-name="guilsinglleft" unicode="&#x2039;" horiz-adv-x="643" 
d="M524 856l-239 -364l239 -365l-112 -74l-293 439l293 438z" />
    <glyph glyph-name="guilsinglright" unicode="&#x203a;" horiz-adv-x="643" 
d="M231 930l293 -438l-293 -439l-112 74l239 365l-239 364z" />
    <glyph glyph-name="fraction" unicode="&#x2044;" horiz-adv-x="342" 
d="M682 1450l-909 -1516l-113 66l909 1516z" />
    <glyph glyph-name="Euro" unicode="&#x20ac;" horiz-adv-x="1187" 
d="M25 485l41 113h100q-6 93 -6 117q0 89 8 133h-141l41 113h116q58 247 220.5 386.5t388.5 139.5q173 0 305 -66l-51 -125q-109 62 -261 62q-172 0 -290 -103t-162 -294h614l-37 -113h-596q-10 -54 -10 -133q0 -73 8 -117h525l-37 -113h-473q34 -179 159.5 -286t298.5 -107
q161 0 279 82l59 -115q-134 -96 -356 -96q-221 0 -381.5 143t-206.5 379h-155z" />
    <glyph glyph-name="uni20B9" unicode="&#x20b9;" 
d="M352 1327h-162v123h887v-123h-334q95 -76 109 -203h225v-123h-225q-23 -153 -134.5 -240.5t-314.5 -88.5l465 -672h-206q-23 34 -225 330.5t-247 361.5v105h113q336 0 377 204h-490v123h490q-35 203 -328 203z" />
    <glyph glyph-name="uni20BA" unicode="&#x20ba;" 
d="M43 1022l190 80v348h168v-283l390 181v-136l-385 -174v-198l385 170v-131l-385 -170v-574q28 -4 57 -4q94 0 170 33.5t127 91.5t85.5 138.5t50 171t15.5 192.5h172q0 -177 -36.5 -316.5t-111 -243t-196.5 -159t-286 -55.5q-154 0 -220 16v637l-190 -82v131l190 82v203
l-190 -80v131z" />
    <glyph glyph-name="uni2113" unicode="&#x2113;" horiz-adv-x="1024" 
d="M147 416l177 172v538q0 154 73 252.5t191 98.5q101 0 163 -71.5t62 -191.5q0 -151 -87.5 -310.5t-262.5 -340.5v-313q0 -79 41 -125.5t112 -46.5q90 0 183 80l51 -74q-122 -113 -266 -113q-123 0 -191.5 68.5t-68.5 185.5v242l-121 -129zM463 1145v-459
q114 132 173.5 265t59.5 253q0 78 -29.5 126t-78.5 48q-55 0 -90 -64t-35 -169z" />
    <glyph glyph-name="trademark" unicode="&#x2122;" horiz-adv-x="2027" 
d="M969 1450h215l252 -641l252 641h208v-844h-135v709h-4l-278 -709h-93l-278 709h-4v-709h-135v844zM397 1315h-266v135h668v-135h-267v-709h-135v709z" />
    <glyph glyph-name="Omega" unicode="&#x2126;" horiz-adv-x="1523" 
d="M96 119h404v168q-186 52 -295 208.5t-109 356.5q0 134 53 251.5t142 198.5t209 128t252 47q130 0 249 -46.5t208 -127.5t141.5 -198t52.5 -251t-46 -249t-138.5 -199.5t-219.5 -118.5v-168h404v-119h-514v371q178 31 277.5 158.5t99.5 320.5q0 219 -149.5 360.5
t-366.5 141.5t-367 -143t-150 -359q0 -192 99.5 -321t277.5 -158v-371h-514v119z" />
    <glyph glyph-name="estimated" unicode="&#x212e;" horiz-adv-x="1998" 
d="M1001 -39q-197 0 -359 60t-267.5 162t-163 235.5t-57.5 283.5t59 290t165 249t267.5 174.5t351.5 65.5q135 0 251 -24.5t201 -67.5t153 -103t112.5 -128.5t74 -147t42 -155.5t12.5 -157h-1366q-12 0 -12 -12v-389q0 -42 16 -61q84 -107 216 -164.5t298 -57.5
q168 0 298 63t253 179h148q-86 -104 -177 -166.5t-217.5 -95.5t-298.5 -33zM465 754q0 -13 12 -13h1045q12 0 12 13v397q0 28 -25 57q-50 63 -118 108t-140 68t-136 33t-126 10q-133 0 -266 -53t-238 -162q-20 -23 -20 -59v-399z" />
    <glyph glyph-name="partialdiff" unicode="&#x2202;" horiz-adv-x="1015" 
d="M430 1477q163 0 277.5 -96t169.5 -260t55 -380q0 -367 -118.5 -566.5t-342.5 -199.5q-180 0 -294 132.5t-114 326.5q0 189 109 312.5t289 123.5q98 0 187 -46t153 -126q2 68 2 84q0 272 -98.5 427t-268.5 155q-60 0 -111 -21.5t-118 -72.5l-74 88q129 119 297 119z
M193 430q0 -144 78.5 -245t201.5 -101q134 0 217.5 126.5t100.5 358.5q-68 91 -151 139t-169 48q-125 0 -201.5 -91t-76.5 -235z" />
    <glyph glyph-name="Delta" unicode="&#x2206;" horiz-adv-x="1372" 
d="M758 1458l588 -1458h-1315l575 1458h152zM217 127h932l-469 1194z" />
    <glyph glyph-name="product" unicode="&#x220f;" horiz-adv-x="1456" 
d="M145 -438v2048h1168v-2048h-135v1921h-897v-1921h-136z" />
    <glyph glyph-name="summation" unicode="&#x2211;" horiz-adv-x="1236" 
d="M1159 1610v-127h-905l633 -891l-672 -905h969v-125h-1133v112l674 918l-645 903v115h1079z" />
    <glyph glyph-name="minus" unicode="&#x2212;" horiz-adv-x="1363" 
d="M1217 688v-135h-1070v135h1070z" />
    <glyph glyph-name="uni2215" unicode="&#x2215;" horiz-adv-x="342" 
d="M682 1450l-909 -1516l-113 66l909 1516z" />
    <glyph glyph-name="uni2219" unicode="&#x2219;" horiz-adv-x="569" 
d="M285 756q51 0 87 -36.5t36 -86.5q0 -49 -37 -86t-86 -37q-48 0 -85.5 37t-37.5 86q0 51 36.5 87t86.5 36z" />
    <glyph glyph-name="radical" unicode="&#x221a;" horiz-adv-x="1009" 
d="M1028 1610l-430 -2048h-135l-336 696l-94 -45l-49 102l204 99l324 -680l387 1876h129z" />
    <glyph glyph-name="infinity" unicode="&#x221e;" horiz-adv-x="1597" 
d="M426 918q90 0 180.5 -57t200.5 -189q121 147 208.5 196.5t176.5 49.5q132 0 215.5 -87.5t83.5 -232.5q0 -140 -92 -233t-221 -93q-91 0 -179 57.5t-198 186.5q-116 -137 -204 -190.5t-183 -53.5q-129 0 -219.5 95t-90.5 225q0 138 92 232t230 94zM207 592q0 -93 61 -158
t158 -65q73 0 139 46.5t180 172.5q-108 142 -181.5 188.5t-149.5 46.5q-91 0 -149 -66t-58 -165zM858 598q115 -132 184.5 -180.5t143.5 -48.5q87 0 145 65t58 160q0 105 -55.5 167t-153.5 62q-39 0 -78.5 -15.5t-76.5 -45t-62 -53.5t-59.5 -62t-45.5 -49z" />
    <glyph glyph-name="integral" unicode="&#x222b;" horiz-adv-x="1112" 
d="M686 1610q63 0 104 -28.5t41 -74.5q0 -34 -20.5 -51.5t-54.5 -17.5q-25 0 -42.5 13t-25 28t-17.5 28t-22 13q-37 0 -55.5 -71t-18.5 -177l5 -142v-1095q0 -79 -5.5 -142.5t-22 -127t-43 -106t-71.5 -69t-106 -26.5q-56 0 -90.5 26t-34.5 70q0 31 20 48.5t52 17.5
q20 0 36 -12t24 -27t18 -27t20 -12q24 0 39 37t20.5 107.5t6.5 114t1 114.5v20v1003q0 6 -0.5 25.5t-1 58t-0.5 89.5q0 393 244 393z" />
    <glyph glyph-name="approxequal" unicode="&#x2248;" horiz-adv-x="1363" 
d="M1221 823q-17 -133 -83 -206.5t-169 -73.5q-68 0 -183.5 37.5t-224.5 74.5t-162 37q-60 0 -104 -44.5t-57 -119.5h-93q17 135 84 210t170 75q70 0 182 -37.5t220.5 -74.5t169.5 -37q127 0 162 159h88zM1221 475q-17 -132 -84 -207t-170 -75q-69 0 -183.5 37t-222.5 74.5
t-162 37.5q-60 0 -104 -44.5t-57 -119.5h-93q49 287 252 287q68 0 181.5 -37.5t223.5 -75t169 -37.5q122 0 159 160h91z" />
    <glyph glyph-name="notequal" unicode="&#x2260;" horiz-adv-x="1363" 
d="M168 635v123h577l158 301l107 -58l-129 -243h315v-123h-381l-141 -266h522v-123h-588l-155 -295l-107 55l127 240h-305v123h371l139 266h-510z" />
    <glyph glyph-name="lessequal" unicode="&#x2264;" horiz-adv-x="1363" 
d="M168 606v133l1028 387v-133l-858 -321l858 -318v-133zM168 12v121h1028v-121h-1028z" />
    <glyph glyph-name="greaterequal" unicode="&#x2265;" horiz-adv-x="1363" 
d="M168 354l860 318l-860 321v133l1028 -387v-133l-1028 -385v133zM1196 12h-1028v121h1028v-121z" />
    <glyph glyph-name="lozenge" unicode="&#x25ca;" horiz-adv-x="1214" 
d="M670 1530l350 -801l-350 -801h-129l-346 799l346 803h129zM328 729l278 -666l281 666l-281 666z" />
    <glyph glyph-name="uni25CC" unicode="&#x25cc;" horiz-adv-x="942" 
d="M471 700q-55 0 -55 58q0 55 55 55t55 -55q0 -58 -55 -58zM293 655q-53 0 -53 60q0 53 53 53q59 0 59 -53q0 -60 -59 -60zM647 655q-59 0 -59 60q0 53 59 53q53 0 53 -53q0 -60 -53 -60zM164 526q-53 0 -53 58q0 55 53 55q57 0 57 -55q0 -58 -57 -58zM776 526
q-55 0 -55 58q0 55 55 55t55 -55q0 -58 -55 -58zM119 352q-53 0 -53 56q0 55 53 55q57 0 57 -55q0 -56 -57 -56zM821 352q-55 0 -55 56q0 55 55 55q56 0 56 -55q0 -56 -56 -56zM164 176q-53 0 -53 55q0 56 53 56q57 0 57 -56q0 -55 -57 -55zM776 176q-55 0 -55 55
q0 56 55 56t55 -56q0 -55 -55 -55zM293 47q-53 0 -53 55q0 56 53 56q59 0 59 -56q0 -55 -59 -55zM647 47q-59 0 -59 55q0 26 15.5 41t43.5 15q53 0 53 -56q0 -55 -53 -55zM471 2q-55 0 -55 55q0 58 55 58t55 -58q0 -55 -55 -55z" />
    <glyph glyph-name="uni274A" unicode="&#x274a;" horiz-adv-x="1290" 
d="M819 8l-172 389l-180 -387l-125 62l195 377l-402 -93l-29 127l406 78l-336 260l90 111l320 -277l-8 424h141l-12 -424l325 271l84 -109l-336 -258l404 -84l-31 -127l-399 103l186 -383z" />
    <glyph glyph-name="fi" unicode="&#xfb01;" horiz-adv-x="1099" 
d="M233 823h-208v135h208v218q0 397 338 397q77 0 125 -25l-22 -143q-56 20 -109 20q-94 0 -133 -53t-39 -198v-216h234v-135h-234v-823h-160v823zM774 0v958h160v-958h-160zM737 1333q0 49 34.5 83t82.5 34t82.5 -34t34.5 -83q0 -51 -33 -83.5t-84 -32.5t-84 32.5t-33 83.5
z" />
    <glyph glyph-name="fl" unicode="&#xfb02;" horiz-adv-x="1099" 
d="M233 823h-208v135h208v218q0 397 338 397q77 0 125 -25l-22 -143q-56 20 -109 20q-94 0 -133 -53t-39 -198v-216h234v-135h-234v-823h-160v823zM774 0v1548h160v-1548h-160z" />
    <glyph glyph-name="uniFBB2" unicode="&#xfbb2;" horiz-adv-x="0" 
d="M2 1118q-45 0 -73.5 29t-28.5 74q0 43 28.5 71.5t73.5 28.5q44 0 71 -28.5t27 -71.5q0 -45 -27 -74t-71 -29z" />
    <glyph glyph-name="uniFBB3" unicode="&#xfbb3;" horiz-adv-x="0" 
d="M2 -381q-45 0 -73.5 28.5t-28.5 71.5q0 45 28.5 74t73.5 29q44 0 71 -29t27 -74q0 -43 -27 -71.5t-71 -28.5z" />
    <glyph glyph-name="uniFBB4" unicode="&#xfbb4;" horiz-adv-x="0" 
d="M-143 1118q-43 0 -72 29.5t-29 73.5q0 43 29 71.5t72 28.5q44 0 72 -28.5t28 -71.5q0 -45 -28 -74t-72 -29zM145 1118q-44 0 -73 29.5t-29 73.5q0 43 29 71.5t73 28.5q43 0 71 -28.5t28 -71.5q0 -44 -28 -73.5t-71 -29.5z" />
    <glyph glyph-name="uniFBB5" unicode="&#xfbb5;" horiz-adv-x="0" 
d="M-143 -381q-43 0 -72 28.5t-29 71.5q0 44 29 73.5t72 29.5q44 0 72 -29t28 -74q0 -43 -28 -71.5t-72 -28.5zM145 -381q-44 0 -73 28.5t-29 71.5q0 44 29 73.5t73 29.5q43 0 71 -29.5t28 -73.5q0 -43 -28 -71.5t-71 -28.5z" />
    <glyph glyph-name="uniFBB6" unicode="&#xfbb6;" horiz-adv-x="0" 
d="M6 1350q-43 0 -71.5 29t-28.5 73q0 42 29 71t71 29q44 0 72 -29t28 -71q0 -44 -28 -73t-72 -29zM-143 1118q-43 0 -72 29.5t-29 73.5q0 43 29 71.5t72 28.5q44 0 72 -28.5t28 -71.5q0 -45 -28 -74t-72 -29zM145 1118q-44 0 -73 29.5t-29 73.5q0 43 29 71.5t73 28.5
q43 0 71 -28.5t28 -71.5q0 -44 -28 -73.5t-71 -29.5z" />
    <glyph glyph-name="uniFBB9" unicode="&#xfbb9;" horiz-adv-x="0" 
d="M-143 -383q-43 0 -72 29t-29 73q0 43 29 72t72 29q44 0 72 -29t28 -72q0 -44 -28 -73t-72 -29zM145 -383q-44 0 -73 29t-29 73q0 43 29 72t73 29q43 0 71 -29t28 -72q0 -44 -28 -73t-71 -29zM4 -610q-43 0 -71.5 28.5t-28.5 71.5q0 44 28.5 73t71.5 29q44 0 72 -29
t28 -73q0 -43 -28 -71.5t-72 -28.5z" />
    <glyph glyph-name="uniFD3E" unicode="&#xfd3e;" horiz-adv-x="1048" 
d="M182 604q-121 59 -121 101q0 39 121 98v112q0 41 29 41q5 0 29 -18l147 -131q20 -14 29 -14q24 0 24 18q0 22 -16 35l-117 162q-11 17 -5.5 32t22.5 15h6l139 -23q22 82 90 187t144.5 188t147 141t99.5 58q17 0 17.5 -11t-13.5 -26q-128 -153 -203.5 -270t-99.5 -224
q-4 -13 -8 -47l98 12q2 0 7.5 1t7.5 1q21 0 24.5 -11.5t-10.5 -26.5l-129 -152q-23 -27 -23 -35q0 -14 21 -14h12q1 1 7.5 2.5t9.5 3.5l151 111q22 16 37 16q14 0 14 -21v-112q46 -16 84.5 -42t38.5 -56q0 -31 -38.5 -58t-84.5 -43v-115q0 -20 -14 -20q-15 0 -37 16
l-151 113q-3 2 -9.5 3.5t-7.5 2.5h-12q-21 0 -21 -16q0 -2 23 -37l129 -148q14 -15 10.5 -26.5t-24.5 -11.5q-2 0 -7.5 1t-7.5 1l-90 12h-8q35 -264 311 -541q10 -9 13 -17.5t-1.5 -14t-15.5 -5.5q-29 0 -99.5 58t-147 141t-144.5 188t-90 187l-139 -23h-6q-17 0 -23 15
t6 32l117 162q16 13 16 35q0 16 -24 16q-15 0 -29 -14l-147 -131q-16 -16 -29 -16q-29 0 -29 38v115zM498 975l-125 31l96 -140v56h45l41 65v-65h37v-54l129 131l-137 -26q10 80 67 215v86q-50 -52 -92 -137.5t-61 -161.5zM469 539l-96 -138l125 29q20 -75 61.5 -161.5
t91.5 -137.5v88q-57 132 -67 213l137 -26l-129 133v-58h-37v-63l-41 63h-45v58zM434 705q0 -41 35 -76q29 -25 61 -25q43 0 71 29t28 72q0 41 -29 69.5t-70 28.5q-38 0 -67 -30t-29 -68zM684 643l143 -108v106q117 32 117 64q0 19 -41 36.5t-76 24.5v106l-143 -108h82v-37
q35 -3 61 -25q-27 -19 -61 -22v-37h-82zM182 748q-69 -25 -69 -43q0 -13 42.5 -33.5t73.5 -30.5v-109l148 115h-90v35q-40 10 -58 23q16 10 58 20v33h90l-148 116v-108q-23 -8 -47 -18z" />
    <glyph glyph-name="uniFD3F" unicode="&#xfd3f;" horiz-adv-x="1048" 
d="M61 705q0 30 38.5 56t84.5 42v112q0 21 15 21t37 -16l151 -111q3 -2 9 -3.5t7 -2.5h13q20 0 20 14q0 9 -22 35l-129 152q-14 15 -10.5 26.5t24.5 11.5q2 0 7 -1t7 -1l99 -12q-3 28 -9 47q-24 107 -99.5 224t-203.5 270q-14 15 -13.5 26t17.5 11q40 0 143 -93t207 -233
t132 -248l139 23h6q17 0 22.5 -15t-5.5 -32l-117 -162q-17 -14 -17 -35q0 -18 25 -18q9 0 29 14l147 131q24 18 29 18q28 0 28 -41v-112q121 -59 121 -98q0 -42 -121 -101v-115q0 -38 -28 -38q-13 0 -29 16l-147 131q-14 14 -29 14q-25 0 -25 -16q0 -21 17 -35l117 -162
q12 -17 6 -32t-23 -15h-6l-139 23q-28 -108 -132 -248t-207 -233t-143 -93q-11 0 -15.5 5.5t-1.5 14t13 17.5q278 278 312 541h-9l-90 -12q-2 0 -7 -1t-7 -1q-21 0 -24.5 11.5t10.5 26.5l129 148q22 33 22 37q0 16 -20 16h-13q-1 -1 -7 -2.5t-9 -3.5l-151 -113
q-22 -16 -37 -16t-15 20v115q-46 16 -84.5 43t-38.5 58zM334 999l129 -131v54h37v65l41 -65h45v-56l96 140l-125 -31q-19 75 -61.5 161t-92.5 138v-86q59 -139 68 -215zM471 432q-9 -78 -68 -213v-88q50 51 92 137.5t62 161.5l125 -29l-96 138v-58h-45l-41 -63v63h-37v58
l-129 -133zM426 705q0 -43 28 -72t70 -29q33 0 62 25q35 35 35 76q0 38 -29.5 68t-67.5 30q-41 0 -69.5 -28.5t-28.5 -69.5zM227 641v-106l144 108h-82v37q-38 3 -62 27q31 17 62 20v37h82l-144 108v-106q-34 -7 -75 -24.5t-41 -36.5q0 -32 116 -64zM678 758h90v-33
q41 -10 57 -20q-18 -14 -57 -23v-35h-90l147 -115v109q31 10 74 30.5t43 33.5q0 18 -70 43q-24 10 -47 18v108z" />
    <glyph glyph-name="uniFEFF" unicode="&#xfeff;" horiz-adv-x="0" 
 />
    <glyph glyph-name="uni066E.fina" horiz-adv-x="2056" 
d="M2056 152q41 0 41 -76t-41 -76q-243 0 -330 145q-106 -145 -335 -145h-844q-216 0 -340.5 104.5t-124.5 282.5q0 146 65 322l148 -39q-49 -175 -49 -254q0 -264 323 -264h803q134 0 196 62.5t62 209.5v410h160v-449q0 -233 266 -233z" />
    <glyph glyph-name="uniFBE9.wide" horiz-adv-x="669" 
d="M670 152q41 0 41 -76t-41 -76q-242 0 -328 141q-97 -141 -332 -141h-10v152h14q124 0 177 62.5t53 209.5v410h159v-449q0 -233 267 -233z" />
    <glyph glyph-name="uniFBE8.wide" horiz-adv-x="577" 
d="M0 0v152h14q124 0 177 62.5t53 209.5v410h159v-437q0 -205 -99 -301t-294 -96h-10z" />
    <glyph glyph-name="uni06A1.fina" horiz-adv-x="2205" 
d="M82 387q0 146 65 322l148 -39q-49 -175 -49 -254q0 -264 323 -264h686q74 0 109 6q-77 56 -124.5 139.5t-47.5 185.5q0 163 117 268t307 105t302 -105t112 -268q0 -103 -46.5 -186.5t-130.5 -140.5q70 -4 109 -4h244q41 0 41 -76t-41 -76h-230q-200 0 -366 39
q-170 -39 -365 -39h-698q-216 0 -340.5 104.5t-124.5 282.5zM1356 483q0 -105 75 -183t179 -105q94 19 175 100.5t81 189.5q0 98 -70.5 156.5t-183.5 58.5q-115 0 -185.5 -59t-70.5 -158z" />
    <glyph glyph-name="uni06A1.medi" horiz-adv-x="1185" 
d="M0 152h236q73 0 108 6q-77 56 -124.5 139.5t-47.5 185.5q0 163 117 268t307 105t302 -105t112 -268q0 -103 -46 -186.5t-130 -140.5q70 -4 108 -4h244q41 0 41 -76t-41 -76h-230q-200 0 -366 39q-170 -39 -365 -39h-225v152zM592 700q-115 0 -185.5 -59t-70.5 -158
q0 -105 75 -183t179 -105q94 19 175 100.5t81 189.5q0 98 -70.5 156.5t-183.5 58.5z" />
    <glyph glyph-name="uni06A1.init" 
d="M928 0h-928v152h258q-86 110 -86 270q0 189 121.5 311.5t322.5 122.5q105 0 184 -36.5t125 -100t68.5 -141t22.5 -168.5q0 -189 -88 -410zM336 418q0 -142 102 -266h377q37 140 37 247q0 138 -62 219.5t-188 81.5q-127 0 -196.5 -78t-69.5 -204z" />
    <glyph glyph-name="uni066F.fina" horiz-adv-x="1699" 
d="M82 139q0 131 49 271l148 -39q-33 -103 -33 -209q0 -178 128.5 -260t424.5 -82q245 0 366.5 42.5t143.5 137.5h-156q-481 0 -481 418q0 83 26.5 159.5t76.5 139.5t132.5 101t184.5 38q174 0 278.5 -107.5t104.5 -304.5v-292h225q41 0 41 -76t-41 -76h-236
q-33 -188 -192 -262t-475 -74q-361 0 -538 118t-177 357zM836 420q0 -140 83 -204t255 -64h141v254q0 142 -59.5 218t-178.5 76q-110 0 -175.5 -73t-65.5 -207z" />
    <glyph glyph-name="uni06C2.fina" horiz-adv-x="1105" 
d="M195 104q-123 119 -123 304q0 86 31 162.5t90.5 135.5t153.5 93.5t212 34.5h305v-476q0 -123 51 -164.5t191 -41.5q41 0 41 -76t-41 -76h-96q-156 0 -235 79.5t-79 221.5v381h-137q-142 0 -232.5 -69.5t-90.5 -209.5q0 -66 18 -110.5t59 -91.5zM334 1092v102h92
q-35 62 -35 129q0 90 60 142.5t157 52.5q54 0 127 -15l-18 -100q-58 10 -86 10q-55 0 -94 -26t-39 -82q0 -53 37 -111h225v-102h-426z" />
    <glyph glyph-name="uni06C3.fina" horiz-adv-x="1136" 
d="M422 1071q-43 0 -71.5 29.5t-28.5 73.5q0 43 28.5 71.5t71.5 28.5q44 0 72 -28.5t28 -71.5q0 -45 -28 -74t-72 -29zM711 1071q-44 0 -73.5 29.5t-29.5 73.5q0 43 29.5 71.5t73.5 28.5q43 0 70.5 -28.5t27.5 -71.5q0 -44 -27.5 -73.5t-70.5 -29.5zM1137 152q41 0 41 -76
t-41 -76q-280 0 -344 106q-132 -63 -281 -63q-195 0 -312.5 96.5t-117.5 270.5q0 191 130 307.5t357 116.5h346v-476q0 -122 48 -164t174 -42zM748 250v432h-209q-131 0 -212 -65.5t-81 -188.5q0 -115 72.5 -172t207.5 -57q138 0 222 51z" />
    <glyph glyph-name="uniFBAF.wide" horiz-adv-x="1576" 
d="M717 -532q-336 0 -496 82.5t-160 265.5q0 162 121.5 249t339.5 87h1055q41 0 41 -76t-41 -76h-1073q-153 0 -222 -45t-69 -133q0 -72 52 -115t171 -63.5t322 -20.5q328 0 739 70l8 -152q-457 -73 -788 -73z" />
    <glyph glyph-name="uniFBB1.wide" horiz-adv-x="1576" 
d="M61 -184q0 162 121.5 249t339.5 87h1055q41 0 41 -76t-41 -76h-1073q-153 0 -222 -45t-69 -133q0 -72 52 -115t171 -63.5t322 -20.5q328 0 739 70l8 -152q-457 -73 -788 -73q-336 0 -496 82.5t-160 265.5zM653 381h-331v80h71q-28 51 -28 100q0 70 48 112t124 42
q35 0 98 -13l-14 -77q-36 8 -68 8q-46 0 -75 -21.5t-29 -62.5q0 -40 28 -88h176v-80z" />
    <glyph glyph-name="uni06D5.fina" horiz-adv-x="1136" 
d="M1137 152q41 0 41 -76t-41 -76q-280 0 -344 106q-132 -63 -281 -63q-195 0 -312.5 96.5t-117.5 270.5q0 191 130 307.5t357 116.5h346v-476q0 -122 48 -164t174 -42zM748 250v432h-209q-131 0 -212 -65.5t-81 -188.5q0 -115 72.5 -172t207.5 -57q138 0 222 51z" />
    <glyph glyph-name="uni06440671" horiz-adv-x="1353" 
d="M61 0v152h428v974h160v-974h133q134 0 196 62.5t62 209.5v1124h160v-1169q0 -179 -102.5 -279t-296.5 -100h-740zM279 1278v80h102v207h80v-88q74 98 178 98q75 0 119.5 -48t44.5 -130q0 -55 -21 -119h-503zM455 1358h264q6 24 6 43q0 44 -26.5 69t-67.5 25
q-52 0 -100 -38t-76 -99z" />
    <glyph glyph-name="uni06440671.fina" horiz-adv-x="1466" 
d="M61 0v152h428v974h160v-974h133q134 0 196 62.5t62 209.5v1124h160v-1163q0 -233 266 -233q41 0 41 -76t-41 -76q-242 0 -329 145q-102 -145 -336 -145h-740zM279 1278v80h102v207h80v-88q74 98 178 98q75 0 119.5 -48t44.5 -130q0 -55 -21 -119h-503zM631 1495
q-52 0 -100 -38t-76 -99h264q6 24 6 43q0 44 -26.5 69t-67.5 25z" />
    <glyph glyph-name="uni0660.lf" horiz-adv-x="514" 
d="M258 449l-156 155l156 150l154 -152z" />
    <glyph glyph-name="uni0661.lf" horiz-adv-x="610" 
d="M225 0v1337h160v-1337h-160z" />
    <glyph glyph-name="uni0662.lf" horiz-adv-x="1091" 
d="M225 0v1337h160v-284q137 -60 258 -60q124 0 167 78.5t28 257.5l159 8q15 -252 -69 -371.5t-287 -119.5q-22 0 -44.5 2t-39.5 4.5t-38 7t-33 8t-31.5 10t-26 9t-24 9t-19.5 7.5v-903h-160z" />
    <glyph glyph-name="uni0663.lf" horiz-adv-x="1310" 
d="M225 1337h160v-288q71 -27 137 -27q88 0 120 71t17 234l160 10q15 -181 -26 -293q71 -22 125 -22q88 0 120 71t17 234l159 10q19 -227 -49 -341.5t-215 -114.5q-116 0 -235 51q-60 -51 -160 -51q-88 0 -170 30v-911h-160v1337z" />
    <glyph glyph-name="uni0664.lf" horiz-adv-x="1044" 
d="M913 147l9 -145q-147 -16 -256 -16q-512 0 -512 317q0 114 69.5 213.5t194.5 165.5q-84 42 -142.5 117.5t-58.5 167.5q0 171 143 272.5t424 101.5q45 0 70 -2v-147q-29 2 -84 2q-197 0 -293 -61t-96 -168q0 -89 81.5 -144t229.5 -55q52 0 127 10v-149q-137 -12 -239 -44
t-157 -75t-80.5 -87t-25.5 -89q0 -104 91.5 -149.5t281.5 -45.5q86 0 223 10z" />
    <glyph glyph-name="uni0665.lf" horiz-adv-x="1236" 
d="M618 -16q-101 0 -179.5 27t-142.5 89t-98 174t-34 271q0 164 25.5 299t69 225.5t102 152.5t123 89.5t134.5 27.5q71 0 135.5 -27.5t123.5 -89.5t102 -152.5t68.5 -225.5t25.5 -299q0 -128 -23 -225.5t-63 -160.5t-98.5 -103t-124.5 -56t-146 -16zM618 137q139 0 215 102
t76 312q0 288 -85.5 461.5t-205.5 173.5t-205 -173.5t-85 -461.5q0 -209 76 -311.5t214 -102.5z" />
    <glyph glyph-name="uni0666.lf" horiz-adv-x="1083" 
d="M698 0v1188h-626v149h786v-1337h-160z" />
    <glyph glyph-name="uni0667.lf" horiz-adv-x="1255" 
d="M993 1352l170 -52l-444 -1300h-178l-449 1305l170 47l367 -1121z" />
    <glyph glyph-name="uni0668.lf" horiz-adv-x="1255" 
d="M1163 27l-170 -47l-366 1120l-365 -1120l-170 51l445 1300h178z" />
    <glyph glyph-name="uni0669.lf" 
d="M133 932q0 189 116.5 297t319.5 108h344v-1337h-159v563q-78 -4 -113 -4q-249 0 -378.5 95t-129.5 278zM297 932q0 -111 94 -170.5t258 -59.5q40 0 105 7v479h-146q-149 0 -230 -66t-81 -190z" />
    <glyph glyph-name="uni06F0.lf" horiz-adv-x="514" 
d="M258 449l-156 155l156 150l154 -152z" />
    <glyph glyph-name="uni06F1.lf" horiz-adv-x="610" 
d="M225 0v1337h160v-1337h-160z" />
    <glyph glyph-name="uni06F2.lf" horiz-adv-x="1091" 
d="M225 0v1337h160v-284q137 -60 258 -60q124 0 167 78.5t28 257.5l159 8q15 -252 -69 -371.5t-287 -119.5q-22 0 -44.5 2t-39.5 4.5t-38 7t-33 8t-31.5 10t-26 9t-24 9t-19.5 7.5v-903h-160z" />
    <glyph glyph-name="uni06F3.lf" horiz-adv-x="1310" 
d="M225 1337h160v-288q71 -27 137 -27q88 0 120 71t17 234l160 10q15 -181 -26 -293q71 -22 125 -22q88 0 120 71t17 234l159 10q19 -227 -49 -341.5t-215 -114.5q-116 0 -235 51q-60 -51 -160 -51q-88 0 -170 30v-911h-160v1337z" />
    <glyph glyph-name="uni06F4.lf" horiz-adv-x="1263" 
d="M225 1337h160v-327q113 -40 266 -56q-26 76 -26 146q0 125 69.5 189.5t204.5 64.5q90 0 186 -27l-36 -143q-64 22 -136 22q-145 0 -145 -143q0 -59 25 -117q189 0 360 33l18 -143q-185 -37 -385 -37q-218 0 -401 61v-860h-160v1337z" />
    <glyph glyph-name="uni06F5.lf" horiz-adv-x="1257" 
d="M471 -12q-142 0 -224.5 124.5t-82.5 405.5q0 161 29.5 298.5t77.5 232t110 161.5t126.5 98t127.5 31q67 0 131 -29.5t124 -94.5t105 -159t72 -232.5t27 -305.5q0 -262 -79 -396t-204 -134q-48 0 -95.5 23.5t-82.5 58.5q-82 -82 -162 -82zM494 139q34 0 79 29t56 29
q10 0 30 -14.5t50 -29t63 -14.5q69 0 113.5 99t44.5 284q0 297 -89 481.5t-206 184.5q-56 0 -111 -50t-98.5 -135.5t-70.5 -211t-27 -265.5q0 -197 49.5 -292t116.5 -95z" />
    <glyph glyph-name="uni06F6.lf" horiz-adv-x="1026" 
d="M817 897l127 -106l-708 -840l-127 106l460 547q-186 28 -295.5 123.5t-109.5 239.5q0 171 143 272.5t424 101.5q37 0 70 -2v-147q-29 2 -84 2q-197 0 -293 -61t-96 -168q0 -93 97 -151t265 -69z" />
    <glyph glyph-name="uni06F7.lf" horiz-adv-x="1255" 
d="M993 1352l170 -52l-444 -1300h-178l-449 1305l170 47l367 -1121z" />
    <glyph glyph-name="uni06F8.lf" horiz-adv-x="1255" 
d="M1163 27l-170 -47l-366 1120l-365 -1120l-170 51l445 1300h178z" />
    <glyph glyph-name="uni06F9.lf" 
d="M133 932q0 189 116.5 297t319.5 108h344v-1337h-159v563q-78 -4 -113 -4q-249 0 -378.5 95t-129.5 278zM297 932q0 -111 94 -170.5t258 -59.5q40 0 105 7v479h-146q-149 0 -230 -66t-81 -190z" />
    <glyph glyph-name="uni06F4.urdu" horiz-adv-x="1105" 
d="M711 958q-82 228 -207 228q-60 0 -94.5 -48.5t-34.5 -140.5v-997h-160v995q0 177 75.5 268t198.5 91q96 0 166.5 -58t126.5 -163q63 84 187 202l104 -108q-129 -120 -239 -269h-123z" />
    <glyph glyph-name="uni06F7.urdu" horiz-adv-x="1105" 
d="M219 0l-96 152l563 1185l158 -69l-537 -1116h664v-152h-752z" />
    <glyph glyph-name="uni06F4.urdu.lf" horiz-adv-x="1042" 
d="M680 958q-82 228 -207 228q-60 0 -94.5 -48.5t-34.5 -140.5v-997h-160v995q0 177 76 268t199 91q96 0 166.5 -58t126.5 -163q65 88 186 202l104 -108q-129 -120 -239 -269h-123z" />
    <glyph glyph-name="uni06F7.urdu.lf" horiz-adv-x="991" 
d="M178 0l-96 152l563 1185l158 -69l-537 -1116h664v-152h-752z" />
    <glyph glyph-name="acute.case" horiz-adv-x="491" 
d="M543 1847l-293 -295h-146l213 295h226z" />
    <glyph glyph-name="breve.case" horiz-adv-x="491" 
d="M-68 1835h101q17 -78 74 -119t139 -41q97 0 144 36t71 124h98q-13 -130 -96 -200t-219 -70q-137 0 -221 71t-91 199z" />
    <glyph glyph-name="caron.case" horiz-adv-x="491" 
d="M-74 1847h166l160 -209l158 209h155l-225 -295h-186z" />
    <glyph glyph-name="circumflex.case" horiz-adv-x="491" 
d="M80 1552h-156l228 295h186l229 -295h-166l-161 209z" />
    <glyph glyph-name="dieresis.case" horiz-adv-x="491" 
d="M43 1798q44 0 77.5 -33t33.5 -77q0 -47 -33 -79t-78 -32t-78 32t-33 79q0 44 33.5 77t77.5 33zM449 1798q47 0 78.5 -32.5t31.5 -77.5q0 -47 -31.5 -79t-78.5 -32t-79 32t-32 79q0 45 32 77.5t79 32.5z" />
    <glyph glyph-name="dotaccent.case" horiz-adv-x="491" 
d="M246 1798q47 0 78.5 -32.5t31.5 -77.5q0 -47 -31.5 -79t-78.5 -32t-79 32t-32 79q0 45 32 77.5t79 32.5z" />
    <glyph glyph-name="grave.case" horiz-adv-x="491" 
d="M174 1847l213 -295h-145l-293 295h225z" />
    <glyph glyph-name="hungarumlaut.case" horiz-adv-x="491" 
d="M414 1552h-140l224 295h209zM92 1552h-137l205 295h196z" />
    <glyph glyph-name="macron.case" horiz-adv-x="491" 
d="M528 1749v-123h-565v123h565z" />
    <glyph glyph-name="ring.case" horiz-adv-x="491" 
d="M246 1901q87 0 145 -59t58 -144t-58 -144t-145 -59t-145 59t-58 144q0 83 59 143t144 60zM129 1698q0 -48 34 -82.5t83 -34.5t82.5 34.5t33.5 82.5q0 45 -35 81t-81 36q-47 0 -82 -35t-35 -82z" />
    <glyph glyph-name="tilde.case" horiz-adv-x="491" 
d="M489 1798h99q-17 -101 -67 -157t-124 -56q-60 0 -162 41t-139 41q-67 0 -94 -90h-98q17 98 72 155.5t133 57.5q51 0 106.5 -20.5t101.5 -41t74 -20.5q69 0 98 90z" />
    <glyph glyph-name="waslaar" horiz-adv-x="0" 
d="M-262 1110v80h102v207h80v-88q74 98 178 98q75 0 119.5 -48t44.5 -130q0 -58 -20 -119h-504zM90 1327q-52 0 -100 -38t-76 -99h264q6 24 6 43q0 44 -26.5 69t-67.5 25z" />
    <glyph glyph-name="gafsarkashabovear" horiz-adv-x="0" 
d="M-205 797l-108 108l522 494l104 -107z" />
    <glyph glyph-name="uni0654.big" horiz-adv-x="0" 
d="M-213 1241h92q-35 62 -35 129q0 90 60 142.5t157 52.5q54 0 127 -15l-18 -100q-58 10 -86 10q-55 0 -94 -26t-39 -82q0 -53 37 -111h225v-102h-426v102z" />
    <glyph glyph-name="uni0654064F" horiz-adv-x="0" 
d="M-162 1585l33 70q44 -23 84 -23t73 24.5t52 65.5q-8 -2 -29 -2q-64 0 -107.5 31.5t-43.5 93.5q0 63 42 111.5t101 48.5t95 -51.5t36 -134.5q0 -127 -64 -196t-155 -69q-64 0 -117 31zM166 1110h-332v80h72q-29 53 -29 100q0 70 48 112t124 42q40 0 98 -12l-14 -78
q-36 8 -67 8q-47 0 -76 -21.5t-29 -62.5q0 -38 29 -88h176v-80zM35 1927q-29 0 -46.5 -22t-17.5 -50q0 -59 97 -59q20 0 32 2v19q0 47 -16 78.5t-49 31.5z" />
    <glyph glyph-name="uni0654064C" horiz-adv-x="0" 
d="M-276 1634l-52 47q67 99 140 99q31 0 61 -23t50 -51t47.5 -51t54.5 -23q39 0 69.5 24.5t48.5 65.5q-8 -2 -28 -2q-64 0 -108 31.5t-44 93.5q0 63 42 111.5t101 48.5t95.5 -51.5t36.5 -134.5q0 -118 -68 -191.5t-152 -73.5q-41 0 -76 23t-54.5 51t-42 51t-40.5 23
q-31 0 -81 -68zM166 1110h-332v80h72q-29 53 -29 100q0 70 48 112t124 42q40 0 98 -12l-14 -78q-36 8 -67 8q-47 0 -76 -21.5t-29 -62.5q0 -38 29 -88h176v-80zM100 1927q-29 0 -47 -22t-18 -50q0 -59 96 -59q21 0 33 2v19q0 110 -64 110z" />
    <glyph glyph-name="uni0654064E" horiz-adv-x="0" 
d="M-166 1190h72q-29 53 -29 100q0 70 48 112t124 42q40 0 98 -12l-14 -78q-36 8 -67 8q-47 0 -76 -21.5t-29 -62.5q0 -38 29 -88h176v-80h-332v80zM-225 1544l12 78l457 70l6 -2l-12 -78l-457 -70z" />
    <glyph glyph-name="uni0654064B" horiz-adv-x="0" 
d="M166 1110h-332v80h72q-29 53 -29 100q0 70 48 112t124 42q40 0 98 -12l-14 -78q-36 8 -67 8q-47 0 -76 -21.5t-29 -62.5q0 -38 29 -88h176v-80zM-219 1542l-6 2l12 78l457 70l6 -2l-12 -78zM-219 1731l-6 2l12 77l457 70l6 -2l-12 -78z" />
    <glyph glyph-name="uni06540652" horiz-adv-x="0" 
d="M-113 1688q0 65 39 117.5t103 52.5t102.5 -52.5t38.5 -117.5q0 -66 -37 -103t-104 -37t-104.5 37t-37.5 103zM-166 1190h72q-29 53 -29 100q0 70 48 112t124 42q40 0 98 -12l-14 -78q-36 8 -67 8q-47 0 -76 -21.5t-29 -62.5q0 -38 29 -88h176v-80h-332v80zM29 1776
q-28 0 -45 -23.5t-17 -58.5q0 -66 62 -66q61 0 61 66q0 35 -16.5 58.5t-44.5 23.5z" />
    <glyph glyph-name="uni06550650" horiz-adv-x="0" 
d="M-166 -510v80h72q-29 53 -29 100q0 70 48 112t124 42q40 0 98 -12l-14 -78q-36 8 -67 8q-47 0 -76 -21.5t-29 -62.5q0 -38 29 -88h176v-80h-332zM-221 -776l-6 2l12 78l457 69l6 -2l-12 -78z" />
    <glyph glyph-name="uni0655064D" horiz-adv-x="0" 
d="M166 -510h-332v80h72q-29 53 -29 100q0 70 48 112t124 42q40 0 98 -12l-14 -78q-36 8 -67 8q-47 0 -76 -21.5t-29 -62.5q0 -38 29 -88h176v-80zM-221 -944l-6 2l12 78l457 69l6 -2l-12 -77zM-221 -776l-6 2l12 78l457 69l6 -2l-12 -78z" />
    <glyph glyph-name="uni06510670" horiz-adv-x="0" 
d="M35 1468l-70 -24h-12v360h82v-336zM207 1407q31 -58 31 -119q0 -63 -34 -102t-93 -39q-60 0 -97 37q-31 -58 -110 -58q-67 0 -104.5 37t-37.5 97q0 47 23 100l55 -14q-8 -31 -8 -58q0 -74 72 -74q59 0 59 76q0 25 -2 39l59 14q13 -47 13 -79v-2q27 -31 71 -31q62 0 62 61
q0 39 -16 92z" />
    <glyph glyph-name="uni0651064F" horiz-adv-x="0" 
d="M150 1698q0 -126 -64.5 -195t-155.5 -69q-64 0 -116 30l32 70q44 -23 84 -23t73 25t52 66q-12 -3 -28 -3q-64 0 -108 31.5t-44 93.5q0 63 42 111.5t101 48.5t95.5 -51.5t36.5 -134.5zM43 1675q21 0 33 2v19q0 47 -16.5 78.5t-49.5 31.5q-29 0 -46 -21.5t-17 -49.5
q0 -60 96 -60zM207 1407q31 -58 31 -119q0 -63 -34 -102t-93 -39q-60 0 -97 37q-31 -58 -110 -58q-67 0 -104.5 37t-37.5 97q0 47 23 100l55 -14q-8 -31 -8 -58q0 -74 72 -74q59 0 59 76q0 25 -2 39l59 14q13 -47 13 -79v-2q27 -31 71 -31q62 0 62 61q0 39 -16 92z" />
    <glyph glyph-name="uni0651064C" horiz-adv-x="0" 
d="M-6 1434q-41 0 -76 23t-54.5 50.5t-42 50.5t-40.5 23q-32 0 -82 -68l-51 48q67 98 139 98q31 0 61 -23t50 -51t47.5 -51t54.5 -23q39 0 70 25t49 66q-12 -3 -29 -3q-64 0 -107.5 31.5t-43.5 93.5q0 63 42 111.5t101 48.5t95 -51.5t36 -134.5q0 -118 -67.5 -191
t-151.5 -73zM106 1675q21 0 33 2v19q0 110 -63 110q-29 0 -47.5 -21.5t-18.5 -49.5q0 -60 96 -60zM207 1407q31 -58 31 -119q0 -63 -34 -102t-93 -39q-60 0 -97 37q-31 -58 -110 -58q-67 0 -104.5 37t-37.5 97q0 47 23 100l55 -14q-8 -31 -8 -58q0 -74 72 -74q59 0 59 76
q0 25 -2 39l59 14q13 -47 13 -79v-2q27 -31 71 -31q62 0 62 61q0 39 -16 92z" />
    <glyph glyph-name="uni0651064E" horiz-adv-x="0" 
d="M225 1569l-12 -78l-457 -70l-6 2l12 78l457 70zM207 1407q31 -58 31 -119q0 -63 -34 -102t-93 -39q-60 0 -97 37q-31 -58 -110 -58q-67 0 -104.5 37t-37.5 97q0 47 23 100l55 -14q-8 -31 -8 -58q0 -74 72 -74q59 0 59 76q0 25 -2 39l59 14q13 -47 13 -79v-2
q27 -31 71 -31q62 0 62 61q0 39 -16 92z" />
    <glyph glyph-name="uni0651064B.1" horiz-adv-x="0" 
d="M213 1679l-457 -69l-6 2l12 78l457 69l6 -2zM225 1569l-12 -78l-457 -70l-6 2l12 78l457 70zM207 1407q31 -58 31 -119q0 -63 -34 -102t-93 -39q-60 0 -97 37q-31 -58 -110 -58q-67 0 -104.5 37t-37.5 97q0 47 23 100l55 -14q-8 -31 -8 -58q0 -74 72 -74q59 0 59 76
q0 25 -2 39l59 14q13 -47 13 -79v-2q27 -31 71 -31q62 0 62 61q0 39 -16 92z" />
    <glyph glyph-name="uni06510650" horiz-adv-x="0" 
d="M-84 1315q-67 0 -104 36.5t-37 96.5q0 49 22 100l56 -14q-9 -34 -9 -57q0 -74 72 -74q59 0 59 76q0 25 -2 39l60 14q12 -44 12 -80v-2q27 -31 72 -31q61 0 61 62q0 39 -16 92l57 22q31 -58 31 -118q0 -63 -34 -102.5t-93 -39.5t-96 37q-31 -57 -111 -57zM-225 1194
l456 70l7 -2l-13 -78l-456 -70l-7 2z" />
    <glyph glyph-name="uni0651064D" horiz-adv-x="0" 
d="M-84 1503q-67 0 -104 36.5t-37 96.5q0 50 22 101l56 -15q-9 -35 -9 -57q0 -74 72 -74q59 0 59 76q0 25 -2 39l60 14q12 -44 12 -80v-2q26 -30 72 -30q61 0 61 61q0 39 -16 92l57 23q31 -58 31 -119q0 -63 -34 -102t-93 -39t-96 37q-31 -58 -111 -58zM-225 1382l456 70
l7 -2l-13 -78l-456 -69l-7 2zM-225 1194l456 70l7 -2l-13 -78l-456 -70l-7 2z" />
    </font>
</defs>
</svg>
