<?xml version="1.0" standalone="no"?>
<!DOCTYPE svg PUBLIC "-//W3C//DTD SVG 1.1//EN" "http://www.w3.org/Graphics/SVG/1.1/DTD/svg11.dtd" >
<svg xmlns="http://www.w3.org/2000/svg" xmlns:xlink="http://www.w3.org/1999/xlink" version="1.1">
<metadata>
Created by FontForge 20170731 at Fri Dec  1 07:20:35 2023
 By Aleksey,,,
Copyright (c) 2018 Monotype GmbH. All rights reserved.
</metadata>
<defs>
<font id="Avenir-Light" horiz-adv-x="0" >
  <font-face 
    font-family="Avenir Light"
    font-weight="300"
    font-stretch="normal"
    units-per-em="2048"
    panose-1="2 11 4 3 2 2 3 2 2 4"
    ascent="1638"
    descent="-410"
    x-height="946"
    cap-height="1450"
    bbox="-342 -938 2843 2220"
    underline-thickness="102"
    underline-position="-358"
    unicode-range="U+000D-FEFF"
  />
<missing-glyph horiz-adv-x="1048" 
d="M1049 1470v-1470h-1049v1470h1049zM946 102v1264h-844v-1264h844zM530 1247q113 0 183.5 -73.5t70.5 -194.5q0 -71 -29 -126.5t-100 -119.5q-67 -59 -84 -94q-16 -31 -16 -160h-94q-4 20 -4 47q0 93 23.5 147.5t94.5 125.5q5 5 26.5 26t27 27t19.5 23.5t18.5 29t9 29.5
t4.5 37q0 74 -46.5 124t-109.5 50q-143 0 -168 -195l-102 17q12 135 83.5 207.5t192.5 72.5zM455 377h114v-137h-114v137z" />
    <glyph glyph-name="uniFB51" unicode="&#x671;" horiz-adv-x="571" arabic-form="final" 
d="M166 1548h123v-1194q0 -121 69.5 -179t212.5 -58q41 0 41 -58q0 -59 -41 -59q-209 0 -307 85.5t-98 260.5v1202zM-61 1661v65h104v203h66v-94q73 107 182 107q71 0 113 -48t42 -125q0 -58 -18 -108h-489zM102 1726h275q6 24 6 46q0 48 -27 75t-71 27q-55 0 -105 -41
t-78 -107z" />
    <glyph glyph-name="uniFB57" unicode="&#x67e;" horiz-adv-x="2043" arabic-form="final" 
d="M2044 117q41 0 41 -58q0 -59 -41 -59q-247 0 -330 160q-100 -160 -342 -160h-807q-224 0 -347.5 102.5t-123.5 282.5q0 141 66 320l114 -31q-55 -178 -55 -268q0 -289 363 -289h776q145 0 214.5 68t69.5 218v418h123v-444q0 -260 279 -260zM844 -268q0 -38 -23.5 -62
t-60.5 -24q-36 0 -60 24t-24 62q0 35 24.5 58.5t59.5 23.5q37 0 60.5 -23.5t23.5 -58.5zM1032 -186q35 0 58.5 -23.5t23.5 -58.5q0 -38 -23 -62t-59 -24q-37 0 -61.5 24t-24.5 62q0 35 24.5 58.5t61.5 23.5zM899 -387q37 0 60.5 -23.5t23.5 -60.5q0 -36 -24 -60t-60 -24
t-60 24t-24 60q0 37 23.5 60.5t60.5 23.5z" />
    <glyph glyph-name="uniFB58" unicode="&#x67e;" horiz-adv-x="638" arabic-form="initial" 
d="M0 0v117h12q131 0 190.5 67.5t59.5 218.5v418h123v-436q0 -385 -377 -385h-8zM102 -354q-36 0 -60 24t-24 62q0 35 24.5 58.5t59.5 23.5q37 0 60.5 -23.5t23.5 -58.5q0 -38 -23.5 -62t-60.5 -24zM375 -354q-37 0 -61.5 24t-24.5 62q0 35 24.5 58.5t61.5 23.5
q35 0 58.5 -23.5t23.5 -58.5q0 -38 -23 -62t-59 -24zM242 -555q-36 0 -60 24t-24 60q0 37 23.5 60.5t60.5 23.5t60.5 -23.5t23.5 -60.5q0 -36 -24 -60t-60 -24z" />
    <glyph glyph-name="uniFB59" unicode="&#x67e;" horiz-adv-x="663" arabic-form="medial" 
d="M664 117q41 0 41 -58q0 -59 -41 -59q-244 0 -328 156q-87 -156 -328 -156h-8v117h12q131 0 190.5 67.5t59.5 218.5v418h123v-444q0 -260 279 -260zM246 -268q0 -38 -23.5 -62t-60.5 -24q-36 0 -60 24t-24 62q0 35 24.5 58.5t59.5 23.5q37 0 60.5 -23.5t23.5 -58.5z
M434 -186q35 0 58.5 -23.5t23.5 -58.5q0 -38 -23 -62t-59 -24q-37 0 -61.5 24t-24.5 62q0 35 24.5 58.5t61.5 23.5zM301 -387q37 0 60.5 -23.5t23.5 -60.5q0 -36 -24 -60t-60 -24t-60 24t-24 60q0 37 23.5 60.5t60.5 23.5z" />
    <glyph glyph-name="uniFB67" unicode="&#x679;" horiz-adv-x="2043" arabic-form="final" 
d="M94 385q0 141 66 320l114 -31q-55 -178 -55 -268q0 -289 363 -289h776q145 0 214.5 68t69.5 218v418h123v-444q0 -260 279 -260q41 0 41 -58q0 -59 -41 -59q-247 0 -330 160q-100 -160 -342 -160h-807q-224 0 -347.5 102.5t-123.5 282.5zM643 961h105v344h67v-220
q79 103 184 103q77 0 122.5 -52.5t45.5 -136.5q0 -51 -18 -106h-506v68zM995 1120q-55 0 -104 -41.5t-78 -117.5h285q4 28 4 38q0 56 -29 88.5t-78 32.5z" />
    <glyph glyph-name="uniFB68" unicode="&#x679;" horiz-adv-x="509" arabic-form="initial" 
d="M47 1073v68h105v344h67v-219q79 102 184 102q77 0 122.5 -52t45.5 -136q0 -52 -18 -107h-506zM0 117q138 0 200 65.5t62 220.5v418h123v-436q0 -200 -96 -292.5t-289 -92.5v117zM399 1300q-55 0 -104 -41.5t-78 -117.5h285q4 28 4 39q0 56 -29 88t-78 32z" />
    <glyph glyph-name="uniFB69" unicode="&#x679;" horiz-adv-x="663" arabic-form="medial" 
d="M336 156q-84 -156 -336 -156v117q138 0 200 65.5t62 220.5v418h123v-444q0 -260 279 -260q41 0 41 -58q0 -59 -41 -59q-244 0 -328 156zM553 1073h-506v68h105v344h67v-219q79 102 184 102q77 0 122.5 -52t45.5 -136q0 -52 -18 -107zM399 1300q-55 0 -104 -41.5
t-78 -117.5h285q4 28 4 39q0 56 -29 88t-78 32z" />
    <glyph glyph-name="uniFB6B" unicode="&#x6a4;" horiz-adv-x="2201" arabic-form="final" 
d="M94 385q0 141 66 320l114 -31q-55 -178 -55 -268q0 -289 363 -289h657q123 0 182 14q-97 59 -156 149t-59 201q0 157 113 259t293 102q179 0 287 -101t108 -260q0 -114 -58 -204t-159 -148q76 -12 172 -12h240q41 0 41 -58q0 -59 -41 -59h-230q-213 0 -364 43
q-151 -43 -375 -43h-668q-224 0 -347.5 102.5t-123.5 282.5zM1333 481q0 -112 79.5 -196.5t195.5 -120.5q111 34 191.5 119.5t80.5 199.5q0 108 -74.5 174t-195.5 66q-122 0 -199.5 -67.5t-77.5 -174.5zM1473 1092q-36 0 -60 24t-24 60q0 35 24.5 59.5t59.5 24.5
q36 0 59.5 -24t23.5 -60q0 -37 -23 -60.5t-60 -23.5zM1745 1092q-37 0 -61.5 23.5t-24.5 60.5q0 35 24.5 59.5t61.5 24.5q35 0 58.5 -24.5t23.5 -59.5q0 -37 -23.5 -60.5t-58.5 -23.5zM1614 1294q-37 0 -60.5 24.5t-23.5 61.5q0 34 24 59t60 25q35 0 58.5 -25t23.5 -59
q0 -37 -23.5 -61.5t-58.5 -24.5z" />
    <glyph glyph-name="uniFB6C" unicode="&#x6a4;" horiz-adv-x="1130" arabic-form="initial" 
d="M0 0v117h297q-115 121 -115 299q0 187 119.5 306.5t310.5 119.5q96 0 170.5 -34t120.5 -94.5t69 -139t23 -171.5q0 -174 -90 -403h-905zM602 723q-134 0 -213.5 -85.5t-79.5 -223.5q0 -161 129 -297h381q49 158 49 280q0 151 -68.5 238.5t-197.5 87.5zM473 1092
q-36 0 -60 24t-24 60q0 35 24.5 59.5t59.5 24.5q36 0 60 -24t24 -60q0 -37 -23.5 -60.5t-60.5 -23.5zM659 1176q0 35 24.5 59.5t61.5 24.5q35 0 58.5 -24.5t23.5 -59.5q0 -37 -23.5 -60.5t-58.5 -23.5q-37 0 -61.5 23.5t-24.5 60.5zM614 1294q-37 0 -60.5 24.5t-23.5 61.5
q0 34 24 59t60 25q35 0 58.5 -25t23.5 -59q0 -37 -23.5 -61.5t-58.5 -24.5z" />
    <glyph glyph-name="uniFB6D" unicode="&#x6a4;" horiz-adv-x="1177" arabic-form="medial" 
d="M209 0h-209v117h215q123 0 182 14q-97 59 -156 149t-59 201q0 157 113 259t293 102q179 0 287 -101t108 -260q0 -114 -58 -204t-159 -148q76 -12 172 -12h240q41 0 41 -58q0 -59 -41 -59h-230q-213 0 -364 43q-151 -43 -375 -43zM586 723q-122 0 -199.5 -67.5
t-77.5 -174.5q0 -112 79.5 -196.5t195.5 -120.5q111 34 191.5 119.5t80.5 199.5q0 108 -74.5 174t-195.5 66zM449 1092q-36 0 -60 24t-24 60q0 35 24.5 59.5t59.5 24.5q36 0 59.5 -24t23.5 -60q0 -37 -23 -60.5t-60 -23.5zM721 1092q-37 0 -61.5 23.5t-24.5 60.5
q0 35 24.5 59.5t61.5 24.5q35 0 58.5 -24.5t23.5 -59.5q0 -37 -23.5 -60.5t-58.5 -23.5zM590 1294q-37 0 -60.5 24.5t-23.5 61.5q0 34 24 59t60 25q35 0 58.5 -25t23.5 -59q0 -37 -23.5 -61.5t-58.5 -24.5z" />
    <glyph glyph-name="uniFB7B" unicode="&#x686;" horiz-adv-x="1347" arabic-form="final" 
d="M467 -532q-172 0 -278.5 87.5t-106.5 241.5q0 147 93.5 233.5t250.5 86.5h545q24 91 24 180q0 195 -106 310.5t-307 115.5q-103 0 -234 -41l-31 111q132 49 283 49q252 0 383 -144t131 -393q0 -82 -16 -188h250q41 0 41 -58q0 -59 -41 -59h-910q-109 0 -170 -52t-61 -149
q0 -103 71.5 -157t202.5 -54q56 0 129 15l25 -117q-70 -18 -168 -18zM686 -381q-25 0 -41 17t-16 42q0 26 16 43t41 17q26 0 42.5 -17t16.5 -43q0 -25 -16.5 -42t-42.5 -17zM590 -240q-25 0 -42.5 17t-17.5 43q0 24 17.5 40.5t42.5 16.5q26 0 42.5 -16t16.5 -41
q0 -26 -16.5 -43t-42.5 -17zM721 -180q0 25 16.5 41t42.5 16q25 0 41.5 -16t16.5 -41q0 -26 -16.5 -43t-41.5 -17q-26 0 -42.5 17t-16.5 43z" />
    <glyph glyph-name="uniFB7C" unicode="&#x686;" horiz-adv-x="1003" arabic-form="initial" 
d="M0 0v117h723q17 66 21 134t-4.5 137t-38 128.5t-76 106t-121.5 73.5t-170 27q-106 0 -234 -41l-30 111q132 49 282 49q132 0 233.5 -40.5t164 -115t92.5 -178.5t24.5 -232.5t-45.5 -275.5h-821zM264 -354q-36 0 -60 24t-24 62q0 35 24.5 58.5t59.5 23.5q37 0 60.5 -23.5
t23.5 -58.5q0 -38 -23.5 -62t-60.5 -24zM537 -354q-37 0 -61.5 24t-24.5 62q0 35 24.5 58.5t61.5 23.5q35 0 58 -23.5t23 -58.5q0 -38 -23 -62t-58 -24zM403 -555q-36 0 -60 24t-24 60q0 37 23.5 60.5t60.5 23.5t60.5 -23.5t23.5 -60.5q0 -36 -24 -60t-60 -24z" />
    <glyph glyph-name="uniFB7D" unicode="&#x686;" horiz-adv-x="1097" arabic-form="medial" 
d="M0 117h723q17 66 21 134t-4.5 137t-38 128.5t-76 106t-121.5 73.5t-170 27q-106 0 -234 -41l-30 111q132 49 282 49q202 0 328.5 -92.5t167 -254.5t0.5 -378h250q41 0 41 -58q0 -59 -41 -59h-1098v117zM180 -268q0 35 24.5 58.5t59.5 23.5q37 0 60.5 -23.5t23.5 -58.5
q0 -38 -23.5 -62t-60.5 -24q-36 0 -60 24t-24 62zM319 -471q0 37 23.5 60.5t60.5 23.5t60.5 -23.5t23.5 -60.5q0 -36 -24 -60t-60 -24t-60 24t-24 60zM451 -268q0 35 24.5 58.5t61.5 23.5q35 0 58 -23.5t23 -58.5q0 -38 -23 -62t-58 -24q-37 0 -61.5 24t-24.5 62z" />
    <glyph glyph-name="uniFB89" unicode="&#x688;" horiz-adv-x="1136" arabic-form="final" 
d="M82 0v117h700v45q0 177 -105 329.5t-317 290.5l74 99q135 -88 227 -176.5t145.5 -182t76 -188.5t22.5 -209v-8h232q41 0 41 -58q0 -59 -41 -59h-1055zM115 1153h104v344h68v-219q79 102 184 102q77 0 122.5 -52t45.5 -136q0 -52 -18 -107h-506v68zM285 1153h284
q4 28 4 39q0 56 -28.5 88.5t-77.5 32.5q-55 0 -104 -42t-78 -118z" />
    <glyph glyph-name="uniFB8B" unicode="&#x698;" horiz-adv-x="688" arabic-form="final" 
d="M362 1274q-36 0 -59.5 24.5t-23.5 61.5q0 35 23.5 59.5t59.5 24.5q35 0 58.5 -25t23.5 -59q0 -37 -23.5 -61.5t-58.5 -24.5zM221 1071q-36 0 -60 24t-24 60q0 35 24.5 59.5t59.5 24.5q36 0 60 -24t24 -60q0 -37 -23.5 -60.5t-60.5 -23.5zM408 1155q0 35 24.5 59.5
t61.5 24.5q35 0 58 -24t23 -60q0 -37 -23 -60.5t-58 -23.5q-37 0 -61.5 23.5t-24.5 60.5zM688 117q41 0 41 -58q0 -59 -41 -59h-280v12q-56 -318 -392 -364l-24 114q161 27 233 113t72 266v680h123v-655q0 -33 -2 -49h270z" />
    <glyph glyph-name="uniFB8D" unicode="&#x691;" horiz-adv-x="688" arabic-form="final" 
d="M-8 -238q161 27 233 113t72 266v680h123v-655q0 -33 -2 -49h270q41 0 41 -58q0 -59 -41 -59h-280v12q-56 -318 -392 -364zM82 1073v68h104v344h68v-219q79 102 184 102q77 0 122.5 -52t45.5 -136q0 -52 -18 -107h-506zM434 1300q-55 0 -104 -41.5t-78 -117.5h285
q4 28 4 39q0 56 -29 88t-78 32z" />
    <glyph glyph-name="uniFB8F" unicode="&#x6a9;" horiz-adv-x="1871" arabic-form="final" 
d="M94 385q0 141 66 320l114 -31q-55 -178 -55 -268q0 -289 363 -289h901v94q0 234 -140.5 376.5t-484.5 248.5v122l580 560l82 -84l-537 -519q180 -60 302 -134t191 -166t97.5 -193.5t28.5 -231.5v-73h270q41 0 41 -58q0 -59 -41 -59h-1307q-224 0 -347.5 102.5
t-123.5 282.5z" />
    <glyph glyph-name="uniFB90" unicode="&#x6a9;" horiz-adv-x="954" arabic-form="initial" 
d="M201 915q180 -60 301.5 -134t190.5 -166t97.5 -193t28.5 -232v-190h-819v117h700v94q0 234 -140 376.5t-484 248.5v122l579 560l82 -84z" />
    <glyph glyph-name="uniFB91" unicode="&#x6a9;" horiz-adv-x="1081" arabic-form="medial" 
d="M0 0v117h700v94q0 234 -140 376.5t-484 248.5v122l579 560l82 -84l-536 -519q180 -60 301.5 -134t190.5 -166t97.5 -193t28.5 -232v-73h262q41 0 41 -58q0 -59 -41 -59h-1081z" />
    <glyph glyph-name="uniFB93" unicode="&#x6af;" horiz-adv-x="1871" arabic-form="final" 
d="M565 0q-224 0 -347.5 102.5t-123.5 282.5q0 141 66 320l114 -31q-55 -178 -55 -268q0 -289 363 -289h901v94q0 234 -140.5 376.5t-484.5 248.5v122l580 560l82 -84l-537 -519q180 -60 302 -134t191 -166t97.5 -193.5t28.5 -231.5v-73h270q41 0 41 -58q0 -59 -41 -59
h-1307zM846 1098l-84 84l520 493l82 -82z" />
    <glyph glyph-name="uniFB94" unicode="&#x6af;" horiz-adv-x="954" arabic-form="initial" 
d="M63 1098l-83 84l520 493l82 -82zM201 915q180 -60 301.5 -134t190.5 -166t97.5 -193t28.5 -232v-190h-819v117h700v94q0 234 -140 376.5t-484 248.5v122l579 560l82 -84z" />
    <glyph glyph-name="uniFB95" unicode="&#x6af;" horiz-adv-x="1081" arabic-form="medial" 
d="M0 117h700v94q0 234 -140 376.5t-484 248.5v122l579 560l82 -84l-536 -519q180 -60 301.5 -134t190.5 -166t97.5 -193t28.5 -232v-73h262q41 0 41 -58q0 -59 -41 -59h-1081v117zM-20 1182l520 493l82 -82l-519 -495z" />
    <glyph glyph-name="uniFB9F" unicode="&#x6ba;" horiz-adv-x="1425" arabic-form="final" 
d="M1425 117q41 0 41 -58q0 -59 -41 -59h-278q-44 -165 -180 -250.5t-342 -85.5q-253 0 -392 127.5t-139 335.5q0 160 84 362l109 -38q-68 -172 -68 -310q0 -177 108 -266.5t302 -89.5q413 0 413 399v488h123v-555h260z" />
    <glyph glyph-name="uniFBA7" unicode="&#x6c1;" horiz-adv-x="1177" arabic-form="final" 
d="M178 -16l-96 41q106 228 246.5 360.5t292.5 132.5q93 0 156 -46.5t132 -166.5q67 -118 117.5 -153t151.5 -35q41 0 41 -62q0 -29 -9.5 -42t-31.5 -13q-139 0 -212 45t-149 180q-60 102 -102.5 139t-102.5 37q-111 0 -226.5 -114t-207.5 -303z" />
    <glyph glyph-name="uniFBA8" unicode="&#x6c1;" horiz-adv-x="509" arabic-form="initial" 
d="M0 0v117q138 0 200 65.5t62 220.5v418h123v-436q0 -200 -96 -292.5t-289 -92.5zM190 -502q-61 89 -61 209q0 103 49 203l88 -25q-33 -81 -33 -153q0 -94 56 -185z" />
    <glyph glyph-name="uniFBA9" unicode="&#x6c1;" horiz-adv-x="782" arabic-form="medial" 
d="M-2 117h221q-22 -101 -22 -170q0 -106 45.5 -188t144.5 -121q-2 20 -2 59q0 116 40 209.5t125 152t204 58.5h28q41 0 41 -58q0 -59 -41 -59h-26q-123 0 -193.5 -82t-70.5 -240q0 -79 18 -170q-191 13 -311.5 120.5t-120.5 299.5q0 45 4 72h-84v117z" />
    <glyph glyph-name="uniFBAB" unicode="&#x6be;" horiz-adv-x="1304" arabic-form="final" 
d="M82 59l37 111q124 -53 282 -53h48v270q0 207 93 328t275 121q165 0 256.5 -109.5t91.5 -271.5q0 -104 -33.5 -191.5t-95.5 -146.5h269q41 0 41 -58q0 -59 -41 -59h-179q54 -102 54 -186q0 -138 -100 -222t-265 -84q-184 0 -275 96t-91 277v119h-48q-186 0 -319 59z
M571 117h187q129 0 206.5 92t77.5 235q0 120 -64 195.5t-171 75.5q-112 0 -174 -80t-62 -234v-284zM993 0h-422v-109q0 -133 62 -197.5t190 -64.5q116 0 173 52.5t57 142.5q0 85 -60 176z" />
    <glyph glyph-name="uniFBAC" unicode="&#x6be;" horiz-adv-x="1267" arabic-form="initial" 
d="M0 117h178q83 0 156 16q-67 48 -109.5 130t-42.5 179q0 95 46 176.5t126 122.5q-80 10 -196 17l18 108q186 -14 334 -43t270.5 -79.5t203.5 -121.5t125 -170.5t44 -224.5q0 -105 -29 -227h-350q-169 0 -297 47q-120 -47 -299 -47h-178v117zM295 446q0 -98 50 -171
t128 -111q88 34 146.5 107t58.5 178q0 104 -54 168.5t-137 64.5q-84 0 -138 -67.5t-54 -168.5zM616 129q70 -12 134 -12h276q12 59 12 123q0 287 -311 415q64 -89 64 -206q0 -100 -49.5 -186t-125.5 -134z" />
    <glyph glyph-name="uniFBAD" unicode="&#x6be;" horiz-adv-x="1036" arabic-form="medial" 
d="M0 117h180v270q0 207 93.5 328t275.5 121q165 0 256.5 -109.5t91.5 -271.5q0 -104 -33.5 -191.5t-95.5 -146.5h268q41 0 41 -58q0 -59 -41 -59h-178q53 -100 53 -186q0 -138 -99.5 -222t-264.5 -84q-184 0 -275.5 96.5t-91.5 276.5v119h-180v117zM537 715
q-111 0 -172.5 -80t-61.5 -234v-284h186q130 0 207.5 92.5t77.5 234.5q0 120 -64 195.5t-173 75.5zM303 -109q0 -134 61.5 -198t190.5 -64q116 0 172.5 52.5t56.5 142.5q0 87 -59 176h-422v-109z" />
    <glyph glyph-name="uniFBAF" unicode="&#x6d2;" horiz-adv-x="847" arabic-form="final" 
d="M705 -532q-327 0 -482 79t-155 254q0 152 113 234t321 82h346q41 0 41 -58q0 -59 -41 -59h-359q-159 0 -232 -49.5t-73 -145.5q0 -116 126 -166.5t423 -50.5q333 0 752 74l6 -119q-454 -75 -786 -75z" />
    <glyph glyph-name="uniFBB1" unicode="&#x6d3;" horiz-adv-x="847" arabic-form="final" 
d="M68 -199q0 152 113 234t321 82h346q41 0 41 -58q0 -59 -41 -59h-359q-159 0 -232 -49.5t-73 -145.5q0 -116 126 -166.5t423 -50.5q333 0 752 74l6 -119q-454 -75 -786 -75q-327 0 -482 79t-155 254zM649 377h-422v82h103q-43 67 -43 143q0 88 58.5 139.5t152.5 51.5
q54 0 127 -15l-17 -80q-74 11 -94 11q-59 0 -100 -29.5t-41 -89.5q0 -63 45 -131h231v-82z" />
    <glyph glyph-name="uniFBE8" unicode="&#x649;" horiz-adv-x="509" arabic-form="initial" 
d="M0 0v117q138 0 200 65.5t62 220.5v418h123v-436q0 -200 -96 -292.5t-289 -92.5z" />
    <glyph glyph-name="uniFBE9" unicode="&#x649;" horiz-adv-x="663" arabic-form="medial" 
d="M664 117q41 0 41 -58q0 -59 -41 -59q-244 0 -328 156q-84 -156 -336 -156v117q138 0 200 65.5t62 220.5v418h123v-444q0 -260 279 -260z" />
    <glyph glyph-name="uniFBFD" unicode="&#x6cc;" horiz-adv-x="1564" arabic-form="final" 
d="M1565 117q41 0 41 -58q0 -59 -41 -59h-201q90 -60 90 -170q0 -153 -190 -257.5t-502 -104.5q-336 0 -502 121t-166 343q0 119 47 265l115 -31q-37 -133 -37 -219q0 -181 132 -270t419 -89q257 0 408 71t151 177q0 64 -65.5 116t-196.5 85l-236 59l31 105l277 -66
q79 -18 198 -18h228z" />
    <glyph glyph-name="uniFBFE" unicode="&#x6cc;" horiz-adv-x="571" arabic-form="initial" 
d="M0 0v117h12q131 0 190.5 67.5t59.5 218.5v418h123v-436q0 -385 -377 -385h-8zM102 -352q-36 0 -60 24t-24 60t24 60t60 24q37 0 60.5 -23.5t23.5 -60.5t-23.5 -60.5t-60.5 -23.5zM375 -352q-37 0 -61.5 23.5t-24.5 60.5t24.5 60.5t61.5 23.5q35 0 58.5 -23.5t23.5 -60.5
t-23.5 -60.5t-58.5 -23.5z" />
    <glyph glyph-name="uniFBFF" unicode="&#x6cc;" horiz-adv-x="663" arabic-form="medial" 
d="M664 117q41 0 41 -58q0 -59 -41 -59q-244 0 -328 156q-87 -156 -328 -156h-8v117h12q131 0 190.5 67.5t59.5 218.5v418h123v-444q0 -260 279 -260zM162 -184q37 0 60.5 -23.5t23.5 -60.5t-23.5 -60.5t-60.5 -23.5q-36 0 -60 24t-24 60t24 60t60 24zM434 -184
q35 0 58.5 -23.5t23.5 -60.5t-23.5 -60.5t-58.5 -23.5q-37 0 -61.5 23.5t-24.5 60.5t24.5 60.5t61.5 23.5z" />
    <glyph glyph-name="uniFDF2" unicode="&#xfdf2;" horiz-adv-x="2824" arabic-form="isolated" 
d="M82 408q0 189 125 301t344 112h326v-512q0 -112 54 -152t193 -40q143 0 198.5 65t55.5 221v797h123v-823q0 -260 279 -260q143 0 198.5 65t55.5 221v1145h123v-1194q0 -354 -377 -354q-243 0 -324 158q-87 -158 -332 -158q-150 0 -232 28t-110 91q-144 -70 -288 -70
q-191 0 -301.5 95t-110.5 264zM528 705q-147 0 -234 -73t-87 -212q0 -122 77 -186t220 -64q144 0 246 59v476h-222zM2535 0v1548h123v-1548h-123zM1210 1440q0 40 21 96l47 -14q-10 -42 -10 -62q0 -80 78 -80q65 0 65 78q0 31 -4 47l49 15q12 -43 12 -76v-12q29 -33 78 -33
q68 0 68 69q0 36 -19 95l50 20q28 -55 28 -115q0 -61 -32.5 -100t-90.5 -39q-55 0 -98 37q-29 -59 -106 -59q-65 0 -100.5 36.5t-35.5 96.5zM1405 1618v297h68v-277l-58 -20h-10z" />
    <glyph glyph-name="uniFDFA" unicode="&#xfdfa;" horiz-adv-x="2293" arabic-form="isolated" 
d="M233 387q-69 0 -110 35.5t-41 99.5q0 76 49 119t141 43h129v-170q0 -32 17 -45.5t59 -13.5h4q42 0 61 19.5t19 66.5v143h82v-152q0 -77 82 -77h283v163h86v-163h317q42 0 60 19.5t18 66.5v303h84v-318q0 -71 78 -71h276q-26 46 -26 92q0 69 44 110t126 41q32 0 90 -12
l-15 -74q-45 9 -63 9q-45 0 -69.5 -22t-24.5 -60q0 -50 30 -84h160v-82h-530q-85 0 -113 47q-31 -47 -123 -47h-319v-416q0 -74 77 -74h35q68 0 68 72v111h84v-123q0 -60 63 -60q64 0 64 72v111h82v-123q0 -60 63 -60q34 0 49 17t15 57v162h84v-191q0 -61 -35.5 -94
t-100.5 -33t-102 49q-35 -49 -104 -49q-72 0 -105 47q-41 -47 -121 -47h-39q-80 0 -112 49q-35 -49 -125 -49h-383q-47 -47 -133 -47h-72q-27 23 -41 49l-43 -2q-29 -2 -43 -16.5t-14 -48.5v-125h-82v139q0 65 33.5 99t95.5 34h24q-4 24 -4 41q0 72 47 119t121 47
q72 0 114 -45.5t42 -118.5q0 -15 -4 -43h340q41 0 58.5 19.5t17.5 64.5v406h-287q-86 0 -111 49q-38 -49 -127 -49h-16q-49 0 -76 8.5t-47 30.5q-52 -25 -111 -25zM842 868q0 30 14 68l80 -16q-6 -18 -6 -37q0 -37 32.5 -57.5t94.5 -20.5q88 0 137 27t49 67q0 24 -26.5 38.5
t-102.5 35.5l21 71q78 -20 145 -20q41 0 57.5 19.5t16.5 68.5v338h84v-352q0 -74 78 -74q40 0 58.5 17.5t18.5 58.5v117h82v-130q0 -52 45 -61q128 244 291 244q81 0 125.5 -51t44.5 -140q0 -63 -24 -137h-412q-76 0 -103 45q-19 -23 -46 -34t-78 -11q-77 0 -107 47
q-29 -47 -111 -47q31 -19 31 -59q0 -69 -75.5 -114.5t-204.5 -45.5q-101 0 -155 38.5t-54 106.5zM221 956q-70 0 -110.5 36t-40.5 100q0 76 49 118.5t141 42.5h129v-176q0 -29 15.5 -41t54.5 -12t55 18.5t16 61.5v254h84v-260q0 -74 74 -74q40 0 57 19t17 65v342h84v-360
q0 -80 -38 -114t-120 -34q-80 0 -110 47q-33 -47 -123 -47q-50 0 -77 8.5t-46 30.5q-52 -25 -111 -25zM2003 -188q-69 0 -110.5 40.5t-41.5 112.5q0 70 44 116t116 46q75 0 112.5 -45.5t37.5 -118.5v-119q0 -50 -15 -85.5t-38 -55t-61 -30.5t-72 -14t-83 -3l-4 78h33
q153 0 156 90q-28 -12 -74 -12zM948 971v479h86v-479h-86zM1806 1024l281 -2q12 46 12 63q0 49 -25.5 78t-68.5 29q-108 0 -199 -168zM356 -117q7 -29 29 -55h33q72 0 92 55q8 16 8 43q0 39 -22.5 63.5t-61.5 24.5q-38 0 -61 -25.5t-23 -66.5q0 -21 6 -39zM1931 -37
q0 -39 22.5 -61.5t61.5 -22.5q41 0 68 12v72q0 44 -19.5 68t-54.5 24t-56.5 -25.5t-21.5 -66.5zM262 616q-98 0 -98 -81q0 -35 22.5 -54.5t63.5 -19.5q28 0 69 18v137h-57zM152 1104q0 -72 86 -72q40 0 67 17v137h-55q-98 0 -98 -82zM526 1386q-23 0 -36 14.5t-13 39.5
q0 20 8 39l33 -9q-6 -15 -6 -22q0 -23 20 -23q21 0 21 23v18l29 4q2 -16 2 -32q8 -8 20 -8q21 0 21 24q0 11 -9 29l35 12q11 -33 11 -49q0 -26 -14 -40.5t-38 -14.5q-20 0 -37 14q-19 -19 -47 -19zM483 270q0 19 12 32t33 13q20 0 31.5 -13t11.5 -32q0 -20 -12 -32.5
t-31 -12.5q-20 0 -32.5 12.5t-12.5 32.5zM653 225q-20 0 -32.5 12.5t-12.5 32.5q0 19 12.5 32t32.5 13q18 0 29.5 -13t11.5 -32q0 -20 -11 -32.5t-30 -12.5z" />
    <glyph glyph-name="uniFE82" unicode="&#x622;" horiz-adv-x="571" arabic-form="final" 
d="M350 1679q-55 0 -156.5 28t-132.5 28q-47 0 -100 -39l-45 53q76 68 150 68q37 0 136.5 -28t141.5 -28q34 0 57 11t58 43l51 -50q-59 -86 -160 -86zM571 0q-209 0 -307 85.5t-98 260.5v1202h123v-1194q0 -121 69.5 -179t212.5 -58q41 0 41 -58q0 -59 -41 -59z" />
    <glyph glyph-name="uniFE84" unicode="&#x623;" horiz-adv-x="571" arabic-form="final" 
d="M166 1548h123v-1194q0 -121 69.5 -179t212.5 -58q41 0 41 -58q0 -59 -41 -59q-209 0 -307 85.5t-98 260.5v1202zM395 1661h-327v65h79q-32 56 -32 109q0 70 47 112t121 42q35 0 94 -13l-12 -65q-33 10 -72 10q-48 0 -78.5 -25t-30.5 -71q0 -45 33 -99h178v-65z" />
    <glyph glyph-name="uniFE86" unicode="&#x624;" horiz-adv-x="1091" arabic-form="final" 
d="M113 408q0 119 49 218t141.5 158.5t210.5 59.5q169 0 270 -104t101 -287v-336h207q41 0 41 -58q0 -59 -41 -59h-211q-22 -165 -156 -259.5t-401 -94.5q-45 0 -84 2l-7 112q29 -2 82 -2q417 0 443 242h-158q-245 0 -366 107t-121 301zM510 725q-116 0 -194 -84t-78 -219
q0 -155 91 -230t285 -75h148v295q0 149 -65.5 231t-186.5 82zM707 1104h-422v82h102q-43 67 -43 143q0 88 58.5 139.5t152.5 51.5q54 0 127 -15l-16 -80q-74 11 -95 11q-59 0 -100 -29.5t-41 -89.5q0 -63 45 -131h232v-82z" />
    <glyph glyph-name="uniFE88" unicode="&#x625;" horiz-adv-x="571" arabic-form="final" 
d="M166 346v1202h123v-1194q0 -121 69.5 -179t212.5 -58q41 0 41 -58q0 -59 -41 -59q-209 0 -307 85.5t-98 260.5zM123 -446h78q-31 51 -31 106q0 70 46.5 113t119.5 43q42 0 96 -15l-12 -63q-33 10 -72 10q-48 0 -78 -25t-30 -71q0 -52 32 -98h179v-66h-328v66z" />
    <glyph glyph-name="uniFE8A" unicode="&#x626;" horiz-adv-x="1564" arabic-form="final" 
d="M762 -532q-336 0 -502 121t-166 343q0 119 47 265l115 -31q-37 -133 -37 -219q0 -181 132 -270t419 -89q257 0 408 71t151 177q0 64 -65.5 116t-196.5 85l-236 59l31 105l277 -66q79 -18 198 -18h228q41 0 41 -58q0 -59 -41 -59h-201q90 -60 90 -170q0 -153 -190 -257.5
t-502 -104.5zM565 426h-422v82h103q-43 67 -43 143q0 88 58.5 139.5t152.5 51.5q54 0 127 -15l-17 -79q-68 10 -94 10q-59 0 -100 -29.5t-41 -89.5q0 -63 45 -131h231v-82z" />
    <glyph glyph-name="uniFE8B" unicode="&#x626;" horiz-adv-x="571" arabic-form="initial" 
d="M0 0v117h12q131 0 190.5 67.5t59.5 218.5v418h123v-436q0 -385 -377 -385h-8zM96 1081v82h103q-43 67 -43 144q0 88 58.5 139t152.5 51q59 0 127 -14l-17 -80q-67 10 -94 10q-59 0 -100 -29.5t-41 -89.5q0 -63 45 -131h231v-82h-422z" />
    <glyph glyph-name="uniFE8C" unicode="&#x626;" horiz-adv-x="663" arabic-form="medial" 
d="M8 0h-8v117h12q131 0 190.5 67.5t59.5 218.5v418h123v-444q0 -260 279 -260q41 0 41 -58q0 -59 -41 -59q-244 0 -328 156q-87 -156 -328 -156zM96 1081v82h103q-43 67 -43 144q0 88 58.5 139t152.5 51q59 0 127 -14l-17 -80q-67 10 -94 10q-59 0 -100 -29.5t-41 -89.5
q0 -63 45 -131h231v-82h-422z" />
    <glyph glyph-name="uniFE8E" unicode="&#x627;" horiz-adv-x="571" arabic-form="final" 
d="M571 0q-209 0 -307 85.5t-98 260.5v1202h123v-1194q0 -121 69.5 -179t212.5 -58q41 0 41 -58q0 -59 -41 -59z" />
    <glyph glyph-name="uniFE90" unicode="&#x628;" horiz-adv-x="2043" arabic-form="final" 
d="M2044 117q41 0 41 -58q0 -59 -41 -59q-247 0 -330 160q-100 -160 -342 -160h-807q-224 0 -347.5 102.5t-123.5 282.5q0 141 66 320l114 -31q-55 -178 -55 -268q0 -289 363 -289h776q145 0 214.5 68t69.5 218v418h123v-444q0 -260 279 -260zM901 -184q37 0 59.5 -23.5
t22.5 -60.5t-22.5 -60.5t-59.5 -23.5q-38 0 -62 23.5t-24 60.5t24 60.5t62 23.5z" />
    <glyph glyph-name="uniFE91" unicode="&#x628;" horiz-adv-x="509" arabic-form="initial" 
d="M0 0v117q138 0 200 65.5t62 220.5v418h123v-436q0 -200 -96 -292.5t-289 -92.5zM246 -352q-38 0 -62 23.5t-24 60.5t24 60.5t62 23.5q37 0 59.5 -23.5t22.5 -60.5t-22.5 -60.5t-59.5 -23.5z" />
    <glyph glyph-name="uniFE92" unicode="&#x628;" horiz-adv-x="663" arabic-form="medial" 
d="M664 117q41 0 41 -58q0 -59 -41 -59q-244 0 -328 156q-84 -156 -336 -156v117q138 0 200 65.5t62 220.5v418h123v-444q0 -260 279 -260zM303 -184q37 0 59.5 -23.5t22.5 -60.5t-22.5 -60.5t-59.5 -23.5q-38 0 -62 23.5t-24 60.5t24 60.5t62 23.5z" />
    <glyph glyph-name="uniFE94" unicode="&#x629;" horiz-adv-x="1124" arabic-form="final" 
d="M412 1065q-36 0 -60 24t-24 60t24 60t60 24q37 0 60.5 -23.5t23.5 -60.5t-23.5 -60.5t-60.5 -23.5zM684 1065q-37 0 -61.5 23.5t-24.5 60.5t24.5 60.5t61.5 23.5q35 0 58.5 -23.5t23.5 -60.5t-23.5 -60.5t-58.5 -23.5zM1124 117q41 0 41 -58q0 -59 -41 -59
q-150 0 -232.5 28t-111.5 89q-147 -68 -286 -68q-191 0 -301.5 95t-110.5 264q0 189 125 301t344 112h326v-512q0 -112 54 -152t193 -40zM750 229v476h-222q-147 0 -234 -73t-87 -212q0 -122 77 -186t220 -64q144 0 246 59z" />
    <glyph glyph-name="uniFE96" unicode="&#x62a;" horiz-adv-x="2043" arabic-form="final" 
d="M782 885q-36 0 -60 24t-24 60t24 60t60 24q37 0 60.5 -23.5t23.5 -60.5t-23.5 -60.5t-60.5 -23.5zM1055 885q-37 0 -61.5 23.5t-24.5 60.5t24.5 60.5t61.5 23.5q35 0 58.5 -23.5t23.5 -60.5t-23.5 -60.5t-58.5 -23.5zM2044 117q41 0 41 -58q0 -59 -41 -59
q-247 0 -330 160q-100 -160 -342 -160h-807q-224 0 -347.5 102.5t-123.5 282.5q0 141 66 320l114 -31q-55 -178 -55 -268q0 -289 363 -289h776q145 0 214.5 68t69.5 218v418h123v-444q0 -260 279 -260z" />
    <glyph glyph-name="uniFE97" unicode="&#x62a;" horiz-adv-x="571" arabic-form="initial" 
d="M184 1065q-36 0 -60 24t-24 60t24 60t60 24q37 0 60.5 -23.5t23.5 -60.5t-23.5 -60.5t-60.5 -23.5zM457 1065q-37 0 -61.5 23.5t-24.5 60.5t24.5 60.5t61.5 23.5q35 0 58.5 -23.5t23.5 -60.5t-23.5 -60.5t-58.5 -23.5zM0 0v117h12q131 0 190.5 67.5t59.5 218.5v418h123
v-436q0 -385 -377 -385h-8z" />
    <glyph glyph-name="uniFE98" unicode="&#x62a;" horiz-adv-x="663" arabic-form="medial" 
d="M184 1065q-36 0 -60 24t-24 60t24 60t60 24q37 0 60.5 -23.5t23.5 -60.5t-23.5 -60.5t-60.5 -23.5zM457 1065q-37 0 -61.5 23.5t-24.5 60.5t24.5 60.5t61.5 23.5q35 0 58.5 -23.5t23.5 -60.5t-23.5 -60.5t-58.5 -23.5zM664 117q41 0 41 -58q0 -59 -41 -59
q-244 0 -328 156q-87 -156 -328 -156h-8v117h12q131 0 190.5 67.5t59.5 218.5v418h123v-444q0 -260 279 -260z" />
    <glyph glyph-name="uniFE9A" unicode="&#x62b;" horiz-adv-x="2043" arabic-form="final" 
d="M924 1094q-37 0 -60.5 24.5t-23.5 61.5q0 34 24 59t60 25q35 0 58.5 -25t23.5 -59q0 -37 -23.5 -61.5t-58.5 -24.5zM782 891q-36 0 -60 24t-24 60q0 35 24.5 59.5t59.5 24.5q36 0 60 -24t24 -60q0 -37 -23.5 -60.5t-60.5 -23.5zM969 975q0 35 24.5 59.5t61.5 24.5
q35 0 58.5 -24.5t23.5 -59.5q0 -37 -23.5 -60.5t-58.5 -23.5q-37 0 -61.5 23.5t-24.5 60.5zM2044 117q41 0 41 -58q0 -59 -41 -59q-247 0 -330 160q-100 -160 -342 -160h-807q-224 0 -347.5 102.5t-123.5 282.5q0 141 66 320l114 -31q-55 -178 -55 -268q0 -289 363 -289h776
q145 0 214.5 68t69.5 218v418h123v-444q0 -260 279 -260z" />
    <glyph glyph-name="uniFE9B" unicode="&#x62b;" horiz-adv-x="571" arabic-form="initial" 
d="M326 1274q-37 0 -60.5 24.5t-23.5 61.5q0 34 24 59t60 25q35 0 58.5 -25t23.5 -59q0 -37 -23.5 -61.5t-58.5 -24.5zM184 1071q-36 0 -60 24t-24 60q0 35 24.5 59.5t59.5 24.5q36 0 60 -24t24 -60q0 -37 -23.5 -60.5t-60.5 -23.5zM457 1071q-37 0 -61.5 23.5t-24.5 60.5
q0 35 24.5 59.5t61.5 24.5q35 0 58.5 -24.5t23.5 -59.5q0 -37 -23.5 -60.5t-58.5 -23.5zM0 0v117h12q131 0 190.5 67.5t59.5 218.5v418h123v-436q0 -385 -377 -385h-8z" />
    <glyph glyph-name="uniFE9C" unicode="&#x62b;" horiz-adv-x="663" arabic-form="medial" 
d="M326 1274q-37 0 -60.5 24.5t-23.5 61.5q0 34 24 59t60 25q35 0 58.5 -25t23.5 -59q0 -37 -23.5 -61.5t-58.5 -24.5zM184 1071q-36 0 -60 24t-24 60q0 35 24.5 59.5t59.5 24.5q36 0 60 -24t24 -60q0 -37 -23.5 -60.5t-60.5 -23.5zM371 1155q0 35 24.5 59.5t61.5 24.5
q35 0 58.5 -24.5t23.5 -59.5q0 -37 -23.5 -60.5t-58.5 -23.5q-37 0 -61.5 23.5t-24.5 60.5zM664 117q41 0 41 -58q0 -59 -41 -59q-244 0 -328 156q-87 -156 -328 -156h-8v117h12q131 0 190.5 67.5t59.5 218.5v418h123v-444q0 -260 279 -260z" />
    <glyph glyph-name="uniFE9E" unicode="&#x62c;" horiz-adv-x="1347" arabic-form="final" 
d="M467 -532q-172 0 -278.5 87.5t-106.5 241.5q0 147 93.5 233.5t250.5 86.5h545q24 91 24 180q0 195 -106 310.5t-307 115.5q-103 0 -234 -41l-31 111q132 49 283 49q252 0 383 -144t131 -393q0 -82 -16 -188h250q41 0 41 -58q0 -59 -41 -59h-910q-109 0 -170 -52t-61 -149
q0 -103 71.5 -157t202.5 -54q56 0 129 15l25 -117q-70 -18 -168 -18zM504 -195q0 35 22.5 56.5t57.5 21.5q34 0 54.5 -21.5t20.5 -56.5q0 -34 -20.5 -55.5t-54.5 -21.5q-35 0 -57.5 21.5t-22.5 55.5z" />
    <glyph glyph-name="uniFE9F" unicode="&#x62c;" horiz-adv-x="1003" arabic-form="initial" 
d="M0 0v117h723q17 66 21 134t-4.5 137t-38 128.5t-76 106t-121.5 73.5t-170 27q-106 0 -234 -41l-30 111q132 49 282 49q132 0 233.5 -40.5t164 -115t92.5 -178.5t24.5 -232.5t-45.5 -275.5h-821zM406 -352q-38 0 -62.5 23.5t-24.5 60.5t24.5 60.5t62.5 23.5
q36 0 58.5 -23.5t22.5 -60.5t-22.5 -60.5t-58.5 -23.5z" />
    <glyph glyph-name="uniFEA0" unicode="&#x62c;" horiz-adv-x="1097" arabic-form="medial" 
d="M0 117h723q17 66 21 134t-4.5 137t-38 128.5t-76 106t-121.5 73.5t-170 27q-106 0 -234 -41l-30 111q132 49 282 49q202 0 328.5 -92.5t167 -254.5t0.5 -378h250q41 0 41 -58q0 -59 -41 -59h-1098v117zM406 -352q-38 0 -62.5 23.5t-24.5 60.5t24.5 60.5t62.5 23.5
q36 0 58.5 -23.5t22.5 -60.5t-22.5 -60.5t-58.5 -23.5z" />
    <glyph glyph-name="uniFEA2" unicode="&#x62d;" horiz-adv-x="1347" arabic-form="final" 
d="M467 -532q-172 0 -278.5 87.5t-106.5 241.5q0 147 93.5 233.5t250.5 86.5h545q24 91 24 180q0 195 -106 310.5t-307 115.5q-103 0 -234 -41l-31 111q132 49 283 49q252 0 383 -144t131 -393q0 -82 -16 -188h250q41 0 41 -58q0 -59 -41 -59h-910q-109 0 -170 -52t-61 -149
q0 -103 71.5 -157t202.5 -54q80 0 191 29l22 -113q-113 -36 -227 -36z" />
    <glyph glyph-name="uniFEA3" unicode="&#x62d;" horiz-adv-x="1003" arabic-form="initial" 
d="M0 0v117h723q17 66 21 134t-4.5 137t-38 128.5t-76 106t-121.5 73.5t-170 27q-106 0 -234 -41l-30 111q132 49 282 49q132 0 233.5 -40.5t164 -115t92.5 -178.5t24.5 -232.5t-45.5 -275.5h-821z" />
    <glyph glyph-name="uniFEA4" unicode="&#x62d;" horiz-adv-x="1097" arabic-form="medial" 
d="M0 0v117h723q17 66 21 134t-4.5 137t-38 128.5t-76 106t-121.5 73.5t-170 27q-106 0 -234 -41l-30 111q132 49 282 49q202 0 328.5 -92.5t167 -254.5t0.5 -378h250q41 0 41 -58q0 -59 -41 -59h-1098z" />
    <glyph glyph-name="uniFEA6" unicode="&#x62e;" horiz-adv-x="1347" arabic-form="final" 
d="M82 -203q0 147 93.5 233.5t250.5 86.5h545q24 91 24 180q0 195 -106 310.5t-307 115.5q-103 0 -234 -41l-31 111q132 49 283 49q252 0 383 -144t131 -393q0 -82 -16 -188h250q41 0 41 -58q0 -59 -41 -59h-910q-109 0 -170 -52t-61 -149q0 -103 71.5 -157t202.5 -54
q80 0 191 29l22 -113q-113 -36 -227 -36q-172 0 -278.5 87.5t-106.5 241.5zM600 1085q-38 0 -62 23.5t-24 60.5t24 60.5t62 23.5q37 0 59.5 -23.5t22.5 -60.5t-22.5 -60.5t-59.5 -23.5z" />
    <glyph glyph-name="uniFEA7" unicode="&#x62e;" horiz-adv-x="1003" arabic-form="initial" 
d="M352 1085q-38 0 -62 23.5t-24 60.5t24 60.5t62 23.5q37 0 59.5 -23.5t22.5 -60.5t-22.5 -60.5t-59.5 -23.5zM0 0v117h723q17 66 21 134t-4.5 137t-38 128.5t-76 106t-121.5 73.5t-170 27q-106 0 -234 -41l-30 111q132 49 282 49q132 0 233.5 -40.5t164 -115t92.5 -178.5
t24.5 -232.5t-45.5 -275.5h-821z" />
    <glyph glyph-name="uniFEA8" unicode="&#x62e;" horiz-adv-x="1097" arabic-form="medial" 
d="M0 0v117h723q17 66 21 134t-4.5 137t-38 128.5t-76 106t-121.5 73.5t-170 27q-106 0 -234 -41l-30 111q132 49 282 49q202 0 328.5 -92.5t167 -254.5t0.5 -378h250q41 0 41 -58q0 -59 -41 -59h-1098zM352 1085q-38 0 -62 23.5t-24 60.5t24 60.5t62 23.5q37 0 59.5 -23.5
t22.5 -60.5t-22.5 -60.5t-59.5 -23.5z" />
    <glyph glyph-name="uniFEAA" unicode="&#x62f;" horiz-adv-x="1136" arabic-form="final" 
d="M82 0v117h700v45q0 177 -105 329.5t-317 290.5l74 99q135 -88 227 -176.5t145.5 -182t76 -188.5t22.5 -209v-8h232q41 0 41 -58q0 -59 -41 -59h-1055z" />
    <glyph glyph-name="uniFEAC" unicode="&#x630;" horiz-adv-x="1136" arabic-form="final" 
d="M82 0v117h700v45q0 177 -105 329.5t-317 290.5l74 99q135 -88 227 -176.5t145.5 -182t76 -188.5t22.5 -209v-8h232q41 0 41 -58q0 -59 -41 -59h-1055zM307 1161q0 37 24 60.5t62 23.5q37 0 59.5 -23.5t22.5 -60.5t-22.5 -60.5t-59.5 -23.5q-38 0 -62 23.5t-24 60.5z" />
    <glyph glyph-name="uniFEAE" unicode="&#x631;" horiz-adv-x="688" arabic-form="final" 
d="M688 117q41 0 41 -58q0 -59 -41 -59h-280v12q-56 -318 -392 -364l-24 114q161 27 233 113t72 266v680h123v-655q0 -33 -2 -49h270z" />
    <glyph glyph-name="uniFEB0" unicode="&#x632;" horiz-adv-x="688" arabic-form="final" 
d="M360 1065q-38 0 -62 23.5t-24 60.5t24 60.5t62 23.5q37 0 59.5 -23.5t22.5 -60.5t-22.5 -60.5t-59.5 -23.5zM688 117q41 0 41 -58q0 -59 -41 -59h-280v12q-56 -318 -392 -364l-24 114q161 27 233 113t72 266v680h123v-655q0 -33 -2 -49h270z" />
    <glyph glyph-name="uniFEB2" unicode="&#x633;" horiz-adv-x="2594" arabic-form="final" 
d="M94 127q0 160 84 362l109 -38q-68 -172 -68 -310q0 -177 108 -266.5t302 -89.5q413 0 413 399v488h123v-350q0 -108 60 -156.5t159 -48.5q113 0 171.5 62.5t58.5 211.5v281h123v-340q0 -215 229 -215q120 0 173.5 67.5t53.5 218.5v418h123v-444q0 -260 279 -260
q41 0 41 -58q0 -59 -41 -59q-242 0 -326 152q-85 -152 -301 -152q-103 0 -177 39.5t-110 112.5q-81 -156 -297 -156q-152 0 -221 94q-20 -208 -163 -317t-375 -109q-253 0 -392 127.5t-139 335.5z" />
    <glyph glyph-name="uniFEB3" unicode="&#x633;" horiz-adv-x="1675" arabic-form="initial" 
d="M0 117h27q126 0 187.5 61.5t61.5 212.5v281h123v-342q0 -213 217 -213q115 0 173.5 62.5t58.5 211.5v281h123v-340q0 -215 229 -215q119 0 173 68t54 218v418h123v-467q0 -168 -92 -261t-258 -93q-101 0 -175 40t-110 112q-76 -152 -297 -152q-212 0 -274 143
q-37 -64 -119.5 -103.5t-199.5 -39.5h-25v117z" />
    <glyph glyph-name="uniFEB4" unicode="&#x633;" horiz-adv-x="1828" arabic-form="medial" 
d="M0 0v117h27q126 0 187.5 61.5t61.5 212.5v281h123v-342q0 -213 217 -213q115 0 173.5 62.5t58.5 211.5v281h123v-340q0 -215 229 -215q119 0 173 68t54 218v418h123v-444q0 -260 279 -260q41 0 41 -58q0 -59 -41 -59q-243 0 -326 154q-85 -154 -303 -154q-101 0 -175 40
t-110 112q-76 -152 -297 -152q-212 0 -274 143q-37 -64 -119.5 -103.5t-199.5 -39.5h-25z" />
    <glyph glyph-name="uniFEB6" unicode="&#x634;" horiz-adv-x="2594" arabic-form="final" 
d="M94 127q0 160 84 362l109 -38q-68 -172 -68 -310q0 -177 108 -266.5t302 -89.5q413 0 413 399v488h123v-350q0 -108 60 -156.5t159 -48.5q113 0 171.5 62.5t58.5 211.5v281h123v-340q0 -215 229 -215q120 0 173.5 67.5t53.5 218.5v418h123v-444q0 -260 279 -260
q41 0 41 -58q0 -59 -41 -59q-242 0 -326 152q-85 -152 -301 -152q-103 0 -177 39.5t-110 112.5q-81 -156 -297 -156q-152 0 -221 94q-20 -208 -163 -317t-375 -109q-253 0 -392 127.5t-139 335.5zM1454 1006q0 35 24.5 59.5t59.5 24.5q36 0 60 -24t24 -60q0 -37 -23.5 -60.5
t-60.5 -23.5q-36 0 -60 24t-24 60zM1810 922q-37 0 -61.5 23.5t-24.5 60.5q0 35 24.5 59.5t61.5 24.5q35 0 58.5 -24.5t23.5 -59.5q0 -37 -23.5 -60.5t-58.5 -23.5zM1595 1210q0 34 24 59t60 25q35 0 58.5 -25t23.5 -59q0 -37 -23.5 -61.5t-58.5 -24.5q-37 0 -60.5 24.5
t-23.5 61.5z" />
    <glyph glyph-name="uniFEB7" unicode="&#x634;" horiz-adv-x="1675" arabic-form="initial" 
d="M0 0v117h27q126 0 187.5 61.5t61.5 212.5v281h123v-342q0 -213 217 -213q115 0 173.5 62.5t58.5 211.5v281h123v-340q0 -215 229 -215q119 0 173 68t54 218v418h123v-467q0 -168 -92 -261t-258 -93q-101 0 -175 40t-110 112q-76 -152 -297 -152q-212 0 -274 143
q-37 -64 -119.5 -103.5t-199.5 -39.5h-25zM686 1006q0 35 24.5 59.5t59.5 24.5q36 0 60 -24t24 -60q0 -37 -23.5 -60.5t-60.5 -23.5q-36 0 -60 24t-24 60zM956 1006q0 35 24.5 59.5t61.5 24.5q35 0 58.5 -24.5t23.5 -59.5q0 -37 -23.5 -60.5t-58.5 -23.5q-37 0 -61.5 23.5
t-24.5 60.5zM911 1124q-37 0 -60.5 24.5t-23.5 61.5q0 34 24 59t60 25q35 0 58.5 -25t23.5 -59q0 -37 -23.5 -61.5t-58.5 -24.5z" />
    <glyph glyph-name="uniFEB8" unicode="&#x634;" horiz-adv-x="1828" arabic-form="medial" 
d="M0 0v117h27q126 0 187.5 61.5t61.5 212.5v281h123v-342q0 -213 217 -213q115 0 173.5 62.5t58.5 211.5v281h123v-340q0 -215 229 -215q119 0 173 68t54 218v418h123v-444q0 -260 279 -260q41 0 41 -58q0 -59 -41 -59q-243 0 -326 154q-85 -154 -303 -154q-101 0 -175 40
t-110 112q-76 -152 -297 -152q-212 0 -274 143q-37 -64 -119.5 -103.5t-199.5 -39.5h-25zM686 1006q0 35 24.5 59.5t59.5 24.5q36 0 60 -24t24 -60q0 -37 -23.5 -60.5t-60.5 -23.5q-36 0 -60 24t-24 60zM1042 922q-37 0 -61.5 23.5t-24.5 60.5q0 35 24.5 59.5t61.5 24.5
q35 0 58.5 -24.5t23.5 -59.5q0 -37 -23.5 -60.5t-58.5 -23.5zM911 1124q-37 0 -60.5 24.5t-23.5 61.5q0 34 24 59t60 25q35 0 58.5 -25t23.5 -59q0 -37 -23.5 -61.5t-58.5 -24.5z" />
    <glyph glyph-name="uniFEBA" unicode="&#x635;" horiz-adv-x="2801" arabic-form="final" 
d="M94 127q0 160 84 362l109 -38q-68 -172 -68 -310q0 -177 108 -266.5t302 -89.5q413 0 413 399v488h123v-379q0 -131 131 -166q90 168 187 296.5t183 206.5t175.5 127t162 67t144.5 18q141 0 241 -64t148 -174t48 -256q0 -99 -29 -231h246q41 0 41 -58q0 -59 -41 -59
h-1411q-152 0 -230 72q-26 -199 -167.5 -303.5t-368.5 -104.5q-253 0 -392 127.5t-139 335.5zM2136 723q-175 0 -357.5 -148.5t-353.5 -457.5h998q37 118 37 225q0 170 -85 275.5t-239 105.5z" />
    <glyph glyph-name="uniFEBB" unicode="&#x635;" horiz-adv-x="1900" arabic-form="initial" 
d="M1329 842q210 0 323 -135.5t113 -358.5q0 -168 -63 -348h-1131q-213 0 -276 139q-66 -139 -295 -139v117q117 0 171 65t54 209v293h123v-354q0 -158 131 -201q90 167 187 295.5t183 206t175 126.5t161.5 67t143.5 18zM1604 117q36 107 36 225q0 170 -84.5 275.5
t-238.5 105.5q-174 0 -356 -148t-355 -458h998z" />
    <glyph glyph-name="uniFEBC" unicode="&#x635;" horiz-adv-x="1982" arabic-form="medial" 
d="M0 0v117q117 0 171 65t54 209v293h123v-354q0 -158 131 -201q90 167 187 295.5t183 206t175 126.5t161.5 67t143.5 18q210 0 323 -135.5t113 -358.5q0 -103 -28 -231h245q41 0 41 -58q0 -59 -41 -59h-1411q-213 0 -276 139q-66 -139 -295 -139zM606 117h998
q36 107 36 225q0 170 -84.5 275.5t-238.5 105.5q-174 0 -356 -148t-355 -458z" />
    <glyph glyph-name="uniFEBE" unicode="&#x636;" horiz-adv-x="2801" arabic-form="final" 
d="M94 127q0 160 84 362l109 -38q-68 -172 -68 -310q0 -177 108 -266.5t302 -89.5q413 0 413 399v488h123v-379q0 -131 131 -166q90 168 187 296.5t183 206.5t175.5 127t162 67t144.5 18q141 0 241 -64t148 -174t48 -256q0 -99 -29 -231h246q41 0 41 -58q0 -59 -41 -59
h-1411q-152 0 -230 72q-26 -199 -167.5 -303.5t-368.5 -104.5q-253 0 -392 127.5t-139 335.5zM2136 723q-175 0 -357.5 -148.5t-353.5 -457.5h998q37 118 37 225q0 170 -85 275.5t-239 105.5zM1882 1169q0 37 24 60.5t62 23.5q37 0 59.5 -23.5t22.5 -60.5t-22.5 -60.5
t-59.5 -23.5q-38 0 -62 23.5t-24 60.5z" />
    <glyph glyph-name="uniFEBF" unicode="&#x636;" horiz-adv-x="1900" arabic-form="initial" 
d="M1149 1085q-38 0 -62 23.5t-24 60.5t24 60.5t62 23.5q37 0 59.5 -23.5t22.5 -60.5t-22.5 -60.5t-59.5 -23.5zM1329 842q210 0 323 -135.5t113 -358.5q0 -168 -63 -348h-1131q-213 0 -276 139q-66 -139 -295 -139v117q117 0 171 65t54 209v293h123v-354q0 -158 131 -201
q90 167 187 295.5t183 206t175 126.5t161.5 67t143.5 18zM1604 117q36 107 36 225q0 170 -84.5 275.5t-238.5 105.5q-174 0 -356 -148t-355 -458h998z" />
    <glyph glyph-name="uniFEC0" unicode="&#x636;" horiz-adv-x="1982" arabic-form="medial" 
d="M0 0v117q117 0 171 65t54 209v293h123v-354q0 -158 131 -201q90 167 187 295.5t183 206t175 126.5t161.5 67t143.5 18q210 0 323 -135.5t113 -358.5q0 -103 -28 -231h245q41 0 41 -58q0 -59 -41 -59h-1411q-213 0 -276 139q-66 -139 -295 -139zM606 117h998
q36 107 36 225q0 170 -84.5 275.5t-238.5 105.5q-174 0 -356 -148t-355 -458zM1149 1085q-38 0 -62 23.5t-24 60.5t24 60.5t62 23.5q37 0 59.5 -23.5t22.5 -60.5t-22.5 -60.5t-59.5 -23.5z" />
    <glyph glyph-name="uniFEC2" unicode="&#x637;" horiz-adv-x="1826" arabic-form="final" 
d="M94 117h232v1431h123v-1220q156 254 346.5 384t378.5 130q210 0 322 -137.5t112 -356.5q0 -112 -29 -231h248q41 0 41 -58q0 -59 -41 -59h-1733v117zM451 117h997q37 118 37 231q0 169 -84 272t-238 103q-179 0 -373 -158t-339 -448z" />
    <glyph glyph-name="uniFEC3" unicode="&#x637;" horiz-adv-x="1634" arabic-form="initial" 
d="M0 0v117h217v1431h123v-1220q156 254 346.5 384t378.5 130q210 0 322 -137.5t112 -356.5q0 -171 -61 -348h-1438zM342 117h997q37 118 37 231q0 169 -83.5 272t-237.5 103q-117 0 -241.5 -66.5t-249.5 -206t-222 -333.5z" />
    <glyph glyph-name="uniFEC4" unicode="&#x637;" horiz-adv-x="1710" arabic-form="medial" 
d="M0 117h217v1431h123v-1220q156 254 346.5 384t378.5 130q210 0 322 -137.5t112 -356.5q0 -112 -29 -231h240q41 0 41 -58q0 -59 -41 -59h-1710v117zM342 117h997q37 118 37 231q0 169 -83.5 272t-237.5 103q-117 0 -241.5 -66.5t-249.5 -206t-222 -333.5z" />
    <glyph glyph-name="uniFEC6" unicode="&#x638;" horiz-adv-x="1826" arabic-form="final" 
d="M94 117h232v1431h123v-1220q156 254 346.5 384t378.5 130q210 0 322 -137.5t112 -356.5q0 -112 -29 -231h248q41 0 41 -58q0 -59 -41 -59h-1733v117zM451 117h997q37 118 37 231q0 169 -84 272t-238 103q-179 0 -373 -158t-339 -448zM1030 1085q-38 0 -62 23.5t-24 60.5
t24 60.5t62 23.5q37 0 59.5 -23.5t22.5 -60.5t-22.5 -60.5t-59.5 -23.5z" />
    <glyph glyph-name="uniFEC7" unicode="&#x638;" horiz-adv-x="1634" arabic-form="initial" 
d="M0 0v117h217v1431h123v-1220q156 254 346.5 384t378.5 130q210 0 322 -137.5t112 -356.5q0 -171 -61 -348h-1438zM342 117h997q37 118 37 231q0 169 -83.5 272t-237.5 103q-117 0 -241.5 -66.5t-249.5 -206t-222 -333.5zM836 1169q0 37 24 60.5t62 23.5q37 0 59.5 -23.5
t22.5 -60.5t-22.5 -60.5t-59.5 -23.5q-38 0 -62 23.5t-24 60.5z" />
    <glyph glyph-name="uniFEC8" unicode="&#x638;" horiz-adv-x="1710" arabic-form="medial" 
d="M0 117h217v1431h123v-1220q156 254 346.5 384t378.5 130q210 0 322 -137.5t112 -356.5q0 -112 -29 -231h240q41 0 41 -58q0 -59 -41 -59h-1710v117zM342 117h997q37 118 37 231q0 169 -83.5 272t-237.5 103q-117 0 -241.5 -66.5t-249.5 -206t-222 -333.5zM922 1085
q-38 0 -62 23.5t-24 60.5t24 60.5t62 23.5q37 0 59.5 -23.5t22.5 -60.5t-22.5 -60.5t-59.5 -23.5z" />
    <glyph glyph-name="uniFECA" unicode="&#x639;" horiz-adv-x="1177" arabic-form="final" 
d="M1178 117q41 0 41 -58q0 -59 -41 -59h-179q-290 0 -452 88q-181 -62 -260.5 -136.5t-79.5 -164.5q0 -100 75 -149.5t210 -49.5q91 0 186 25l22 -113q-103 -32 -211 -32q-190 0 -298.5 81t-108.5 236q0 129 93 226t288 169q-86 126 -291 356q-15 17 -22 25q8 83 26 133
q83 59 197.5 103.5t242.5 44.5q170 0 273.5 -78t103.5 -213q0 -116 -79 -218.5t-216 -180.5q114 -35 293 -35h187zM254 612q127 -112 332 -387q130 61 205 142t75 165q0 83 -69.5 137t-194.5 54q-174 0 -346 -100z" />
    <glyph glyph-name="uniFECB" unicode="&#x639;" horiz-adv-x="983" arabic-form="initial" 
d="M0 117h289q-105 158 -105 319q0 181 120 293.5t341 112.5q105 0 223 -31l-24 -115q-110 27 -197 27q-160 0 -249 -79t-89 -210q0 -157 125 -317h479v-117h-913v117z" />
    <glyph glyph-name="uniFECC" unicode="&#x639;" horiz-adv-x="1191" arabic-form="medial" 
d="M63 0h-63v117h74q237 0 399 57q-28 40 -57.5 79t-67 82t-61.5 69.5t-72.5 78t-67.5 72.5q11 86 29 137q77 56 194 102t248 46q169 0 271 -79t102 -216q0 -221 -282 -387q139 -41 327 -41h156q41 0 41 -58q0 -59 -41 -59h-145q-129 0 -258 21.5t-220 64.5
q-112 -48 -232 -67t-274 -19zM256 614l-2 -14q163 -141 338 -373q130 63 202 140.5t72 160.5q0 82 -72 136.5t-200 54.5q-166 0 -338 -105z" />
    <glyph glyph-name="uniFECE" unicode="&#x63a;" horiz-adv-x="1177" arabic-form="final" 
d="M614 1085q-38 0 -62 23.5t-24 60.5t24 60.5t62 23.5q37 0 59.5 -23.5t22.5 -60.5t-22.5 -60.5t-59.5 -23.5zM1178 117q41 0 41 -58q0 -59 -41 -59h-179q-290 0 -452 88q-181 -62 -260.5 -136.5t-79.5 -164.5q0 -100 75 -149.5t210 -49.5q91 0 186 25l22 -113
q-103 -32 -211 -32q-190 0 -298.5 81t-108.5 236q0 129 93 226t288 169q-86 126 -291 356q-15 17 -22 25q8 83 26 133q83 59 197.5 103.5t242.5 44.5q170 0 273.5 -78t103.5 -213q0 -116 -79 -218.5t-216 -180.5q114 -35 293 -35h187zM254 612q127 -112 332 -387
q130 61 205 142t75 165q0 83 -69.5 137t-194.5 54q-174 0 -346 -100z" />
    <glyph glyph-name="uniFECF" unicode="&#x63a;" horiz-adv-x="983" arabic-form="initial" 
d="M0 0v117h289q-105 158 -105 319q0 181 120 293.5t341 112.5q105 0 223 -31l-24 -115q-110 27 -197 27q-160 0 -249 -79t-89 -210q0 -157 125 -317h479v-117h-913zM559 1169q0 37 24 60.5t62 23.5q37 0 59.5 -23.5t22.5 -60.5t-22.5 -60.5t-59.5 -23.5q-38 0 -62 23.5
t-24 60.5z" />
    <glyph glyph-name="uniFED0" unicode="&#x63a;" horiz-adv-x="1191" arabic-form="medial" 
d="M0 117h74q237 0 399 57q-28 40 -57.5 79t-67 82t-61.5 69.5t-72.5 78t-67.5 72.5q11 86 29 137q77 56 194 102t248 46q169 0 271 -79t102 -216q0 -221 -282 -387q139 -41 327 -41h156q41 0 41 -58q0 -59 -41 -59h-145q-129 0 -258 21.5t-220 64.5q-112 -48 -232 -67
t-274 -19h-63v117zM254 600q163 -141 338 -373q130 63 202 140.5t72 160.5q0 82 -72 136.5t-200 54.5q-166 0 -338 -105zM606 1083q-38 0 -62 23.5t-24 60.5t24 60.5t62 23.5q37 0 59.5 -23.5t22.5 -60.5t-22.5 -60.5t-59.5 -23.5z" />
    <glyph glyph-name="uniFED2" unicode="&#x641;" horiz-adv-x="2201" arabic-form="final" 
d="M94 385q0 141 66 320l114 -31q-55 -178 -55 -268q0 -289 363 -289h657q123 0 182 14q-97 59 -156 149t-59 201q0 157 113 259t293 102q179 0 287 -101t108 -260q0 -114 -58 -204t-159 -148q76 -12 172 -12h240q41 0 41 -58q0 -59 -41 -59h-230q-213 0 -364 43
q-151 -43 -375 -43h-668q-224 0 -347.5 102.5t-123.5 282.5zM1610 723q-122 0 -199.5 -67.5t-77.5 -174.5q0 -112 79.5 -196.5t195.5 -120.5q111 34 191.5 119.5t80.5 199.5q0 108 -74.5 174t-195.5 66zM1526 1169q0 37 24 60.5t62 23.5q37 0 59.5 -23.5t22.5 -60.5
t-22.5 -60.5t-59.5 -23.5q-38 0 -62 23.5t-24 60.5z" />
    <glyph glyph-name="uniFED3" unicode="&#x641;" horiz-adv-x="1130" arabic-form="initial" 
d="M0 0v117h297q-115 121 -115 299q0 187 119.5 306.5t310.5 119.5q96 0 170.5 -34t120.5 -94.5t69 -139t23 -171.5q0 -174 -90 -403h-905zM602 723q-134 0 -213.5 -85.5t-79.5 -223.5q0 -161 129 -297h381q49 158 49 280q0 151 -68.5 238.5t-197.5 87.5zM526 1169
q0 37 24 60.5t62 23.5q37 0 59.5 -23.5t22.5 -60.5t-22.5 -60.5t-59.5 -23.5q-38 0 -62 23.5t-24 60.5z" />
    <glyph glyph-name="uniFED4" unicode="&#x641;" horiz-adv-x="1177" arabic-form="medial" 
d="M0 117h215q123 0 182 14q-97 59 -156 149t-59 201q0 157 113 259t293 102q179 0 287 -101t108 -260q0 -114 -58 -204t-159 -148q76 -12 172 -12h240q41 0 41 -58q0 -59 -41 -59h-230q-213 0 -364 43q-151 -43 -375 -43h-209v117zM309 481q0 -112 79.5 -196.5
t195.5 -120.5q111 34 191.5 119.5t80.5 199.5q0 108 -74.5 174t-195.5 66q-122 0 -199.5 -67.5t-77.5 -174.5zM502 1169q0 37 24 60.5t62 23.5q37 0 59.5 -23.5t22.5 -60.5t-22.5 -60.5t-59.5 -23.5q-38 0 -62 23.5t-24 60.5z" />
    <glyph glyph-name="uniFED6" unicode="&#x642;" horiz-adv-x="1689" arabic-form="final" 
d="M94 139q0 124 47 267l115 -31q-37 -112 -37 -219q0 -187 139 -279t433 -92q255 0 383 52.5t147 162.5h-166q-477 0 -477 412q0 113 45.5 209.5t139.5 158.5t220 62q167 0 267 -106t100 -298v-321h240q41 0 41 -58q0 -59 -41 -59h-246q-28 -183 -186 -259.5t-467 -76.5
q-345 0 -521 120t-176 355zM805 414q0 -157 91 -227t275 -70h156v295q0 149 -64.5 230t-189.5 81q-120 0 -194 -83t-74 -226zM1217 1085q-37 0 -62 24t-25 60t25 60t62 24q35 0 58 -23.5t23 -60.5t-23 -60.5t-58 -23.5zM944 1085q-36 0 -60 24t-24 60t24 60t60 24
q37 0 60.5 -23.5t23.5 -60.5t-23.5 -60.5t-60.5 -23.5z" />
    <glyph glyph-name="uniFED7" unicode="&#x642;" horiz-adv-x="1130" arabic-form="initial" 
d="M0 0v117h297q-115 121 -115 299q0 187 119.5 306.5t310.5 119.5q96 0 170.5 -34t120.5 -94.5t69 -139t23 -171.5q0 -174 -90 -403h-905zM309 414q0 -161 129 -297h381q49 158 49 280q0 151 -68.5 238.5t-197.5 87.5q-134 0 -213.5 -85.5t-79.5 -223.5zM659 1169
q0 37 24.5 60.5t61.5 23.5q35 0 58.5 -23.5t23.5 -60.5t-23.5 -60.5t-58.5 -23.5q-37 0 -61.5 23.5t-24.5 60.5zM389 1169q0 36 24 60t60 24q37 0 60.5 -23.5t23.5 -60.5t-23.5 -60.5t-60.5 -23.5q-36 0 -60 24t-24 60z" />
    <glyph glyph-name="uniFED8" unicode="&#x642;" horiz-adv-x="1177" arabic-form="medial" 
d="M209 0h-209v117h215q123 0 182 14q-97 59 -156 149t-59 201q0 157 113 259t293 102q179 0 287 -101t108 -260q0 -114 -58 -204t-159 -148q76 -12 172 -12h240q41 0 41 -58q0 -59 -41 -59h-230q-213 0 -364 43q-151 -43 -375 -43zM309 481q0 -112 79.5 -196.5
t195.5 -120.5q111 34 191.5 119.5t80.5 199.5q0 108 -74.5 174t-195.5 66q-122 0 -199.5 -67.5t-77.5 -174.5zM635 1169q0 37 24.5 60.5t61.5 23.5q35 0 58.5 -23.5t23.5 -60.5t-23.5 -60.5t-58.5 -23.5q-37 0 -61.5 23.5t-24.5 60.5zM365 1169q0 36 24 60t60 24
q37 0 60 -23.5t23 -60.5t-23 -60.5t-60 -23.5q-36 0 -60 24t-24 60z" />
    <glyph glyph-name="uniFEDA" unicode="&#x643;" horiz-adv-x="1804" arabic-form="final" 
d="M565 0q-224 0 -347.5 102.5t-123.5 282.5q0 141 66 320l114 -31q-55 -178 -55 -268q0 -289 363 -289h567q143 0 198.5 65t55.5 221v1145h123v-1171q0 -260 278 -260q41 0 41 -58q0 -59 -41 -59q-239 0 -323 152q-88 -152 -332 -152h-584zM635 731h113q-39 56 -39 125
q0 80 56 134t148 54q46 0 99 -16l-17 -78q-47 15 -80 15q-56 0 -90 -30t-34 -85q0 -67 49 -119h194v-80h-399v80z" />
    <glyph glyph-name="uniFEDB" unicode="&#x643;" horiz-adv-x="954" arabic-form="initial" 
d="M201 915q180 -60 301.5 -134t190.5 -166t97.5 -193t28.5 -232v-190h-819v117h700v94q0 234 -140 376.5t-484 248.5v122l579 560l82 -84z" />
    <glyph glyph-name="uniFEDC" unicode="&#x643;" horiz-adv-x="1081" arabic-form="medial" 
d="M0 0v117h700v94q0 234 -140 376.5t-484 248.5v122l579 560l82 -84l-536 -519q180 -60 301.5 -134t190.5 -166t97.5 -193t28.5 -232v-73h262q41 0 41 -58q0 -59 -41 -59h-1081z" />
    <glyph glyph-name="uniFEDE" unicode="&#x644;" horiz-adv-x="1396" arabic-form="final" 
d="M1397 117q41 0 41 -58q0 -59 -41 -59h-252q-46 -160 -184 -248t-343 -88q-242 0 -383 124.5t-141 338.5q0 160 84 362l109 -38q-68 -195 -68 -312q0 -176 105.5 -265t302.5 -89q206 0 310.5 102t104.5 303v1358h123v-1388q0 -29 -2 -43h234z" />
    <glyph glyph-name="uniFEDF" unicode="&#x644;" horiz-adv-x="542" arabic-form="initial" 
d="M0 0v117q143 0 198.5 65t55.5 221v1145h123v-1194q0 -354 -377 -354z" />
    <glyph glyph-name="uniFEE0" unicode="&#x644;" horiz-adv-x="655" arabic-form="medial" 
d="M655 117q41 0 41 -58q0 -59 -41 -59q-239 0 -323 152q-88 -152 -332 -152v117q143 0 198.5 65t55.5 221v1145h123v-1171q0 -260 278 -260z" />
    <glyph glyph-name="uniFEE2" unicode="&#x645;" horiz-adv-x="1419" arabic-form="final" 
d="M82 -532v329q0 153 81.5 236.5t231.5 83.5h94q-49 107 -49 221q0 183 121 300.5t301 117.5q98 0 174.5 -34.5t121.5 -93.5t68 -131.5t23 -154.5q0 -129 -47 -225h217q41 0 41 -58q0 -59 -41 -59h-309q-124 -98 -340 -98h-108q-55 40 -101 98h-164q-93 0 -143.5 -51.5
t-50.5 -151.5v-329h-121zM696 18h101q158 0 243.5 87.5t85.5 244.5q0 132 -72 210.5t-200 78.5q-129 0 -210 -83t-81 -222q0 -89 34.5 -173t98.5 -143z" />
    <glyph glyph-name="uniFEE3" unicode="&#x645;" horiz-adv-x="1118" arabic-form="initial" 
d="M541 0h-541v117h287q-103 137 -103 299q0 189 118 307.5t302 118.5q182 0 285.5 -119.5t103.5 -306.5q0 -88 -26.5 -162t-79.5 -131.5t-141.5 -90t-204.5 -32.5zM309 418q0 -155 121 -301h121q158 0 237.5 83t79.5 218q0 138 -75 221.5t-201 83.5q-125 0 -204 -82.5
t-79 -222.5z" />
    <glyph glyph-name="uniFEE4" unicode="&#x645;" horiz-adv-x="1163" arabic-form="medial" 
d="M0 117h233q-49 107 -49 221q0 183 121 300.5t301 117.5q98 0 174.5 -34.5t121.5 -93.5t68 -131.5t23 -154.5q0 -127 -49 -225h219q41 0 41 -58q0 -59 -41 -59h-315q-125 -98 -334 -98h-108q-55 40 -101 98h-305v117zM598 639q-129 0 -210 -83t-81 -222q0 -89 34.5 -173
t98.5 -143h101q158 0 243.5 87.5t85.5 244.5q0 132 -72 210.5t-200 78.5z" />
    <glyph glyph-name="uniFEE6" unicode="&#x646;" horiz-adv-x="1425" arabic-form="final" 
d="M649 844q-38 0 -62 23.5t-24 60.5t24 60.5t62 23.5q37 0 59.5 -23.5t22.5 -60.5t-22.5 -60.5t-59.5 -23.5zM1425 117q41 0 41 -58q0 -59 -41 -59h-278q-44 -165 -180 -250.5t-342 -85.5q-253 0 -392 127.5t-139 335.5q0 160 84 362l109 -38q-68 -172 -68 -310
q0 -177 108 -266.5t302 -89.5q413 0 413 399v488h123v-555h260z" />
    <glyph glyph-name="uniFEE7" unicode="&#x646;" horiz-adv-x="509" arabic-form="initial" 
d="M326 1065q-38 0 -62 23.5t-24 60.5t24 60.5t62 23.5q37 0 59.5 -23.5t22.5 -60.5t-22.5 -60.5t-59.5 -23.5zM0 0v117q138 0 200 65.5t62 220.5v418h123v-436q0 -200 -96 -292.5t-289 -92.5z" />
    <glyph glyph-name="uniFEE8" unicode="&#x646;" horiz-adv-x="663" arabic-form="medial" 
d="M326 1065q-38 0 -62 23.5t-24 60.5t24 60.5t62 23.5q37 0 59.5 -23.5t22.5 -60.5t-22.5 -60.5t-59.5 -23.5zM664 117q41 0 41 -58q0 -59 -41 -59q-244 0 -328 156q-84 -156 -336 -156v117q138 0 200 65.5t62 220.5v418h123v-444q0 -260 279 -260z" />
    <glyph glyph-name="uniFEE9" unicode="&#x647;" horiz-adv-x="1034" arabic-form="isolated" 
d="M496 -10q-199 0 -306.5 113t-107.5 292q0 122 46 221.5t142 162.5t226 63q98 0 178 -36.5t130.5 -98.5t77.5 -142t27 -170q0 -183 -110.5 -294t-302.5 -111zM500 111q134 0 209 72t75 216q0 145 -74 234.5t-214 89.5q-141 0 -215 -89.5t-74 -234.5t77.5 -216.5
t215.5 -71.5z" />
    <glyph glyph-name="uniFEEA" unicode="&#x647;" horiz-adv-x="1124" arabic-form="final" 
d="M1124 117q41 0 41 -58q0 -59 -41 -59q-150 0 -232.5 28t-111.5 89q-147 -68 -286 -68q-191 0 -301.5 95t-110.5 264q0 189 125 301t344 112h326v-512q0 -112 54 -152t193 -40zM750 229v476h-222q-147 0 -234 -73t-87 -212q0 -122 77 -186t220 -64q144 0 246 59z" />
    <glyph glyph-name="uniFEEB" unicode="&#x647;" horiz-adv-x="1267" arabic-form="initial" 
d="M0 117h178q83 0 156 16q-67 48 -109.5 130t-42.5 179q0 95 46 176.5t126 122.5q-80 10 -196 17l18 108q186 -14 334 -43t270.5 -79.5t203.5 -121.5t125 -170.5t44 -224.5q0 -105 -29 -227h-350q-169 0 -297 47q-120 -47 -299 -47h-178v117zM295 446q0 -98 50 -171
t128 -111q88 34 146.5 107t58.5 178q0 104 -54 168.5t-137 64.5q-84 0 -138 -67.5t-54 -168.5zM616 129q70 -12 134 -12h276q12 59 12 123q0 287 -311 415q64 -89 64 -206q0 -100 -49.5 -186t-125.5 -134z" />
    <glyph glyph-name="uniFEEC" unicode="&#x647;" horiz-adv-x="1036" arabic-form="medial" 
d="M0 117h180v270q0 207 93.5 328t275.5 121q165 0 256.5 -109.5t91.5 -271.5q0 -104 -33.5 -191.5t-95.5 -146.5h268q41 0 41 -58q0 -59 -41 -59h-178q53 -100 53 -186q0 -138 -99.5 -222t-264.5 -84q-184 0 -275.5 96.5t-91.5 276.5v119h-180v117zM537 715
q-111 0 -172.5 -80t-61.5 -234v-284h186q130 0 207.5 92.5t77.5 234.5q0 120 -64 195.5t-173 75.5zM303 -109q0 -134 61.5 -198t190.5 -64q116 0 172.5 52.5t56.5 142.5q0 87 -59 176h-422v-109z" />
    <glyph glyph-name="uniFEEE" unicode="&#x648;" horiz-adv-x="1091" arabic-form="final" 
d="M600 0q-245 0 -366 107t-121 301q0 119 49 218t141.5 158.5t210.5 59.5q169 0 270 -104t101 -287v-336h207q41 0 41 -58q0 -59 -41 -59h-211q-22 -165 -156 -259.5t-401 -94.5q-45 0 -84 2l-7 112q29 -2 82 -2q417 0 443 242h-158zM510 725q-116 0 -194 -84t-78 -219
q0 -155 91 -230t285 -75h148v295q0 149 -65.5 231t-186.5 82z" />
    <glyph glyph-name="uniFEF0" unicode="&#x649;" horiz-adv-x="1564" arabic-form="final" 
d="M1565 117q41 0 41 -58q0 -59 -41 -59h-201q90 -60 90 -170q0 -153 -190 -257.5t-502 -104.5q-336 0 -502 121t-166 343q0 119 47 265l115 -31q-37 -133 -37 -219q0 -181 132 -270t419 -89q257 0 408 71t151 177q0 64 -65.5 116t-196.5 85l-236 59l31 105l277 -66
q79 -18 198 -18h228z" />
    <glyph glyph-name="uniFEF2" unicode="&#x64a;" horiz-adv-x="1564" arabic-form="final" 
d="M1565 117q41 0 41 -58q0 -59 -41 -59h-201q90 -60 90 -170q0 -153 -190 -257.5t-502 -104.5q-336 0 -502 121t-166 343q0 119 47 265l115 -31q-37 -133 -37 -219q0 -181 132 -270t419 -89q257 0 408 71t151 177q0 64 -65.5 116t-196.5 85l-236 59l31 105l277 -66
q79 -18 198 -18h228zM618 -717q37 0 60.5 -23.5t23.5 -60.5t-23.5 -60.5t-60.5 -23.5q-36 0 -59.5 23.5t-23.5 60.5t23.5 60.5t59.5 23.5zM891 -717q35 0 58.5 -23.5t23.5 -60.5t-23.5 -60.5t-58.5 -23.5q-37 0 -61.5 23.5t-24.5 60.5t24.5 60.5t61.5 23.5z" />
    <glyph glyph-name="uniFEF3" unicode="&#x64a;" horiz-adv-x="571" arabic-form="initial" 
d="M0 0v117h12q131 0 190.5 67.5t59.5 218.5v418h123v-436q0 -385 -377 -385h-8zM102 -352q-36 0 -60 24t-24 60t24 60t60 24q37 0 60.5 -23.5t23.5 -60.5t-23.5 -60.5t-60.5 -23.5zM375 -352q-37 0 -61.5 23.5t-24.5 60.5t24.5 60.5t61.5 23.5q35 0 58.5 -23.5t23.5 -60.5
t-23.5 -60.5t-58.5 -23.5z" />
    <glyph glyph-name="uniFEF4" unicode="&#x64a;" horiz-adv-x="663" arabic-form="medial" 
d="M664 117q41 0 41 -58q0 -59 -41 -59q-244 0 -328 156q-87 -156 -328 -156h-8v117h12q131 0 190.5 67.5t59.5 218.5v418h123v-444q0 -260 279 -260zM162 -184q37 0 60.5 -23.5t23.5 -60.5t-23.5 -60.5t-60.5 -23.5q-36 0 -60 24t-24 60t24 60t60 24zM434 -184
q35 0 58.5 -23.5t23.5 -60.5t-23.5 -60.5t-58.5 -23.5q-37 0 -61.5 23.5t-24.5 60.5t24.5 60.5t61.5 23.5z" />
    <glyph glyph-name="uniFEF5" unicode="&#xfef5;" horiz-adv-x="1347" arabic-form="isolated" 
d="M776 0h-715v117h447v1009h123v-1009h133q149 0 222 70.5t73 224.5v1136h123v-1167q0 -183 -104.5 -282t-301.5 -99zM258 1370q76 68 150 68q37 0 136.5 -28t141.5 -28q34 0 57 11t58 43l51 -50q-59 -86 -160 -86q-55 0 -156.5 28t-132.5 28q-47 0 -100 -39z" />
    <glyph glyph-name="uniFEF6" unicode="&#xfef6;" horiz-adv-x="1460" arabic-form="final" 
d="M61 117h447v1009h123v-1009h133q149 0 222 70.5t73 224.5v1136h123v-1171q0 -260 278 -260q41 0 41 -58q0 -59 -41 -59q-252 0 -332 164q-97 -164 -352 -164h-715v117zM258 1370q76 68 150 68q37 0 136.5 -28t141.5 -28q34 0 57 11t58 43l51 -50q-59 -86 -160 -86
q-55 0 -156.5 28t-132.5 28q-47 0 -100 -39z" />
    <glyph glyph-name="uniFEF7" unicode="&#xfef7;" horiz-adv-x="1347" arabic-form="isolated" 
d="M776 0h-715v117h447v1009h123v-1009h133q149 0 222 70.5t73 224.5v1136h123v-1167q0 -183 -104.5 -282t-301.5 -99zM410 1348h79q-32 56 -32 108q0 70 47 112t121 42q35 0 94 -13l-12 -65q-33 10 -72 10q-48 0 -78.5 -25t-30.5 -71q0 -44 33 -98h178v-66h-327v66z" />
    <glyph glyph-name="uniFEF8" unicode="&#xfef8;" horiz-adv-x="1460" arabic-form="final" 
d="M61 0v117h447v1009h123v-1009h133q149 0 222 70.5t73 224.5v1136h123v-1171q0 -260 278 -260q41 0 41 -58q0 -59 -41 -59q-252 0 -332 164q-97 -164 -352 -164h-715zM410 1282v66h79q-32 56 -32 108q0 70 47 112t121 42q35 0 94 -13l-12 -65q-33 10 -72 10
q-48 0 -78.5 -25t-30.5 -71q0 -44 33 -98h178v-66h-327z" />
    <glyph glyph-name="uniFEF9" unicode="&#xfef9;" horiz-adv-x="1347" arabic-form="isolated" 
d="M776 0h-715v117h447v1009h123v-1009h133q149 0 222 70.5t73 224.5v1136h123v-1167q0 -183 -104.5 -282t-301.5 -99zM733 -512h-327v66h77q-30 50 -30 106q0 70 46 113t119 43q43 0 97 -15l-13 -63q-33 10 -71 10q-48 0 -78.5 -25t-30.5 -71q0 -51 33 -98h178v-66z" />
    <glyph glyph-name="uniFEFA" unicode="&#xfefa;" horiz-adv-x="1460" arabic-form="final" 
d="M776 0h-715v117h447v1009h123v-1009h133q149 0 222 70.5t73 224.5v1136h123v-1171q0 -260 278 -260q41 0 41 -58q0 -59 -41 -59q-252 0 -332 164q-97 -164 -352 -164zM406 -512v66h77q-30 50 -30 106q0 70 46 113t119 43q43 0 97 -15l-13 -63q-33 10 -71 10
q-48 0 -78.5 -25t-30.5 -71q0 -51 33 -98h178v-66h-327z" />
    <glyph glyph-name="uniFEFB" unicode="&#xfefb;" horiz-adv-x="1347" arabic-form="isolated" 
d="M776 0h-715v117h447v1009h123v-1009h133q149 0 222 70.5t73 224.5v1136h123v-1167q0 -183 -104.5 -282t-301.5 -99z" />
    <glyph glyph-name="uniFEFC" unicode="&#xfefc;" horiz-adv-x="1460" arabic-form="final" 
d="M61 0v117h447v1009h123v-1009h133q149 0 222 70.5t73 224.5v1136h123v-1171q0 -260 278 -260q41 0 41 -58q0 -59 -41 -59q-252 0 -332 164q-97 -164 -352 -164h-715z" />
    <glyph glyph-name=".notdef" horiz-adv-x="1048" 
d="M1049 1470v-1470h-1049v1470h1049zM946 102v1264h-844v-1264h844zM530 1247q113 0 183.5 -73.5t70.5 -194.5q0 -71 -29 -126.5t-100 -119.5q-67 -59 -84 -94q-16 -31 -16 -160h-94q-4 20 -4 47q0 93 23.5 147.5t94.5 125.5q5 5 26.5 26t27 27t19.5 23.5t18.5 29t9 29.5
t4.5 37q0 74 -46.5 124t-109.5 50q-143 0 -168 -195l-102 17q12 135 83.5 207.5t192.5 72.5zM455 377h114v-137h-114v137z" />
    <glyph glyph-name="uni0000" 
 />
    <glyph glyph-name="uni0000" 
 />
    <glyph glyph-name="uni000D" unicode="&#xd;" horiz-adv-x="532" 
 />
    <glyph glyph-name="space" unicode=" " horiz-adv-x="532" 
 />
    <glyph glyph-name="exclam" unicode="!" horiz-adv-x="757" 
d="M317 1450h123v-1069h-123v1069zM379 184q41 0 69.5 -28.5t28.5 -69.5t-28.5 -69.5t-69.5 -28.5t-69.5 28.5t-28.5 69.5t28.5 69.5t69.5 28.5z" />
    <glyph glyph-name="quotedbl" unicode="&#x22;" horiz-adv-x="1064" 
d="M612 983v467h123v-467h-123zM453 983h-123v467h123v-467z" />
    <glyph glyph-name="numbersign" unicode="#" horiz-adv-x="1064" 
d="M248 469h-221v98h235l45 320h-221v98h236l61 465h106l-63 -465h285l63 465h107l-64 -465h221v-98h-233l-45 -320h221v-98h-236l-61 -469h-106l61 469h-285l-61 -469h-107zM371 567h282l43 320h-282z" />
    <glyph glyph-name="dollar" unicode="$" horiz-adv-x="1064" 
d="M477 -25q-123 0 -232 58t-177 157l116 80q51 -83 128 -131t165 -53v594l-145 53q-114 42 -175 133.5t-61 210.5q0 151 110 265t271 133v137h98v-137q133 0 223.5 -45.5t155.5 -137.5l-112 -82q-47 72 -116.5 112.5t-150.5 41.5v-578l115 -38q291 -98 291 -377
q0 -158 -113.5 -270.5t-292.5 -125.5v-137h-98v137zM657 612l-82 31v-557q118 6 194.5 89.5t76.5 203.5q0 21 -2 38.5t-12.5 46.5t-29 52.5t-56 50t-89.5 45.5zM477 1364q-112 -21 -179 -98.5t-67 -180.5q0 -101 58 -163.5t188 -102.5v545z" />
    <glyph glyph-name="percent" unicode="%" horiz-adv-x="1669" 
d="M1257 1520l95 -58l-936 -1532l-92 58zM430 1475q145 0 248.5 -103t103.5 -250t-103.5 -249.5t-248.5 -102.5t-248.5 103t-103.5 249q0 145 103.5 249t248.5 104zM188 1122q0 -101 71 -171t171 -70q101 0 171.5 69.5t70.5 171.5q0 101 -71.5 171.5t-172.5 70.5
q-98 0 -169 -71t-71 -171zM1239 680q145 0 248.5 -102.5t103.5 -249.5t-103.5 -250t-248.5 -103t-248.5 103.5t-103.5 249.5q0 145 103.5 248.5t248.5 103.5zM997 328q0 -101 71 -171.5t171 -70.5t171 70t71 172q0 101 -71 171t-173 70q-98 0 -169 -70.5t-71 -170.5z" />
    <glyph glyph-name="ampersand" unicode="&#x26;" horiz-adv-x="1441" 
d="M969 1180q0 -68 -20.5 -122t-66.5 -100t-99.5 -82t-137.5 -81l352 -373l209 377h140l-263 -463l330 -346h-182l-217 233q-102 -137 -210 -198.5t-241 -61.5q-191 0 -316.5 118t-125.5 304q0 61 13.5 109.5t49.5 101t102 105.5t167 112q-93 116 -119 159q-58 94 -58 185
q0 146 104 238t261 92q136 0 232 -87.5t96 -219.5zM567 879q62 31 102 56t82 60.5t62.5 79t20.5 94.5q0 84 -57 139.5t-148 55.5q-89 0 -153 -58t-64 -147q0 -108 155 -280zM584 86q98 0 187 58.5t161 164.5l-402 418q-139 -78 -206.5 -157.5t-67.5 -180.5q0 -133 93 -218
t235 -85z" />
    <glyph glyph-name="quotesingle" unicode="'" horiz-adv-x="532" 
d="M205 1450h123v-467h-123v467z" />
    <glyph glyph-name="parenleft" unicode="(" horiz-adv-x="532" 
d="M403 1499l105 -65q-127 -158 -196.5 -389.5t-69.5 -454.5q0 -231 65 -430.5t201 -417.5l-96 -61q-136 187 -214.5 431t-78.5 478q0 238 74.5 480.5t209.5 428.5z" />
    <glyph glyph-name="parenright" unicode=")" horiz-adv-x="532" 
d="M121 1499q139 -191 216 -431.5t77 -477.5q0 -238 -75 -480t-210 -429l-104 65q126 157 196 390t70 454q0 230 -65 430t-201 418z" />
    <glyph glyph-name="asterisk" unicode="*" horiz-adv-x="909" 
d="M408 1450h98v-311l295 98l30 -98l-294 -97l186 -249l-76 -60l-192 256l-183 -256l-82 60l187 249l-299 103l28 92l302 -98v311z" />
    <glyph glyph-name="plus" unicode="+" horiz-adv-x="1363" 
d="M160 571v99h473v473h98v-473h473v-99h-473v-473h-98v473h-473z" />
    <glyph glyph-name="comma" unicode="," horiz-adv-x="532" 
d="M381 184l-158 -467h-121l136 467h143z" />
    <glyph glyph-name="hyphen" unicode="-" horiz-adv-x="681" 
d="M594 541v-111h-506v111h506z" />
    <glyph glyph-name="period" unicode="." horiz-adv-x="532" 
d="M266 184q41 0 70 -28.5t29 -69.5t-29 -69.5t-70 -28.5t-69.5 28.5t-28.5 69.5t28.5 69.5t69.5 28.5z" />
    <glyph glyph-name="slash" unicode="/" horiz-adv-x="757" 
d="M641 1524l107 -37l-621 -1561l-109 37z" />
    <glyph glyph-name="zero" unicode="0" horiz-adv-x="1064" 
d="M532 1475q235 0 357.5 -192t122.5 -558t-122.5 -558t-357.5 -192t-357 192.5t-122 557.5t122 557.5t357 192.5zM188 725q0 -310 88 -474.5t256 -164.5q169 0 257 164t88 475q0 309 -87.5 474t-259.5 165q-166 0 -254 -164.5t-88 -474.5z" />
    <glyph glyph-name="one" unicode="1" horiz-adv-x="1064" 
d="M553 1450h104v-1450h-122v1280l-265 -217l-75 94z" />
    <glyph glyph-name="two" unicode="2" horiz-adv-x="1064" 
d="M553 1475q179 0 298.5 -103.5t119.5 -267.5q0 -54 -11 -106t-34 -99t-42.5 -80.5t-54 -74t-48.5 -55.5t-46 -48l-516 -530h762v-111h-897v143l608 643q144 151 144 308q0 121 -80.5 195.5t-208.5 74.5q-108 0 -186 -62.5t-105 -175.5l-143 15q35 161 150 247.5t290 86.5z
" />
    <glyph glyph-name="three" unicode="3" horiz-adv-x="1064" 
d="M526 1475q182 0 293 -101.5t111 -269.5q0 -125 -69.5 -217t-188.5 -121v-4q138 -24 223.5 -129t85.5 -242q0 -188 -121 -302t-328 -114q-338 0 -448 285l133 43q42 -113 116 -165t189 -52q151 0 237.5 88t86.5 227q0 137 -106 218t-294 81h-36v123h43q165 0 253.5 74
t88.5 201q0 115 -75.5 190.5t-193.5 75.5q-88 0 -160 -45.5t-114 -124.5l-117 66q116 215 391 215z" />
    <glyph glyph-name="four" unicode="4" horiz-adv-x="1064" 
d="M47 502l580 948h170v-983h221v-111h-221v-356h-123v356h-627v146zM670 1315l-512 -848h516v848h-4z" />
    <glyph glyph-name="five" unicode="5" horiz-adv-x="1064" 
d="M924 1450v-111h-598l-7 -460q82 41 211 41q198 0 324.5 -139.5t126.5 -340.5q0 -200 -132.5 -332.5t-332.5 -132.5q-303 0 -432 246l127 64q40 -86 126 -142.5t177 -56.5q137 0 234.5 102t97.5 244q0 156 -105 266.5t-260 110.5q-148 0 -286 -98l12 739h717z" />
    <glyph glyph-name="six" unicode="6" horiz-adv-x="1064" 
d="M739 1450l-395 -639h4q31 27 94 44t121 17q189 0 317 -128.5t128 -317.5q0 -195 -134.5 -323t-341.5 -128q-205 0 -340 127.5t-135 323.5q0 55 10 104.5t35 103t43 85.5t58 98l381 633h155zM193 426q0 -149 94 -244.5t245 -95.5q152 0 246 95.5t94 244.5q0 141 -99 240.5
t-243 99.5q-138 0 -237.5 -99.5t-99.5 -240.5z" />
    <glyph glyph-name="seven" unicode="7" horiz-adv-x="1064" 
d="M907 1450v-111l-577 -1339h-137l587 1339h-696v111h823z" />
    <glyph glyph-name="eight" unicode="8" horiz-adv-x="1064" 
d="M532 1475q173 0 285.5 -106.5t112.5 -268.5q0 -106 -65 -200t-171 -124q131 -26 209 -128.5t78 -244.5q0 -192 -127 -310t-322 -118q-196 0 -322 118.5t-126 309.5q0 141 77 243t208 130q-104 31 -169 125t-65 199q0 162 112 268.5t285 106.5zM270 1098q0 -113 74.5 -190
t187.5 -77q112 0 187.5 77t75.5 190q0 117 -74.5 191.5t-190.5 74.5q-114 0 -187 -75t-73 -191zM219 403q0 -137 88.5 -227t224.5 -90q135 0 224.5 89.5t89.5 227.5q0 137 -89.5 227.5t-226.5 90.5q-132 0 -221.5 -90t-89.5 -228z" />
    <glyph glyph-name="nine" unicode="9" horiz-adv-x="1064" 
d="M532 1475q206 0 341 -128t135 -323q0 -55 -9.5 -102.5t-34 -101t-41.5 -83.5t-57 -96l-385 -641h-155l395 639h-4q-31 -27 -90.5 -44t-124.5 -17q-191 0 -318 128t-127 318q0 196 135 323.5t340 127.5zM193 1024q0 -139 99 -239.5t240 -100.5q142 0 241 100t99 240
q0 150 -95 245t-247 95q-150 0 -243.5 -95.5t-93.5 -244.5z" />
    <glyph glyph-name="colon" unicode=":" horiz-adv-x="532" 
d="M266 958q41 0 70 -28.5t29 -69.5t-29 -69.5t-70 -28.5t-69.5 28.5t-28.5 69.5t28.5 69.5t69.5 28.5zM266 184q41 0 70 -28.5t29 -69.5t-29 -69.5t-70 -28.5t-69.5 28.5t-28.5 69.5t28.5 69.5t69.5 28.5z" />
    <glyph glyph-name="semicolon" unicode=";" horiz-adv-x="532" 
d="M266 958q41 0 70 -28.5t29 -69.5t-29 -69.5t-70 -28.5t-69.5 28.5t-28.5 69.5t28.5 69.5t69.5 28.5zM381 184l-158 -467h-121l136 467h143z" />
    <glyph glyph-name="less" unicode="&#x3c;" horiz-adv-x="1363" 
d="M168 571v99l1028 479v-102l-917 -426l917 -426v-103z" />
    <glyph glyph-name="equal" unicode="=" horiz-adv-x="1363" 
d="M1204 719h-1044v98h1044v-98zM160 522h1044v-98h-1044v98z" />
    <glyph glyph-name="greater" unicode="&#x3e;" horiz-adv-x="1363" 
d="M1196 571l-1028 -479v103l917 426l-917 426v102l1028 -479v-99z" />
    <glyph glyph-name="question" unicode="?" horiz-adv-x="948" 
d="M496 1487q169 0 272.5 -96.5t103.5 -255.5q0 -106 -42.5 -185t-129.5 -153q-83 -72 -121 -137t-38 -142v-137h-123v176q0 74 37 141.5t123 143.5q86 77 122.5 143.5t36.5 142.5q0 110 -65 179t-174 69q-102 0 -174 -62t-95 -175l-133 16q29 156 138 244t262 88zM481 184
q41 0 70 -28.5t29 -69.5t-29 -69.5t-70 -28.5t-69.5 28.5t-28.5 69.5t28.5 69.5t69.5 28.5z" />
    <glyph glyph-name="at" unicode="@" horiz-adv-x="1638" 
d="M848 1487q138 0 264.5 -43.5t223 -121.5t154.5 -195.5t58 -254.5q0 -126 -43.5 -240.5t-112.5 -193t-154.5 -124.5t-168.5 -46q-58 0 -92.5 36.5t-34.5 101.5h-4q-53 -63 -124 -100.5t-140 -37.5q-128 0 -202.5 84t-74.5 217q0 108 34.5 214t95.5 190.5t154 137t200 52.5
q80 0 136 -43.5t81 -126.5h4l49 131h123l-203 -604q-18 -70 -18 -88q0 -53 53 -53q57 0 118 49t107.5 122t76.5 160.5t30 161.5q0 112 -49 210t-130.5 164.5t-187.5 104.5t-219 38q-179 0 -330 -92t-236 -244t-85 -326q0 -176 86 -329t237.5 -245t331.5 -92q147 0 291 73.5
t229 197.5h119q-92 -170 -269 -269.5t-370 -99.5q-162 0 -305 59.5t-243.5 161.5t-159 243.5t-58.5 299.5q0 207 100 381.5t274.5 276.5t383.5 102zM520 573q0 -87 47 -140.5t125 -53.5q69 0 135.5 49t111 121t72 152t27.5 145q0 207 -168 207q-74 0 -141.5 -47.5
t-112 -119.5t-70.5 -155.5t-26 -157.5z" />
    <glyph glyph-name="A" unicode="A" horiz-adv-x="1402" 
d="M152 0h-142l633 1450h139l611 -1450h-152l-158 385h-768zM707 1303l-338 -795h665z" />
    <glyph glyph-name="B" unicode="B" horiz-adv-x="1290" 
d="M666 0h-467v1450h428q228 0 342 -94t114 -289q0 -115 -68.5 -196t-191.5 -105v-4q147 -9 235.5 -109t88.5 -247q0 -195 -130.5 -300.5t-350.5 -105.5zM334 123h319q171 0 265 74t94 204q0 143 -96.5 221t-247.5 78h-334v-577zM334 823h289q149 0 237 65t88 179
q0 129 -78 194.5t-229 65.5h-307v-504z" />
    <glyph glyph-name="C" unicode="C" horiz-adv-x="1441" 
d="M854 1487q322 0 500 -227l-111 -93q-62 93 -164.5 145t-224.5 52q-274 0 -444 -180t-170 -459q0 -181 74.5 -325.5t215.5 -229t324 -84.5q126 0 245 61.5t183 163.5l111 -84q-193 -264 -539 -264q-219 0 -391 99.5t-265.5 273t-93.5 389.5q0 220 95.5 394t267 271
t387.5 97z" />
    <glyph glyph-name="D" unicode="D" horiz-adv-x="1517" 
d="M633 1450q366 0 573 -199.5t207 -535.5q0 -93 -22 -186.5t-78.5 -190.5t-141.5 -170.5t-222 -120.5t-308 -47h-461v1450h453zM604 123q307 0 490.5 156t183.5 436q0 298 -182.5 455t-497.5 157h-283v-1204h289z" />
    <glyph glyph-name="E" unicode="E" horiz-adv-x="1214" 
d="M199 0v1450h886v-123h-751v-516h704v-123h-704v-565h784v-123h-919z" />
    <glyph glyph-name="F" unicode="F" horiz-adv-x="1138" 
d="M199 0v1450h868v-123h-733v-516h682v-123h-682v-688h-135z" />
    <glyph glyph-name="G" unicode="G" horiz-adv-x="1593" 
d="M854 1487q324 0 522 -201l-98 -102q-66 82 -188 131t-236 49q-183 0 -323.5 -84.5t-215.5 -229t-75 -325.5q0 -182 75 -327t216 -228.5t325 -83.5q261 0 404 86v487h-349v123h484v-688q-232 -131 -541 -131q-164 0 -304.5 58.5t-238 159.5t-152.5 242t-55 302
q0 162 55 303t153 242t238 159t304 58z" />
    <glyph glyph-name="H" unicode="H" horiz-adv-x="1478" 
d="M199 0v1450h135v-639h811v639h135v-1450h-135v688h-811v-688h-135z" />
    <glyph glyph-name="I" unicode="I" horiz-adv-x="532" 
d="M334 1450v-1450h-135v1450h135z" />
    <glyph glyph-name="J" unicode="J" horiz-adv-x="987" 
d="M788 1450v-1038q0 -231 -99.5 -340t-297.5 -109q-149 0 -247 77.5t-130 219.5l136 25q49 -199 241 -199q131 0 196.5 80t65.5 219v1065h135z" />
    <glyph glyph-name="K" unicode="K" horiz-adv-x="1251" 
d="M199 0v1450h135v-639h12l703 639h186l-733 -664l774 -786h-195l-735 750h-12v-750h-135z" />
    <glyph glyph-name="L" unicode="L" horiz-adv-x="1024" 
d="M334 1450v-1327h676v-123h-811v1450h135z" />
    <glyph glyph-name="M" unicode="M" horiz-adv-x="1820" 
d="M184 0v1450h203l528 -1217l529 1217h192v-1450h-135v1278h-4l-553 -1278h-59l-561 1278h-5v-1278h-135z" />
    <glyph glyph-name="N" unicode="N" horiz-adv-x="1593" 
d="M334 0h-135v1450h174l882 -1270h5v1270h135v-1450h-174l-883 1270h-4v-1270z" />
    <glyph glyph-name="O" unicode="O" horiz-adv-x="1708" 
d="M854 1487q222 0 394 -100t264 -273t92 -389q0 -162 -55 -303t-153 -242t-238 -159t-304 -58t-304 58t-238 159t-153 242t-55 303q0 217 93.5 390.5t265.5 272.5t391 99zM240 725q0 -182 75.5 -327t216 -228.5t322.5 -83.5t322.5 83.5t216 228.5t75.5 327
q0 136 -43.5 253.5t-122 203t-195 134t-255.5 48.5q-183 0 -323 -83.5t-214.5 -228.5t-74.5 -327z" />
    <glyph glyph-name="P" unicode="P" horiz-adv-x="1175" 
d="M334 0h-135v1450h413q220 0 345.5 -100t125.5 -283q0 -176 -120.5 -277.5t-307.5 -101.5h-321v-688zM334 1327v-516h313q135 0 218 67t83 189q0 123 -87.5 191.5t-219.5 68.5h-307z" />
    <glyph glyph-name="Q" unicode="Q" horiz-adv-x="1708" 
d="M840 1487q214 0 382.5 -96.5t260.5 -266t92 -381.5q0 -122 -42 -246.5t-126.5 -227.5t-194.5 -142v-4h453v-123h-803q-157 0 -297.5 57.5t-241.5 156t-160 236.5t-59 293q0 212 92 381.5t260.5 266t383.5 96.5zM240 743q0 -174 82 -316.5t224.5 -223t315.5 -80.5
q172 0 305 83.5t203 224t70 312.5q0 180 -73 321t-210.5 220.5t-318.5 79.5q-272 0 -435 -174t-163 -447z" />
    <glyph glyph-name="R" unicode="R" horiz-adv-x="1214" 
d="M334 0h-135v1450h391q251 0 378.5 -97t127.5 -284q0 -323 -371 -373l422 -696h-154l-407 688h-252v-688zM334 811h297q155 0 242.5 70t87.5 188t-86.5 188t-247.5 70h-293v-516z" />
    <glyph glyph-name="S" unicode="S" horiz-adv-x="1138" 
d="M612 1487q254 0 396 -182l-117 -84q-104 143 -283 143q-144 0 -234.5 -74.5t-90.5 -199.5q0 -111 68.5 -179.5t234.5 -117.5q98 -29 146 -46t116.5 -52t100.5 -74t56.5 -102.5t24.5 -147.5q0 -177 -127 -292.5t-323 -115.5q-314 0 -471 219l129 86q109 -182 331 -182
q142 0 234 80t92 205q0 115 -76 177q-60 48 -227 105q-20 7 -123 41q-165 55 -243.5 149.5t-78.5 246.5q0 178 131.5 287.5t333.5 109.5z" />
    <glyph glyph-name="T" unicode="T" horiz-adv-x="1175" 
d="M25 1327v123h1126v-123h-496v-1327h-135v1327h-495z" />
    <glyph glyph-name="U" unicode="U" horiz-adv-x="1400" 
d="M172 555v895h135v-870q0 -237 99.5 -365.5t293.5 -128.5q196 0 295 132t99 382v850h135v-885q0 -286 -135 -444t-394 -158q-258 0 -393 156.5t-135 435.5z" />
    <glyph glyph-name="V" unicode="V" horiz-adv-x="1214" 
d="M-6 1450h145l467 -1272l471 1272h144l-551 -1450h-135z" />
    <glyph glyph-name="W" unicode="W" horiz-adv-x="1933" 
d="M432 0l-422 1450h140l360 -1284h4l367 1284h172l366 -1284h4l361 1284h139l-422 -1448l-2 -2h-164l-366 1290h-4l-367 -1290h-166z" />
    <glyph glyph-name="X" unicode="X" horiz-adv-x="1251" 
d="M164 0h-162l545 762l-496 688h160l418 -590l411 590h162l-491 -688l538 -762h-168l-458 655z" />
    <glyph glyph-name="Y" unicode="Y" horiz-adv-x="1175" 
d="M-12 1450h162l438 -688l448 688h152l-533 -825v-625h-135v625z" />
    <glyph glyph-name="Z" unicode="Z" horiz-adv-x="1138" 
d="M1069 1450v-111l-854 -1216h877v-123h-1045v106l848 1221h-836v123h1010z" />
    <glyph glyph-name="bracketleft" unicode="[" horiz-adv-x="532" 
d="M152 -319v1818h307v-98h-185v-1622h185v-98h-307z" />
    <glyph glyph-name="backslash" unicode="\" horiz-adv-x="757" 
d="M117 1524l622 -1561l-108 -37l-621 1561z" />
    <glyph glyph-name="bracketright" unicode="]" horiz-adv-x="532" 
d="M381 -319h-307v98h184v1622h-184v98h307v-1818z" />
    <glyph glyph-name="asciicircum" unicode="^" horiz-adv-x="1363" 
d="M168 524l467 926h94l467 -926h-115l-399 815l-397 -815h-117z" />
    <glyph glyph-name="underscore" unicode="_" horiz-adv-x="1024" 
d="M1024 -154v-102h-1024v102h1024z" />
    <glyph glyph-name="grave" unicode="`" horiz-adv-x="491" 
d="M152 1450l213 -295h-103l-274 295h164z" />
    <glyph glyph-name="a" unicode="a" horiz-adv-x="1062" 
d="M457 -25q-153 0 -244.5 76t-91.5 205q0 158 134 237.5t382 79.5h151v56q0 115 -70 173t-196 58q-165 0 -289 -106l-71 84q66 63 164.5 98t195.5 35q185 0 281 -87.5t96 -246.5v-281q0 -223 19 -356h-115q-12 64 -12 154h-5q-54 -93 -133 -136t-196 -43zM641 475
q-110 0 -196.5 -20.5t-143.5 -69.5t-57 -123q0 -77 62 -126.5t155 -49.5q161 0 244 85.5t83 238.5v65h-147z" />
    <glyph glyph-name="b" unicode="b" horiz-adv-x="1251" 
d="M260 0h-123v1548h123v-768h4q51 89 156 140t223 51q216 0 357 -140t141 -358q0 -214 -139.5 -356t-358.5 -142q-119 0 -224 51.5t-155 139.5h-4v-166zM248 473q0 -161 116.5 -274t278.5 -113q165 0 270 110.5t105 276.5q0 168 -106 277.5t-271 109.5q-162 0 -277.5 -113
t-115.5 -274z" />
    <glyph glyph-name="c" unicode="c" horiz-adv-x="985" 
d="M608 971q208 0 353 -164l-99 -74q-120 127 -256 127q-162 0 -267.5 -110.5t-105.5 -276.5q0 -167 105 -277t268 -110q153 0 256 131l94 -78q-136 -164 -348 -164q-217 0 -357 141t-140 357q0 217 140.5 357.5t356.5 140.5z" />
    <glyph glyph-name="d" unicode="d" horiz-adv-x="1251" 
d="M608 -25q-216 0 -356.5 141t-140.5 357q0 217 140.5 357.5t356.5 140.5q120 0 224 -51t155 -140h4v768h123v-1548h-123v166h-4q-53 -92 -158 -141.5t-221 -49.5zM233 473q0 -167 104.5 -277t270.5 -110q164 0 280 112.5t116 274.5t-117 274.5t-281 112.5
q-162 0 -267.5 -110.5t-105.5 -276.5z" />
    <glyph glyph-name="e" unicode="e" horiz-adv-x="1138" 
d="M584 971q192 0 318 -124.5t126 -330.5v-74h-795q8 -155 103.5 -255.5t255.5 -100.5q95 0 183 46.5t134 121.5l90 -76q-136 -203 -409 -203q-215 0 -347 138.5t-132 361.5q0 137 58.5 249.5t167.5 179.5t247 67zM905 553q-1 131 -97.5 219t-232.5 88t-231 -90t-111 -217
h672z" />
    <glyph glyph-name="f" unicode="f" horiz-adv-x="606" 
d="M37 946h196v318q0 143 80 226t203 83q83 0 141 -25l-24 -106q-41 20 -111 20q-166 0 -166 -243v-273h222v-110h-222v-836h-123v836h-196v110z" />
    <glyph glyph-name="g" unicode="g" horiz-adv-x="1251" 
d="M123 485q0 132 70.5 244.5t187 177t248.5 64.5q120 0 211 -49t147 -136h4v160h123v-880q0 -272 -132.5 -415t-373.5 -143q-137 0 -265.5 51.5t-201.5 147.5l97 90q63 -88 160.5 -133t211.5 -45q186 0 283.5 107.5t97.5 316.5v141h-4q-55 -87 -146.5 -135.5t-211.5 -48.5
q-135 0 -251.5 64.5t-185.5 176.5t-69 244zM618 860q-153 0 -262.5 -110.5t-109.5 -264.5q0 -153 108.5 -263.5t266.5 -110.5q155 0 264.5 110t109.5 264q0 155 -110 265t-267 110z" />
    <glyph glyph-name="h" unicode="h" horiz-adv-x="1138" 
d="M164 1548h123v-768h4q41 87 129.5 139t193.5 52q361 0 361 -400v-571h-123v559q0 301 -238 301q-151 0 -239 -104.5t-88 -278.5v-477h-123v1548z" />
    <glyph glyph-name="i" unicode="i" horiz-adv-x="491" 
d="M246 1413q39 0 65.5 -26.5t26.5 -65.5t-26.5 -65.5t-65.5 -26.5q-38 0 -65 27t-27 65t27 65t65 27zM184 946h123v-946h-123v946z" />
    <glyph glyph-name="j" unicode="j" horiz-adv-x="491" 
d="M246 1413q39 0 65.5 -26.5t26.5 -65.5t-26.5 -65.5t-65.5 -26.5q-38 0 -65 27t-27 65t27 65t65 27zM184 946h123v-1122q0 -165 -65 -240.5t-203 -75.5q-48 0 -100 19l18 108q39 -16 80 -16q75 0 111 46t36 151v1130z" />
    <glyph glyph-name="k" unicode="k" horiz-adv-x="985" 
d="M287 0h-123v1548h123v-1032l469 430h180l-490 -434l545 -512h-186l-518 500v-500z" />
    <glyph glyph-name="l" unicode="l" horiz-adv-x="491" 
d="M184 1548h123v-1548h-123v1548z" />
    <glyph glyph-name="m" unicode="m" horiz-adv-x="1744" 
d="M164 690q0 10 -5 129t-5 127h122q6 -146 9 -166h6q41 87 130 139t193 52t179 -53.5t106 -151.5q39 96 126.5 150.5t197.5 54.5q358 0 358 -402v-569h-123v563q0 297 -237 297q-139 0 -213 -92t-74 -246v-522h-123v575q0 130 -50.5 207.5t-148.5 77.5q-149 0 -237 -104
t-88 -287v-469h-123v690z" />
    <glyph glyph-name="n" unicode="n" horiz-adv-x="1138" 
d="M154 946h122q6 -150 9 -166h6q41 87 129.5 139t193.5 52q182 0 271.5 -100.5t89.5 -311.5v-559h-123v553q0 156 -59 231.5t-179 75.5q-150 0 -238.5 -104t-88.5 -287v-469h-123v690q0 10 -5 129t-5 127z" />
    <glyph glyph-name="o" unicode="o" horiz-adv-x="1216" 
d="M608 971q217 0 357.5 -140.5t140.5 -357.5q0 -214 -139.5 -356t-358.5 -142q-218 0 -357.5 140.5t-139.5 357.5q0 216 139 357t358 141zM233 473q0 -167 104.5 -277t270.5 -110q165 0 270 109.5t105 277.5t-105.5 277.5t-271.5 109.5q-162 0 -267.5 -109.5t-105.5 -277.5
z" />
    <glyph glyph-name="p" unicode="p" horiz-adv-x="1251" 
d="M137 -467v1413h123v-166h4q52 91 157 141t222 50q218 0 358 -140.5t140 -357.5q0 -215 -139 -356.5t-359 -141.5q-121 0 -225 51.5t-154 139.5h-4v-633h-123zM643 86q167 0 271 110.5t104 276.5q0 169 -105 278t-272 109q-164 0 -278.5 -112t-114.5 -275
q0 -162 115 -274.5t280 -112.5z" />
    <glyph glyph-name="q" unicode="q" horiz-adv-x="1251" 
d="M111 473q0 217 139.5 357.5t357.5 140.5q117 0 222 -50t157 -141h4v166h123v-1413h-123v633h-4q-50 -88 -154 -139.5t-225 -51.5q-220 0 -358.5 141.5t-138.5 356.5zM610 860q-168 0 -272.5 -109.5t-104.5 -277.5q0 -167 104 -277t271 -110q165 0 280.5 112.5
t115.5 274.5q0 161 -115.5 274t-278.5 113z" />
    <glyph glyph-name="r" unicode="r" horiz-adv-x="681" 
d="M586 971q35 0 71 -10l-14 -121q-21 8 -49 8q-146 0 -226.5 -90.5t-80.5 -241.5v-516h-123v690q0 10 -5 129t-5 127h122q4 -136 9 -166q108 191 301 191z" />
    <glyph glyph-name="s" unicode="s" horiz-adv-x="872" 
d="M422 971q241 0 332 -178l-111 -66q-71 133 -221 133q-78 0 -140.5 -42.5t-62.5 -108.5q0 -39 17.5 -67.5t53 -46.5t70.5 -28t89 -20q180 -33 255.5 -94t75.5 -185q0 -133 -95.5 -213t-248.5 -80q-129 0 -227 49.5t-152 143.5l109 74q35 -70 110.5 -113t163.5 -43
t152.5 49t64.5 125q0 26 -8.5 47.5t-19.5 36.5t-34.5 28.5t-40.5 21.5t-52 17.5t-53.5 14t-59.5 12.5q-89 19 -148.5 45t-90 60.5t-42.5 70.5t-12 84q0 123 93.5 198t232.5 75z" />
    <glyph glyph-name="t" unicode="t" horiz-adv-x="681" 
d="M29 836v110h204v273h123v-273h271v-110h-271v-619q0 -61 34.5 -96t96.5 -35q66 0 140 33l10 -111q-91 -33 -162 -33q-117 0 -179.5 65t-62.5 177v619h-204z" />
    <glyph glyph-name="u" unicode="u" horiz-adv-x="1138" 
d="M154 946h122v-553q0 -156 59 -231.5t179 -75.5q151 0 239.5 104t88.5 287v469h123v-690q0 -10 5 -129t5 -127h-123q-6 156 -8 166h-6q-41 -87 -130 -139t-194 -52q-181 0 -270.5 100.5t-89.5 311.5v559z" />
    <glyph glyph-name="v" unicode="v" horiz-adv-x="948" 
d="M31 946h139l315 -813l308 813h125l-373 -946h-127z" />
    <glyph glyph-name="w" unicode="w" horiz-adv-x="1441" 
d="M328 0l-297 946h135l229 -792h4l265 792h116l281 -792h4l223 792h123l-278 -946h-127l-283 774h-4l-264 -774h-127z" />
    <glyph glyph-name="x" unicode="x" horiz-adv-x="985" 
d="M160 0h-148l394 512l-338 434h157l262 -358l261 358h153l-334 -434l406 -512h-160l-330 428z" />
    <glyph glyph-name="y" unicode="y" horiz-adv-x="948" 
d="M416 -4l-385 950h137l313 -796l305 796h132l-486 -1235q-39 -101 -102.5 -152t-159.5 -51q-53 0 -121 19l12 115q76 -23 111 -23q49 0 86 34.5t70 117.5z" />
    <glyph glyph-name="z" unicode="z" horiz-adv-x="872" 
d="M793 946v-74l-566 -761h590v-111h-762v74l568 762h-539v110h709z" />
    <glyph glyph-name="braceleft" unicode="{" horiz-adv-x="681" 
d="M135 639q71 0 107.5 79t36.5 226v303q0 134 52 193t132 59h98v-98h-45q-60 0 -87.5 -56t-27.5 -143v-295q0 -107 -36 -185t-86 -116l-21 -14v-4q3 -2 10.5 -7.5t10.5 -7.5q57 -45 89.5 -123t32.5 -163v-318q0 -86 29 -138t82 -52h49v-98h-104q-83 0 -130.5 65.5
t-47.5 179.5v318q0 142 -37.5 219.5t-106.5 77.5v98z" />
    <glyph glyph-name="bar" unicode="|" horiz-adv-x="454" 
d="M178 1536h98v-2048h-98v2048z" />
    <glyph glyph-name="braceright" unicode="}" horiz-adv-x="681" 
d="M123 1401l-2 98h100q77 0 129.5 -59t52.5 -193v-303q0 -147 36.5 -226t107.5 -79v-98q-40 0 -69 -25.5t-45 -69t-23 -92.5t-7 -104v-324q0 -114 -47.5 -179.5t-130.5 -65.5h-104v98h49q53 0 82 53t29 139v316q0 86 32.5 164.5t89.5 121.5q3 3 21 15v4l-21 14
q-50 38 -86 116t-36 185v295q0 89 -28 144t-87 55h-43z" />
    <glyph glyph-name="asciitilde" unicode="~" horiz-adv-x="1363" 
d="M467 745q46 0 109.5 -21.5t116.5 -48t112.5 -48t97.5 -21.5q46 0 88 30t92 109l70 -65q-87 -184 -256 -184q-54 0 -141 35t-169.5 69.5t-125.5 34.5q-46 0 -89 -32t-91 -107l-70 65q97 184 256 184z" />
    <glyph glyph-name="uni00A0" unicode="&#xa0;" horiz-adv-x="532" 
 />
    <glyph glyph-name="exclamdown" unicode="&#xa1;" horiz-adv-x="757" 
d="M379 1008q41 0 69.5 -29t28.5 -70t-28.5 -69.5t-69.5 -28.5t-69.5 28.5t-28.5 69.5t28.5 70t69.5 29zM317 614h123v-1069h-123v1069z" />
    <glyph glyph-name="cent" unicode="&#xa2;" horiz-adv-x="1064" 
d="M106 477q0 188 116 325t302 163v147h99v-145q194 -3 335 -160l-98 -74q-103 112 -237 123v-770q139 6 237 131l94 -78q-131 -158 -331 -164v-141h-99v148q-125 18 -220.5 88t-146.5 176t-51 231zM524 854q-135 -23 -215 -128t-80 -249q0 -136 81 -245t214 -136v758z" />
    <glyph glyph-name="sterling" unicode="&#xa3;" horiz-adv-x="1064" 
d="M119 0v111h215v589h-195v111h195v227q0 193 115 315t315 122q163 0 293 -115l-82 -98q-102 102 -217 102q-130 0 -209.5 -88.5t-79.5 -218.5v-246h338v-111h-338v-589h502v-111h-852z" />
    <glyph glyph-name="currency" unicode="&#xa4;" horiz-adv-x="1064" 
d="M215 1120q136 109 317 109q182 0 318 -109l117 115l69 -76l-116 -112q122 -131 122 -322t-122 -322l116 -112l-69 -76l-117 115q-140 -109 -318 -109q-180 0 -317 109l-117 -115l-69 76l116 112q-122 131 -122 322t122 322l-116 112l69 76zM145 725q0 -160 113.5 -276.5
t273.5 -116.5q161 0 274.5 116.5t113.5 276.5q0 161 -113.5 277t-276.5 116q-106 0 -195 -54.5t-139.5 -144.5t-50.5 -194z" />
    <glyph glyph-name="yen" unicode="&#xa5;" horiz-adv-x="1064" 
d="M0 1450h139l393 -705l400 705h133l-391 -694h274v-99h-330l-18 -32v-158h348v-98h-348v-369h-135v369h-348v98h348v158l-19 32h-329v99h274z" />
    <glyph glyph-name="brokenbar" unicode="&#xa6;" horiz-adv-x="454" 
d="M178 1382h98v-716h-98v716zM276 -358h-98v716h98v-716z" />
    <glyph glyph-name="section" unicode="&#xa7;" horiz-adv-x="1064" 
d="M590 1487q118 0 205.5 -51t122.5 -142l-119 -69q-29 68 -85 103.5t-130 35.5q-102 0 -171 -53.5t-69 -145.5q0 -41 18 -75t58 -64t77 -50t101 -50q37 -17 50.5 -23.5t49.5 -25t52.5 -29.5t46.5 -32t45.5 -37.5t36 -41.5t30.5 -49t17.5 -55t7.5 -64q0 -84 -46.5 -153.5
t-135.5 -116.5q153 -91 153 -254q0 -150 -109.5 -245t-271.5 -95q-140 0 -243 63.5t-150 182.5l125 61q33 -91 102.5 -137.5t163.5 -46.5q108 0 178 56t70 143q0 48 -24.5 88t-70 70.5t-89 52.5t-104.5 49t-93 45q-49 27 -84.5 52t-71.5 62t-54.5 86.5t-18.5 108.5
q0 173 217 264q-168 100 -168 260q0 144 110.5 233t270.5 89zM295 643q0 -63 32 -101t91 -69l225 -115q72 40 114 92.5t42 104.5q0 56 -37.5 107t-104.5 88l-163 90q-199 -64 -199 -197z" />
    <glyph glyph-name="dieresis" unicode="&#xa8;" horiz-adv-x="491" 
d="M51 1434q41 0 70 -29t29 -70t-29 -69.5t-70 -28.5t-69.5 28.5t-28.5 69.5t28.5 70t69.5 29zM440 1434q41 0 70 -29t29 -70t-29 -69.5t-70 -28.5t-69.5 28.5t-28.5 69.5t28.5 70t69.5 29z" />
    <glyph glyph-name="copyright" unicode="&#xa9;" horiz-adv-x="1638" 
d="M819 1487q155 0 296 -61t243 -163.5t162.5 -243.5t60.5 -294t-60 -294t-161.5 -243.5t-243 -163.5t-297.5 -61q-125 0 -242 39t-210.5 110t-163.5 165.5t-108 210t-38 237.5q0 152 59.5 292.5t161 243.5t243.5 164.5t298 61.5zM168 725q0 -175 86.5 -325t236.5 -238
t328 -88q179 0 329 88t236 237.5t86 325.5q0 175 -85.5 324.5t-236 238t-331.5 88.5q-177 0 -327 -88.5t-236 -238t-86 -324.5zM838 1194q151 0 255.5 -84t123.5 -227h-111q-23 98 -97.5 155.5t-170.5 57.5q-145 0 -236.5 -105.5t-91.5 -265.5q0 -161 92 -266t238 -105
q100 0 173 58t93 155h111q-19 -143 -123 -227t-256 -84q-201 0 -320 129t-119 340q0 213 120.5 341t318.5 128z" />
    <glyph glyph-name="ordfeminine" unicode="&#xaa;" horiz-adv-x="690" 
d="M295 868q-104 0 -164.5 43.5t-60.5 122.5q0 96 80 147.5t235 51.5h127v8q0 80 -39 114t-131 34q-59 0 -101.5 -16.5t-90.5 -55.5l-54 78q103 80 269 80q130 0 187.5 -54.5t57.5 -163.5v-196q0 -90 11 -180h-101q-4 12 -5 28t-1.5 37t-1.5 29h-4q-66 -107 -213 -107z
M432 1147q-127 0 -195.5 -28t-68.5 -81q0 -35 44 -59.5t103 -24.5q86 0 141.5 52.5t55.5 128.5v12h-80z" />
    <glyph glyph-name="guillemotleft" unicode="&#xab;" horiz-adv-x="985" 
d="M410 901l86 -59l-238 -357l242 -360l-90 -55l-281 415zM750 901l86 -59l-238 -357l242 -360l-90 -55l-281 415z" />
    <glyph glyph-name="logicalnot" unicode="&#xac;" horiz-adv-x="1363" 
d="M1204 817v-543h-98v445h-946v98h1044z" />
    <glyph glyph-name="uni00AD" unicode="&#xad;" horiz-adv-x="681" 
d="M594 541v-111h-506v111h506z" />
    <glyph glyph-name="registered" unicode="&#xae;" horiz-adv-x="1638" 
d="M57 725q0 152 59.5 292.5t160.5 243.5t243 164.5t299 61.5q155 0 296.5 -61t243.5 -163.5t162 -243.5t60 -294t-60 -294t-161.5 -243.5t-243 -163.5t-297.5 -61q-125 0 -242 39t-210.5 110t-163.5 165.5t-108 210t-38 237.5zM817 1376q-177 0 -327 -88.5t-236 -238
t-86 -324.5t86.5 -325t236.5 -238t328 -88q179 0 329 88t236 237.5t86 325.5q0 175 -85.5 324.5t-236 238t-331.5 88.5zM653 289h-110v878h344q270 0 270 -243q0 -104 -57 -168.5t-164 -81.5l262 -385h-125l-262 385h-158v-385zM653 1069v-297h162q128 0 180 37.5t52 114.5
q0 71 -53 108t-154 37h-187z" />
    <glyph glyph-name="macron" unicode="&#xaf;" horiz-adv-x="491" 
d="M516 1339v-98h-541v98h541z" />
    <glyph glyph-name="degree" unicode="&#xb0;" horiz-adv-x="819" 
d="M410 1475q126 0 210.5 -85.5t84.5 -207.5q0 -123 -84.5 -210t-210.5 -87q-125 0 -210 87t-85 210q0 121 85 207t210 86zM213 1180q0 -80 57.5 -138.5t139.5 -58.5q83 0 139.5 57.5t56.5 139.5q0 80 -56.5 138t-139.5 58q-82 0 -139.5 -58t-57.5 -138z" />
    <glyph glyph-name="plusminus" unicode="&#xb1;" horiz-adv-x="1363" 
d="M627 670h-467v98h467v375h98v-375h479v-98h-479v-375h-98v375zM1196 98h-1028v99h1028v-99z" />
    <glyph glyph-name="twosuperior" unicode="&#xb2;" horiz-adv-x="692" 
d="M367 1475q122 0 199 -61.5t77 -162.5q0 -83 -43 -149.5t-145 -163.5l-260 -248h450v-98h-598v88l371 362q61 60 87.5 105t26.5 100q0 58 -46 93.5t-126 35.5q-134 0 -176 -121l-104 9q22 99 102.5 155t184.5 56z" />
    <glyph glyph-name="threesuperior" unicode="&#xb3;" horiz-adv-x="692" 
d="M344 1475q117 0 192.5 -62.5t75.5 -159.5q0 -67 -46.5 -122t-121.5 -80v-4q85 -10 139 -73t54 -147q0 -109 -82 -178t-215 -69q-216 0 -285 182l97 37q46 -121 188 -121q72 0 129 48.5t57 109.5q0 163 -239 163h-27v99h47q88 0 141.5 42t53.5 111q0 54 -44.5 89.5
t-113.5 35.5q-118 0 -180 -102l-80 51q94 150 260 150z" />
    <glyph glyph-name="acute" unicode="&#xb4;" horiz-adv-x="491" 
d="M504 1450l-275 -295h-102l213 295h164z" />
    <glyph glyph-name="mu" unicode="&#xb5;" horiz-adv-x="1138" 
d="M154 946h122v-565q0 -144 59.5 -219.5t178.5 -75.5q151 0 239.5 105t88.5 274v481h123v-690q0 -10 5 -129t5 -127h-123q-3 131 -8 166h-6q-45 -90 -132 -140.5t-194 -50.5q-150 0 -238 78v-520h-120v1413z" />
    <glyph glyph-name="paragraph" unicode="&#xb6;" horiz-adv-x="1228" 
d="M123 1051q0 190 121 294.5t327 104.5h473v-1708h-122v1610h-252v-1610h-123v920q-181 0 -302.5 114.5t-121.5 274.5z" />
    <glyph glyph-name="periodcentered" unicode="&#xb7;" horiz-adv-x="532" 
d="M266 750q41 0 70 -29t29 -70t-29 -69.5t-70 -28.5t-69.5 28.5t-28.5 69.5t28.5 70t69.5 29z" />
    <glyph glyph-name="cedilla" unicode="&#xb8;" horiz-adv-x="491" 
d="M272 0h78l-96 -131l4 -4q25 14 64 14q75 0 122.5 -40t47.5 -107q0 -78 -65.5 -126t-166.5 -48q-105 0 -192 43l28 65q61 -35 156 -35q55 0 92 24.5t37 63.5t-31.5 62.5t-85.5 23.5q-42 0 -88 -16l-33 31z" />
    <glyph glyph-name="onesuperior" unicode="&#xb9;" horiz-adv-x="692" 
d="M362 1462h111v-870h-111v760l-174 -135l-51 69z" />
    <glyph glyph-name="ordmasculine" unicode="&#xba;" horiz-adv-x="790" 
d="M393 1475q145 0 236.5 -84t91.5 -220q0 -132 -92.5 -217.5t-235.5 -85.5q-147 0 -235 84.5t-88 218.5t88.5 219t234.5 85zM168 1171q0 -91 64 -154t161 -63q96 0 163 63.5t67 153.5q0 94 -65 156t-167 62q-92 0 -157.5 -64.5t-65.5 -153.5z" />
    <glyph glyph-name="guillemotright" unicode="&#xbb;" horiz-adv-x="985" 
d="M236 901l280 -416l-280 -415l-86 59l237 356l-242 361zM575 901l281 -416l-281 -415l-86 59l238 356l-242 361z" />
    <glyph glyph-name="onequarter" unicode="&#xbc;" horiz-adv-x="1593" 
d="M1278 209h-389v92l379 567h121v-561h131v-98h-131v-209h-111v209zM236 -12l933 1532l95 -58l-936 -1532zM74 1286l225 176h111v-870h-111v760l-174 -135zM1274 721l-275 -414h279v414h-4z" />
    <glyph glyph-name="onehalf" unicode="&#xbd;" horiz-adv-x="1593" 
d="M1151 1520l94 -58l-938 -1532l-90 58zM283 1462h110v-870h-110v760l-174 -135l-52 69zM1257 883q122 0 199.5 -61.5t77.5 -162.5q0 -83 -43 -149.5t-145 -163.5l-261 -248h451v-98h-598v88l371 363q62 60 88 104.5t26 99.5q0 58 -46 93.5t-126 35.5q-134 0 -176 -120
l-104 8q22 99 102 155t184 56z" />
    <glyph glyph-name="threequarters" unicode="&#xbe;" horiz-adv-x="1593" 
d="M922 209v92l378 567h121v-561h131v-98h-131v-209h-110v209h-389zM41 762l98 37q46 -121 189 -121q72 0 129 48.5t57 109.5q0 163 -240 163h-26v99h47q88 0 141 42t53 111q0 54 -44 89.5t-113 35.5q-118 0 -180 -102l-80 51q94 150 260 150q117 0 192.5 -62.5t75.5 -159.5
q0 -67 -46.5 -122t-121.5 -80v-4q85 -10 139 -73t54 -147q0 -109 -82 -178t-215 -69q-215 0 -287 182zM432 -70l-92 58l934 1532l94 -58zM1307 721l-275 -414h279v414h-4z" />
    <glyph glyph-name="questiondown" unicode="&#xbf;" horiz-adv-x="948" 
d="M467 1008q41 0 69.5 -29t28.5 -70t-28.5 -69.5t-69.5 -28.5t-69.5 28.5t-28.5 69.5t28.5 70t69.5 29zM453 -492q-169 0 -273 97t-104 256q0 106 42.5 185t129.5 153q84 72 122 137t38 141v137h122v-176q0 -74 -36.5 -141t-122.5 -143q-87 -77 -123.5 -144t-36.5 -143
q0 -110 65.5 -179t174.5 -69q102 0 173.5 62.5t94.5 175.5l133 -17q-29 -156 -137.5 -244t-261.5 -88z" />
    <glyph glyph-name="Agrave" unicode="&#xc0;" horiz-adv-x="1402" 
d="M152 0h-142l633 1450h139l611 -1450h-152l-158 385h-768zM707 1303l-338 -795h665zM444 1835h164l213 -295h-102z" />
    <glyph glyph-name="Aacute" unicode="&#xc1;" horiz-adv-x="1402" 
d="M10 0l633 1450h139l611 -1450h-152l-158 385h-768l-163 -385h-142zM707 1303l-338 -795h665zM686 1540h-102l213 295h164z" />
    <glyph glyph-name="Acircumflex" unicode="&#xc2;" horiz-adv-x="1402" 
d="M10 0l633 1450h139l611 -1450h-152l-158 385h-768l-163 -385h-142zM707 1303l-338 -795h665zM530 1540h-120l221 295h143l221 -295h-133l-166 221z" />
    <glyph glyph-name="Atilde" unicode="&#xc3;" horiz-adv-x="1402" 
d="M10 0l633 1450h139l611 -1450h-152l-158 385h-768l-163 -385h-142zM707 1303l-338 -795h665zM457 1575h-74q14 93 64.5 151t119.5 58q53 0 150.5 -49t132.5 -49q74 0 98 98h74q-10 -97 -57.5 -153t-114.5 -56q-54 0 -153.5 49t-135.5 49q-77 0 -104 -98z" />
    <glyph glyph-name="Adieresis" unicode="&#xc4;" horiz-adv-x="1402" 
d="M10 0l633 1450h139l611 -1450h-152l-158 385h-768l-163 -385h-142zM707 1303l-338 -795h665zM410 1720q0 41 28.5 70t69.5 29t69.5 -29t28.5 -70q0 -42 -28 -70t-70 -28q-43 0 -70.5 27.5t-27.5 70.5zM897 1622q-43 0 -70.5 27.5t-27.5 70.5q0 41 28.5 70t69.5 29
t69.5 -29t28.5 -70t-28.5 -69.5t-69.5 -28.5z" />
    <glyph glyph-name="Aring" unicode="&#xc5;" horiz-adv-x="1402" 
d="M10 0l633 1450h139l611 -1450h-152l-158 385h-768l-163 -385h-142zM707 1303l-338 -795h665zM705 1520q-78 0 -135.5 57.5t-57.5 136.5t57.5 137t135.5 58q75 0 131.5 -59t56.5 -138q0 -78 -56 -135t-132 -57zM586 1712q0 -50 33 -84.5t83 -34.5q49 0 83 35t34 86
q0 53 -33.5 87t-83.5 34q-49 0 -82.5 -36t-33.5 -87z" />
    <glyph glyph-name="AE" unicode="&#xc6;" horiz-adv-x="1896" 
d="M133 0h-143l944 1450h825v-123h-600v-516h565v-123h-565v-565h617v-123h-752v385h-639zM999 1327l-534 -819h559v819h-25z" />
    <glyph glyph-name="Ccedilla" unicode="&#xc7;" horiz-adv-x="1441" 
d="M854 1487q322 0 500 -227l-111 -93q-62 93 -164.5 145t-224.5 52q-274 0 -444 -180t-170 -459q0 -181 74 -325.5t214.5 -229t323.5 -84.5q126 0 244.5 61t185.5 164l111 -84q-193 -264 -541 -264q-9 0 -27 1t-26 1l-70 -94l4 -6q28 14 64 14q75 0 122.5 -40t47.5 -107
q0 -78 -65.5 -126t-166.5 -48q-105 0 -192 43l28 65q61 -35 156 -35q55 0 92 24.5t37 63.5t-31.5 62.5t-85.5 23.5q-42 0 -88 -16l-33 31l109 153q-282 41 -452.5 248t-170.5 504q0 220 95.5 394t267 271t387.5 97z" />
    <glyph glyph-name="Egrave" unicode="&#xc8;" horiz-adv-x="1214" 
d="M1118 0h-919v1450h886v-123h-751v-516h704v-123h-704v-565h784v-123zM350 1835h164l213 -295h-102z" />
    <glyph glyph-name="Eacute" unicode="&#xc9;" horiz-adv-x="1214" 
d="M1118 0h-919v1450h886v-123h-751v-516h704v-123h-704v-565h784v-123zM498 1540l213 295h163l-274 -295h-102z" />
    <glyph glyph-name="Ecircumflex" unicode="&#xca;" horiz-adv-x="1214" 
d="M1118 0h-919v1450h886v-123h-751v-516h704v-123h-704v-565h784v-123zM348 1540l221 295h144l221 -295h-133l-166 221l-166 -221h-121z" />
    <glyph glyph-name="Edieresis" unicode="&#xcb;" horiz-adv-x="1214" 
d="M199 1450h886v-123h-751v-516h704v-123h-704v-565h784v-123h-919v1450zM358 1720q0 41 29 70t70 29t69.5 -29t28.5 -70q0 -42 -28 -70t-70 -28q-43 0 -71 27.5t-28 70.5zM846 1622q-43 0 -70.5 27.5t-27.5 70.5q0 41 28.5 70t69.5 29t69.5 -29t28.5 -70t-28.5 -69.5
t-69.5 -28.5z" />
    <glyph glyph-name="Igrave" unicode="&#xcc;" horiz-adv-x="532" 
d="M172 1835l213 -295h-102l-275 295h164zM334 1450v-1450h-135v1450h135z" />
    <glyph glyph-name="Iacute" unicode="&#xcd;" horiz-adv-x="532" 
d="M524 1835l-274 -295h-103l213 295h164zM334 1450v-1450h-135v1450h135z" />
    <glyph glyph-name="Icircumflex" unicode="&#xce;" horiz-adv-x="532" 
d="M199 0v1450h135v-1450h-135zM94 1540h-121l222 295h143l221 -295h-133l-166 221z" />
    <glyph glyph-name="Idieresis" unicode="&#xcf;" horiz-adv-x="532" 
d="M72 1819q41 0 69.5 -29t28.5 -70q0 -42 -28 -70t-70 -28q-43 0 -71 27.5t-28 70.5q0 41 29 70t70 29zM461 1819q41 0 69.5 -29t28.5 -70t-28.5 -69.5t-69.5 -28.5q-43 0 -71 27.5t-28 70.5q0 41 29 70t70 29zM334 1450v-1450h-135v1450h135z" />
    <glyph glyph-name="Eth" unicode="&#xd0;" horiz-adv-x="1517" 
d="M180 700h-160v111h160v639h453q161 0 293 -40.5t221 -109.5t150 -163t88.5 -198.5t27.5 -219.5q0 -94 -22 -187t-78.5 -191t-141 -172t-221.5 -121.5t-309 -47.5h-461v700zM315 1327v-516h529v-111h-529v-577h289q307 0 490.5 156t183.5 436q0 298 -182.5 455t-497.5 157
h-283z" />
    <glyph glyph-name="Ntilde" unicode="&#xd1;" horiz-adv-x="1593" 
d="M199 0v1450h174l882 -1270h5v1270h135v-1450h-174l-883 1270h-4v-1270h-135zM500 1575q14 93 64.5 151t119.5 58q53 0 150.5 -49t132.5 -49q74 0 98 98h74q-10 -97 -57.5 -153t-114.5 -56q-54 0 -153.5 49t-135.5 49q-78 0 -105 -98h-73z" />
    <glyph glyph-name="Ograve" unicode="&#xd2;" horiz-adv-x="1708" 
d="M760 1835l213 -295h-103l-274 295h164zM854 1487q222 0 394 -100t264 -273t92 -389q0 -162 -55 -303t-153 -242t-238 -159t-304 -58t-304 58t-238 159t-153 242t-55 303q0 217 93.5 390.5t265.5 272.5t391 99zM240 725q0 -182 75.5 -327t216 -228.5t322.5 -83.5
t322.5 83.5t216 228.5t75.5 327q0 136 -43.5 253.5t-122 203t-195 134t-255.5 48.5q-183 0 -323 -83.5t-214.5 -228.5t-74.5 -327z" />
    <glyph glyph-name="Oacute" unicode="&#xd3;" horiz-adv-x="1708" 
d="M1112 1835l-274 -295h-103l213 295h164zM854 1487q222 0 394 -100t264 -273t92 -389q0 -162 -55 -303t-153 -242t-238 -159t-304 -58t-304 58t-238 159t-153 242t-55 303q0 217 93.5 390.5t265.5 272.5t391 99zM240 725q0 -182 75.5 -327t216 -228.5t322.5 -83.5
t322.5 83.5t216 228.5t75.5 327q0 136 -43.5 253.5t-122 203t-195 134t-255.5 48.5q-183 0 -323 -83.5t-214.5 -228.5t-74.5 -327z" />
    <glyph glyph-name="Ocircumflex" unicode="&#xd4;" horiz-adv-x="1708" 
d="M104 725q0 217 93.5 390.5t265.5 272.5t391 99q222 0 394 -100t264 -273t92 -389q0 -162 -55 -303t-153 -242t-238 -159t-304 -58t-304 58t-238 159t-153 242t-55 303zM240 725q0 -182 75.5 -327t216 -228.5t322.5 -83.5t322.5 83.5t216 228.5t75.5 327
q0 136 -43.5 253.5t-122 203t-195 134t-255.5 48.5q-183 0 -323 -83.5t-214.5 -228.5t-74.5 -327zM561 1540l221 295h144l221 -295h-133l-166 221l-166 -221h-121z" />
    <glyph glyph-name="Otilde" unicode="&#xd5;" horiz-adv-x="1708" 
d="M719 1784q53 0 150 -49t132 -49q75 0 99 98h74q-10 -97 -58 -153t-115 -56q-54 0 -153 49t-135 49q-78 0 -105 -98h-73q14 93 64.5 151t119.5 58zM854 1487q222 0 394 -100t264 -273t92 -389q0 -162 -55 -303t-153 -242t-238 -159t-304 -58t-304 58t-238 159t-153 242
t-55 303q0 217 93.5 390.5t265.5 272.5t391 99zM240 725q0 -182 75.5 -327t216 -228.5t322.5 -83.5t322.5 83.5t216 228.5t75.5 327q0 136 -43.5 253.5t-122 203t-195 134t-255.5 48.5q-183 0 -323 -83.5t-214.5 -228.5t-74.5 -327z" />
    <glyph glyph-name="Odieresis" unicode="&#xd6;" horiz-adv-x="1708" 
d="M659 1819q41 0 70 -29t29 -70q0 -42 -28.5 -70t-70.5 -28q-43 0 -70.5 27.5t-27.5 70.5q0 41 28.5 70t69.5 29zM1049 1819q41 0 69.5 -29t28.5 -70t-28.5 -69.5t-69.5 -28.5q-43 0 -71 27.5t-28 70.5q0 41 29 70t70 29zM854 1487q222 0 394 -100t264 -273t92 -389
q0 -162 -55 -303t-153 -242t-238 -159t-304 -58t-304 58t-238 159t-153 242t-55 303q0 217 93.5 390.5t265.5 272.5t391 99zM240 725q0 -182 75.5 -327t216 -228.5t322.5 -83.5t322.5 83.5t216 228.5t75.5 327q0 136 -43.5 253.5t-122 203t-195 134t-255.5 48.5
q-183 0 -323 -83.5t-214.5 -228.5t-74.5 -327z" />
    <glyph glyph-name="multiply" unicode="&#xd7;" horiz-adv-x="1363" 
d="M279 1096l405 -406l406 406l67 -70l-405 -405l405 -406l-70 -70l-405 408l-408 -410l-69 72l407 408l-403 403z" />
    <glyph glyph-name="Oslash" unicode="&#xd8;" horiz-adv-x="1708" 
d="M295 199q-191 213 -191 526q0 217 93.5 390.5t265.5 272.5t391 99q281 0 481 -160l152 164l69 -64l-151 -165q96 -102 147.5 -240t51.5 -297q0 -162 -55 -303t-153 -242t-238 -159t-304 -58q-294 0 -492 170l-151 -166l-72 64zM240 725q0 -254 143 -430l864 936
q-161 133 -395 133q-183 0 -323 -83.5t-214.5 -228.5t-74.5 -327zM1468 725q0 264 -153 440l-864 -938q160 -141 403 -141q182 0 322.5 83.5t216 228.5t75.5 327z" />
    <glyph glyph-name="Ugrave" unicode="&#xd9;" horiz-adv-x="1400" 
d="M172 555v895h135v-870q0 -237 99.5 -365.5t293.5 -128.5q196 0 295 132t99 382v850h135v-885q0 -286 -135 -444t-394 -158q-258 0 -393 156.5t-135 435.5zM442 1835h164l213 -295h-102z" />
    <glyph glyph-name="Uacute" unicode="&#xda;" horiz-adv-x="1400" 
d="M172 555v895h135v-870q0 -237 99.5 -365.5t293.5 -128.5q196 0 295 132t99 382v850h135v-885q0 -286 -135 -444t-394 -158q-258 0 -393 156.5t-135 435.5zM582 1540l213 295h163l-274 -295h-102z" />
    <glyph glyph-name="Ucircumflex" unicode="&#xdb;" horiz-adv-x="1400" 
d="M172 555v895h135v-870q0 -237 99.5 -365.5t293.5 -128.5q196 0 295 132t99 382v850h135v-885q0 -286 -135 -444t-394 -158q-258 0 -393 156.5t-135 435.5zM532 1540h-120l221 295h143l221 -295h-133l-166 221z" />
    <glyph glyph-name="Udieresis" unicode="&#xdc;" horiz-adv-x="1400" 
d="M172 555v895h135v-870q0 -237 99.5 -365.5t293.5 -128.5q196 0 295 132t99 382v850h135v-885q0 -286 -135 -444t-394 -158q-258 0 -393 156.5t-135 435.5zM416 1720q0 41 28.5 70t69.5 29t69.5 -29t28.5 -70q0 -42 -28 -70t-70 -28q-43 0 -70.5 27.5t-27.5 70.5z
M805 1720q0 41 28.5 70t69.5 29t69.5 -29t28.5 -70t-28.5 -69.5t-69.5 -28.5q-43 0 -70.5 27.5t-27.5 70.5z" />
    <glyph glyph-name="Yacute" unicode="&#xdd;" horiz-adv-x="1175" 
d="M520 625l-532 825h162l438 -688l448 688h152l-533 -825v-625h-135v625zM469 1540l213 295h164l-275 -295h-102z" />
    <glyph glyph-name="Thorn" unicode="&#xde;" horiz-adv-x="1175" 
d="M199 0v1450h135v-320h291q204 0 331 -99.5t127 -282.5q0 -176 -120 -277.5t-318 -101.5h-311v-369h-135zM334 492h313q135 0 218 68t83 188t-88 190t-219 70h-307v-516z" />
    <glyph glyph-name="germandbls" unicode="&#xdf;" horiz-adv-x="1214" 
d="M596 1573q170 0 274.5 -100.5t104.5 -266.5q0 -115 -53.5 -200t-149.5 -115v-4q170 -33 248 -142t78 -290q0 -214 -137 -340.5t-369 -126.5q-48 0 -96 10v119q50 -19 108 -19q167 0 269 98t102 255q0 173 -105.5 274.5t-291.5 101.5h-33v111h22q133 0 209 71.5t76 192.5
q0 120 -72 190t-194 70q-146 0 -222.5 -101t-76.5 -280v-1081h-123v1098q0 213 115 344t317 131z" />
    <glyph glyph-name="agrave" unicode="&#xe0;" horiz-adv-x="1062" 
d="M457 -25q-153 0 -244.5 76t-91.5 205q0 158 134 237.5t382 79.5h151v56q0 115 -70 173t-196 58q-165 0 -289 -106l-71 84q66 63 164.5 98t195.5 35q185 0 281 -87.5t96 -246.5v-281q0 -223 19 -356h-115q-12 64 -12 154h-5q-54 -93 -133 -136t-196 -43zM641 475
q-110 0 -196.5 -20.5t-143.5 -69.5t-57 -123q0 -77 62 -126.5t155 -49.5q161 0 244 85.5t83 238.5v65h-147zM588 1155l-275 295h164l213 -295h-102z" />
    <glyph glyph-name="aacute" unicode="&#xe1;" horiz-adv-x="1062" 
d="M457 -25q-153 0 -244.5 76t-91.5 205q0 158 134 237.5t382 79.5h151v56q0 115 -70 173t-196 58q-165 0 -289 -106l-71 84q66 63 164.5 98t195.5 35q185 0 281 -87.5t96 -246.5v-281q0 -223 19 -356h-115q-12 64 -12 154h-5q-54 -93 -133 -136t-196 -43zM641 475
q-110 0 -196.5 -20.5t-143.5 -69.5t-57 -123q0 -77 62 -126.5t155 -49.5q161 0 244 85.5t83 238.5v65h-147zM522 1155h-102l213 295h164z" />
    <glyph glyph-name="acircumflex" unicode="&#xe2;" horiz-adv-x="1062" 
d="M457 -25q-153 0 -244.5 76t-91.5 205q0 158 134 237.5t382 79.5h151v56q0 115 -70 173t-196 58q-165 0 -289 -106l-71 84q66 63 164.5 98t195.5 35q185 0 281 -87.5t96 -246.5v-281q0 -223 19 -356h-115q-12 64 -12 154h-5q-54 -93 -133 -136t-196 -43zM641 475
q-110 0 -196.5 -20.5t-143.5 -69.5t-57 -123q0 -77 62 -126.5t155 -49.5q161 0 244 85.5t83 238.5v65h-147zM260 1155l221 295h144l221 -295h-133l-166 221l-166 -221h-121z" />
    <glyph glyph-name="atilde" unicode="&#xe3;" horiz-adv-x="1062" 
d="M121 256q0 158 134 237.5t382 79.5h151v56q0 115 -70 173t-196 58q-165 0 -289 -106l-71 84q66 63 164.5 98t195.5 35q185 0 281 -87.5t96 -246.5v-281q0 -223 19 -356h-115q-12 64 -12 154h-5q-54 -93 -133 -136t-196 -43q-153 0 -244.5 76t-91.5 205zM641 475
q-110 0 -196.5 -20.5t-143.5 -69.5t-57 -123q0 -77 62 -126.5t155 -49.5q161 0 244 85.5t83 238.5v65h-147zM287 1190h-74q11 88 62.5 148.5t121.5 60.5q45 0 98.5 -24.5t102 -49.5t82.5 -25q75 0 98 99h74q-13 -99 -58.5 -154t-113.5 -55q-55 0 -153.5 49t-135.5 49
q-79 0 -104 -98z" />
    <glyph glyph-name="adieresis" unicode="&#xe4;" horiz-adv-x="1062" 
d="M121 256q0 158 134 237.5t382 79.5h151v56q0 115 -70 173t-196 58q-165 0 -289 -106l-71 84q66 63 164.5 98t195.5 35q185 0 281 -87.5t96 -246.5v-281q0 -223 19 -356h-115q-12 64 -12 154h-5q-54 -93 -133 -136t-196 -43q-153 0 -244.5 76t-91.5 205zM641 475
q-110 0 -196.5 -20.5t-143.5 -69.5t-57 -123q0 -77 62 -126.5t155 -49.5q161 0 244 85.5t83 238.5v65h-147zM727 1237q-41 0 -69.5 28.5t-28.5 69.5t28.5 70t69.5 29t69.5 -29t28.5 -70t-28.5 -69.5t-69.5 -28.5zM240 1335q0 41 28.5 70t69.5 29t69.5 -29t28.5 -70
t-28.5 -69.5t-69.5 -28.5t-69.5 28.5t-28.5 69.5z" />
    <glyph glyph-name="aring" unicode="&#xe5;" horiz-adv-x="1062" 
d="M457 -25q-153 0 -244.5 76t-91.5 205q0 158 134 237.5t382 79.5h151v56q0 115 -70 173t-196 58q-165 0 -289 -106l-71 84q66 63 164.5 98t195.5 35q185 0 281 -87.5t96 -246.5v-281q0 -223 19 -356h-115q-12 64 -12 154h-5q-54 -93 -133 -136t-196 -43zM244 262
q0 -77 62 -126.5t155 -49.5q161 0 244 85.5t83 238.5v65h-147q-110 0 -196.5 -20.5t-143.5 -69.5t-57 -123zM342 1329q0 79 57.5 137t135.5 58q75 0 131.5 -59t56.5 -138q0 -78 -56 -135t-132 -57q-78 0 -135.5 57.5t-57.5 136.5zM532 1450q-49 0 -82.5 -36t-33.5 -87
q0 -50 33 -84.5t83 -34.5q49 0 83 35t34 86q0 53 -33.5 87t-83.5 34z" />
    <glyph glyph-name="ae" unicode="&#xe6;" horiz-adv-x="1744" 
d="M444 -25q-151 0 -242 77t-91 204q0 141 116.5 219t329.5 78h246v16q0 291 -291 291q-165 0 -289 -106l-71 84q64 62 164 97.5t196 35.5q147 0 234.5 -48.5t134.5 -148.5q49 90 145 143.5t203 53.5q201 0 313.5 -123t112.5 -338v-68h-729v-18q0 -154 90 -246t237 -92
q87 0 157.5 39.5t115.5 112.5l96 -70q-81 -104 -168 -148.5t-219 -44.5q-137 0 -233.5 61.5t-141.5 172.5q-54 -114 -160 -174t-256 -60zM555 442q-159 0 -240.5 -51.5t-81.5 -130.5q0 -76 63 -125t155 -49q164 0 258 93t94 263h-248zM926 553h606q-3 148 -82.5 227.5
t-220.5 79.5q-130 0 -215 -84t-88 -223z" />
    <glyph glyph-name="ccedilla" unicode="&#xe7;" horiz-adv-x="985" 
d="M508 -14q-179 31 -288 164t-109 323q0 217 139.5 357.5t357.5 140.5q208 0 353 -164l-99 -74q-120 127 -256 127q-164 0 -268.5 -110t-104.5 -277t105 -277t268 -110q150 0 256 131l94 -78q-74 -89 -164.5 -126.5t-175.5 -37.5q-24 0 -36 2l-78 -106l4 -6q28 14 63 14
q75 0 122.5 -40t47.5 -107q0 -78 -65 -126t-166 -48q-106 0 -193 43l29 65q61 -35 156 -35q55 0 92 24.5t37 63.5t-31.5 62.5t-85.5 23.5q-42 0 -88 -16l-33 31z" />
    <glyph glyph-name="egrave" unicode="&#xe8;" horiz-adv-x="1138" 
d="M475 1450l213 -295h-102l-275 295h164zM584 971q192 0 318 -124.5t126 -330.5v-74h-795q8 -155 103.5 -255.5t255.5 -100.5q95 0 183 46.5t134 121.5l90 -76q-136 -203 -409 -203q-215 0 -347 138.5t-132 361.5q0 137 58.5 249.5t167.5 179.5t247 67zM905 553
q-1 131 -97.5 219t-232.5 88t-231 -90t-111 -217h672z" />
    <glyph glyph-name="eacute" unicode="&#xe9;" horiz-adv-x="1138" 
d="M827 1450l-274 -295h-102l213 295h163zM584 971q192 0 318 -124.5t126 -330.5v-74h-795q8 -155 103.5 -255.5t255.5 -100.5q95 0 183 46.5t134 121.5l90 -76q-136 -203 -409 -203q-215 0 -347 138.5t-132 361.5q0 137 58.5 249.5t167.5 179.5t247 67zM905 553
q-1 131 -97.5 219t-232.5 88t-231 -90t-111 -217h672z" />
    <glyph glyph-name="ecircumflex" unicode="&#xea;" horiz-adv-x="1138" 
d="M111 475q0 137 58.5 249.5t167.5 179.5t247 67q192 0 318 -124.5t126 -330.5v-74h-795q8 -155 103.5 -255.5t255.5 -100.5q95 0 183 46.5t134 121.5l90 -76q-136 -203 -409 -203q-215 0 -347 138.5t-132 361.5zM575 860q-136 0 -231 -90t-111 -217h672q-1 131 -97.5 219
t-232.5 88zM397 1155h-121l222 295h143l221 -295h-133l-166 221z" />
    <glyph glyph-name="edieresis" unicode="&#xeb;" horiz-adv-x="1138" 
d="M375 1434q41 0 69.5 -29t28.5 -70t-28.5 -69.5t-69.5 -28.5t-70 28.5t-29 69.5t29 70t70 29zM764 1434q41 0 69.5 -29t28.5 -70t-28.5 -69.5t-69.5 -28.5t-69.5 28.5t-28.5 69.5t28.5 70t69.5 29zM584 971q192 0 318 -124.5t126 -330.5v-74h-795q8 -155 103.5 -255.5
t255.5 -100.5q95 0 183 46.5t134 121.5l90 -76q-136 -203 -409 -203q-215 0 -347 138.5t-132 361.5q0 137 58.5 249.5t167.5 179.5t247 67zM905 553q-1 131 -97.5 219t-232.5 88t-231 -90t-111 -217h672z" />
    <glyph glyph-name="igrave" unicode="&#xec;" horiz-adv-x="491" 
d="M152 1450l213 -295h-103l-274 295h164zM184 946h123v-946h-123v946z" />
    <glyph glyph-name="iacute" unicode="&#xed;" horiz-adv-x="491" 
d="M504 1450l-275 -295h-102l213 295h164zM184 946h123v-946h-123v946z" />
    <glyph glyph-name="icircumflex" unicode="&#xee;" horiz-adv-x="491" 
d="M184 0v946h123v-946h-123zM74 1155h-121l221 295h143l222 -295h-133l-166 221z" />
    <glyph glyph-name="idieresis" unicode="&#xef;" horiz-adv-x="491" 
d="M51 1434q41 0 70 -29t29 -70t-29 -69.5t-70 -28.5t-69.5 28.5t-28.5 69.5t28.5 70t69.5 29zM440 1434q41 0 70 -29t29 -70t-29 -69.5t-70 -28.5t-69.5 28.5t-28.5 69.5t28.5 70t69.5 29zM184 946h123v-946h-123v946z" />
    <glyph glyph-name="eth" unicode="&#xf0;" horiz-adv-x="1216" 
d="M432 1573q48 -32 108.5 -84t86.5 -80l213 115l73 -62l-217 -116q201 -183 305.5 -392t104.5 -430q0 -247 -137.5 -398t-360.5 -151q-217 0 -357 141t-140 357q0 217 139.5 357.5t357.5 140.5q181 0 305 -113l5 4q-149 260 -330 424l-219 -117l-64 68l213 115
q-108 97 -192 159zM233 473q0 -168 105 -277.5t270 -109.5t270 109.5t105 277.5q0 167 -105.5 277t-271.5 110q-163 0 -268 -110t-105 -277z" />
    <glyph glyph-name="ntilde" unicode="&#xf1;" horiz-adv-x="1138" 
d="M164 690q0 10 -5 129t-5 127h122q6 -150 9 -166h6q41 87 129.5 139t193.5 52q182 0 271.5 -100.5t89.5 -311.5v-559h-123v553q0 156 -59 231.5t-179 75.5q-150 0 -238.5 -104t-88.5 -287v-469h-123v690zM324 1190h-74q11 88 62.5 148.5t121.5 60.5q36 0 77.5 -15.5
t73 -34t68.5 -34t64 -15.5q75 0 98 99h74q-13 -99 -58.5 -154t-113.5 -55q-55 0 -153.5 49t-135.5 49q-79 0 -104 -98z" />
    <glyph glyph-name="ograve" unicode="&#xf2;" horiz-adv-x="1216" 
d="M514 1450l213 -295h-102l-275 295h164zM608 971q217 0 357.5 -140.5t140.5 -357.5q0 -214 -139.5 -356t-358.5 -142q-218 0 -357.5 140.5t-139.5 357.5q0 216 139 357t358 141zM233 473q0 -167 104.5 -277t270.5 -110q165 0 270 109.5t105 277.5t-105.5 277.5
t-271.5 109.5q-162 0 -267.5 -109.5t-105.5 -277.5z" />
    <glyph glyph-name="oacute" unicode="&#xf3;" horiz-adv-x="1216" 
d="M866 1450l-274 -295h-103l213 295h164zM608 971q217 0 357.5 -140.5t140.5 -357.5q0 -214 -139.5 -356t-358.5 -142q-218 0 -357.5 140.5t-139.5 357.5q0 216 139 357t358 141zM233 473q0 -167 104.5 -277t270.5 -110q165 0 270 109.5t105 277.5t-105.5 277.5
t-271.5 109.5q-162 0 -267.5 -109.5t-105.5 -277.5z" />
    <glyph glyph-name="ocircumflex" unicode="&#xf4;" horiz-adv-x="1216" 
d="M111 473q0 216 139 357t358 141q217 0 357.5 -140.5t140.5 -357.5q0 -214 -139.5 -356t-358.5 -142q-218 0 -357.5 140.5t-139.5 357.5zM233 473q0 -167 104.5 -277t270.5 -110q165 0 270 109.5t105 277.5t-105.5 277.5t-271.5 109.5q-162 0 -267.5 -109.5t-105.5 -277.5
zM315 1155l222 295h143l221 -295h-133l-166 221l-166 -221h-121z" />
    <glyph glyph-name="otilde" unicode="&#xf5;" horiz-adv-x="1216" 
d="M473 1399q45 0 98.5 -24.5t102 -49.5t82.5 -25q75 0 98 99h74q-13 -99 -58.5 -154t-113.5 -55q-55 0 -153.5 49t-135.5 49q-80 0 -105 -98h-73q11 88 62.5 148.5t121.5 60.5zM608 971q217 0 357.5 -140.5t140.5 -357.5q0 -214 -139.5 -356t-358.5 -142
q-218 0 -357.5 140.5t-139.5 357.5q0 216 139 357t358 141zM233 473q0 -167 104.5 -277t270.5 -110q165 0 270 109.5t105 277.5t-105.5 277.5t-271.5 109.5q-162 0 -267.5 -109.5t-105.5 -277.5z" />
    <glyph glyph-name="odieresis" unicode="&#xf6;" horiz-adv-x="1216" 
d="M414 1434q41 0 69.5 -29t28.5 -70t-28.5 -69.5t-69.5 -28.5t-70 28.5t-29 69.5t29 70t70 29zM803 1434q41 0 69.5 -29t28.5 -70t-28.5 -69.5t-69.5 -28.5t-69.5 28.5t-28.5 69.5t28.5 70t69.5 29zM608 971q217 0 357.5 -140.5t140.5 -357.5q0 -214 -139.5 -356
t-358.5 -142q-218 0 -357.5 140.5t-139.5 357.5q0 216 139 357t358 141zM233 473q0 -167 104.5 -277t270.5 -110q165 0 270 109.5t105 277.5t-105.5 277.5t-271.5 109.5q-162 0 -267.5 -109.5t-105.5 -277.5z" />
    <glyph glyph-name="divide" unicode="&#xf7;" horiz-adv-x="1363" 
d="M682 1040q43 0 73.5 -30.5t30.5 -73.5t-31.5 -74t-72.5 -31t-72.5 31t-31.5 74t30.5 73.5t73.5 30.5zM1204 670v-99h-1044v99h1044zM682 410q41 0 72.5 -31t31.5 -74t-30.5 -73.5t-73.5 -30.5t-73.5 30.5t-30.5 73.5q0 45 32.5 75t71.5 30z" />
    <glyph glyph-name="oslash" unicode="&#xf8;" horiz-adv-x="1216" 
d="M1071 1006l66 -60l-146 -145q115 -127 115 -328q0 -216 -139.5 -357t-358.5 -141q-197 0 -323 111l-140 -141l-65 59l143 146q-112 133 -112 323q0 216 139 357t358 141q187 0 322 -109zM233 473q0 -142 74 -237l539 542q-95 82 -240 82q-164 0 -268.5 -110t-104.5 -277z
M369 170q97 -84 239 -84q165 0 270 109.5t105 277.5q0 147 -76 242z" />
    <glyph glyph-name="ugrave" unicode="&#xf9;" horiz-adv-x="1138" 
d="M154 387v559h122v-553q0 -156 59 -231.5t179 -75.5q151 0 239.5 104t88.5 287v469h123v-690q0 -10 5 -129t5 -127h-123q-6 156 -8 166h-6q-41 -87 -130 -139t-194 -52q-181 0 -270.5 100.5t-89.5 311.5zM311 1450h164l213 -295h-102z" />
    <glyph glyph-name="uacute" unicode="&#xfa;" horiz-adv-x="1138" 
d="M154 387v559h122v-553q0 -156 59 -231.5t179 -75.5q151 0 239.5 104t88.5 287v469h123v-690q0 -10 5 -129t5 -127h-123q-6 156 -8 166h-6q-41 -87 -130 -139t-194 -52q-181 0 -270.5 100.5t-89.5 311.5zM553 1155h-102l213 295h163z" />
    <glyph glyph-name="ucircumflex" unicode="&#xfb;" horiz-adv-x="1138" 
d="M514 -25q-181 0 -270.5 100.5t-89.5 311.5v559h122v-553q0 -156 59 -231.5t179 -75.5q151 0 239.5 104t88.5 287v469h123v-690q0 -10 5 -129t5 -127h-123q-6 156 -8 166h-6q-41 -87 -130 -139t-194 -52zM276 1155l222 295h143l221 -295h-133l-166 221l-166 -221h-121z
" />
    <glyph glyph-name="udieresis" unicode="&#xfc;" horiz-adv-x="1138" 
d="M154 387v559h122v-553q0 -156 59 -231.5t179 -75.5q151 0 239.5 104t88.5 287v469h123v-690q0 -10 5 -129t5 -127h-123q-6 156 -8 166h-6q-41 -87 -130 -139t-194 -52q-181 0 -270.5 100.5t-89.5 311.5zM764 1237q-41 0 -69.5 28.5t-28.5 69.5t28.5 70t69.5 29t69.5 -29
t28.5 -70t-28.5 -69.5t-69.5 -28.5zM276 1335q0 41 29 70t70 29t69.5 -29t28.5 -70t-28.5 -69.5t-69.5 -28.5t-70 28.5t-29 69.5z" />
    <glyph glyph-name="yacute" unicode="&#xfd;" horiz-adv-x="948" 
d="M416 -4l-385 950h137l313 -796l305 796h132l-486 -1235q-39 -101 -102.5 -152t-159.5 -51q-53 0 -121 19l12 115q76 -23 111 -23q49 0 86 34.5t70 117.5zM463 1155h-103l213 295h164z" />
    <glyph glyph-name="thorn" unicode="&#xfe;" horiz-adv-x="1251" 
d="M260 -467h-123v2015h123v-768h4q50 88 155.5 139.5t223.5 51.5q216 0 357 -140t141 -358q0 -215 -139 -356.5t-359 -141.5q-120 0 -224 51t-155 140h-4v-633zM248 473q0 -162 115 -274.5t280 -112.5q167 0 271 110t104 277q0 170 -105.5 278.5t-271.5 108.5
q-163 0 -278 -113t-115 -274z" />
    <glyph glyph-name="ydieresis" unicode="&#xff;" horiz-adv-x="948" 
d="M31 946h137l313 -796l305 796h132l-486 -1235q-39 -101 -102.5 -152t-159.5 -51q-53 0 -121 19l12 115q76 -23 111 -23q49 0 86 34.5t70 117.5l88 225zM670 1237q-41 0 -70 28.5t-29 69.5t29 70t70 29t69.5 -29t28.5 -70t-28.5 -69.5t-69.5 -28.5zM182 1335q0 41 29 70
t70 29t69.5 -29t28.5 -70t-28.5 -69.5t-69.5 -28.5t-70 28.5t-29 69.5z" />
    <glyph glyph-name="dotlessi" unicode="&#x131;" horiz-adv-x="491" 
d="M184 946h123v-946h-123v946z" />
    <glyph glyph-name="Lslash" unicode="&#x141;" horiz-adv-x="1024" 
d="M51 475l148 129v846h135v-733l442 387v-127l-442 -387v-467h676v-123h-811v473l-148 -131v133z" />
    <glyph glyph-name="lslash" unicode="&#x142;" horiz-adv-x="491" 
d="M184 664l-172 -175v138l172 174v747h123v-624l172 176v-137l-172 -175v-788h-123v664z" />
    <glyph glyph-name="OE" unicode="&#x152;" horiz-adv-x="1933" 
d="M121 725q0 168 63 306.5t171.5 229t251 140t302.5 49.5h887v-123h-606v-516h571v-123h-571v-565h622v-123h-964q-205 0 -371 93.5t-261 259.5t-95 372zM256 725q0 -141 52.5 -257t142 -190.5t205 -114.5t243.5 -40h156v1204h-158q-127 0 -242.5 -41t-204.5 -116.5
t-141.5 -190.5t-52.5 -254z" />
    <glyph glyph-name="oe" unicode="&#x153;" horiz-adv-x="1857" 
d="M561 971q281 0 408 -236q49 113 146 174.5t224 61.5q194 0 311 -118.5t117 -340.5v-70h-729v-18q0 -154 90.5 -246t237.5 -92q175 0 272 152l97 -70q-79 -103 -167.5 -148t-219.5 -45q-137 0 -234 60t-141 174h-4q-59 -115 -166 -174.5t-242 -59.5q-138 0 -246.5 67.5
t-166.5 180.5t-58 250t58 250t166.5 180.5t246.5 67.5zM213 473q0 -163 100 -275t252 -112q155 0 252.5 109t97.5 278t-98.5 278t-253.5 109q-150 0 -250 -111.5t-100 -275.5zM1645 553q-3 147 -82.5 227t-221.5 80q-128 0 -215 -84.5t-88 -222.5h607z" />
    <glyph glyph-name="Scaron" unicode="&#x160;" horiz-adv-x="1138" 
d="M109 182l129 86q109 -182 331 -182q142 0 234 80t92 205q0 115 -76 177q-60 48 -227 105q-20 7 -123 41q-165 55 -243.5 149.5t-78.5 246.5q0 178 131.5 287.5t333.5 109.5q254 0 396 -182l-117 -84q-104 143 -283 143q-144 0 -234.5 -74.5t-90.5 -199.5
q0 -111 68.5 -179.5t234.5 -117.5q98 -29 146 -46t116.5 -52t100.5 -74t56.5 -102.5t24.5 -147.5q0 -177 -127 -292.5t-323 -115.5q-314 0 -471 219zM494 1540l-224 295h127l170 -233l176 233h111l-217 -295h-143z" />
    <glyph glyph-name="scaron" unicode="&#x161;" horiz-adv-x="872" 
d="M436 -25q-129 0 -227 49.5t-152 143.5l109 74q35 -70 110.5 -113t163.5 -43t152.5 49t64.5 125q0 26 -8.5 47.5t-19.5 36.5t-34.5 28.5t-40.5 21.5t-52 17.5t-53.5 14t-59.5 12.5q-89 19 -148.5 45t-90 60.5t-42.5 70.5t-12 84q0 123 93.5 198t232.5 75q241 0 332 -178
l-111 -66q-71 133 -221 133q-78 0 -140.5 -42.5t-62.5 -108.5q0 -39 17.5 -67.5t53 -46.5t70.5 -28t89 -20q180 -33 255.5 -94t75.5 -185q0 -133 -95.5 -213t-248.5 -80zM137 1450h127l170 -233l176 233h111l-217 -295h-144z" />
    <glyph glyph-name="Ydieresis" unicode="&#x178;" horiz-adv-x="1175" 
d="M520 625l-532 825h162l438 -688l448 688h152l-533 -825v-625h-135v625zM295 1720q0 41 28.5 70t69.5 29t70 -29t29 -70q0 -42 -28.5 -70t-70.5 -28q-43 0 -70.5 27.5t-27.5 70.5zM782 1622q-43 0 -70.5 27.5t-27.5 70.5q0 41 28.5 70t69.5 29t70 -29t29 -70t-29 -69.5
t-70 -28.5z" />
    <glyph glyph-name="Zcaron" unicode="&#x17d;" horiz-adv-x="1138" 
d="M1092 0h-1045v106l848 1221h-836v123h1010v-111l-854 -1216h877v-123zM494 1540l-224 295h127l170 -233l176 233h111l-217 -295h-143z" />
    <glyph glyph-name="zcaron" unicode="&#x17e;" horiz-adv-x="872" 
d="M817 0h-762v74l568 762h-539v110h709v-74l-566 -761h590v-111zM360 1155l-223 295h127l170 -233l176 233h111l-217 -295h-144z" />
    <glyph glyph-name="florin" unicode="&#x192;" horiz-adv-x="1064" 
d="M129 -295q-102 0 -162 49l62 96q42 -34 108 -34q75 0 116 52.5t64 182.5l129 709h-221v98h240l59 318q27 148 102.5 223.5t190.5 75.5q93 0 184 -62l-65 -92q-64 43 -119 43q-70 0 -111.5 -47.5t-60.5 -145.5l-57 -313h221v-98h-240l-147 -799q-48 -256 -293 -256z" />
    <glyph glyph-name="circumflex" unicode="&#x2c6;" horiz-adv-x="491" 
d="M74 1155h-121l221 295h143l222 -295h-133l-166 221z" />
    <glyph glyph-name="caron" unicode="&#x2c7;" horiz-adv-x="491" 
d="M170 1155l-223 295h127l170 -233l176 233h110l-217 -295h-143z" />
    <glyph glyph-name="uni02C9" unicode="&#x2c9;" horiz-adv-x="491" 
d="M516 1339v-98h-541v98h541z" />
    <glyph glyph-name="breve" unicode="&#x2d8;" horiz-adv-x="491" 
d="M-49 1450h86q11 -75 65.5 -117.5t141.5 -42.5q97 0 144.5 36.5t66.5 123.5h86q-13 -122 -93 -190t-206 -68q-127 0 -206 68.5t-85 189.5z" />
    <glyph glyph-name="dotaccent" unicode="&#x2d9;" horiz-adv-x="491" 
d="M252 1434q41 0 69.5 -29t28.5 -70q0 -43 -27.5 -70.5t-70.5 -27.5q-42 0 -70 28t-28 70q0 41 28.5 70t69.5 29z" />
    <glyph glyph-name="ring" unicode="&#x2da;" horiz-adv-x="491" 
d="M248 1524q75 0 131.5 -59t56.5 -138q0 -78 -56 -135t-132 -57q-78 0 -135.5 57.5t-57.5 136.5t57.5 137t135.5 58zM129 1327q0 -50 33.5 -84.5t83.5 -34.5q49 0 82.5 35t33.5 86q0 53 -33 87t-83 34q-49 0 -83 -36t-34 -87z" />
    <glyph glyph-name="ogonek" unicode="&#x2db;" horiz-adv-x="491" 
d="M293 0q-63 -45 -106.5 -115.5t-43.5 -132.5q0 -96 88 -96q70 0 113 47l39 -78q-77 -67 -174 -67q-86 0 -137.5 46.5t-51.5 121.5q0 129 181 274h92z" />
    <glyph glyph-name="tilde" unicode="&#x2dc;" horiz-adv-x="491" 
d="M111 1399q45 0 98 -24.5t102 -49.5t82 -25q76 0 99 99h73q-13 -99 -58.5 -154t-113.5 -55q-55 0 -153.5 49t-135.5 49q-79 0 -104 -98h-74q11 88 62.5 148.5t122.5 60.5z" />
    <glyph glyph-name="hungarumlaut" unicode="&#x2dd;" horiz-adv-x="491" 
d="M379 1155h-103l213 295h164zM80 1155h-103l213 295h164z" />
    <glyph glyph-name="uni0394" unicode="&#x394;" horiz-adv-x="1372" 
d="M758 1458l588 -1458h-1315l575 1458h152zM217 127h932l-469 1194z" />
    <glyph glyph-name="uni0394" unicode="&#x3b4;" horiz-adv-x="1372" 
d="M758 1458l588 -1458h-1315l575 1458h152zM217 127h932l-469 1194z" />
    <glyph glyph-name="uni03A9" unicode="&#x3a9;" horiz-adv-x="1523" 
d="M96 119h404v168q-186 53 -295 209.5t-109 355.5q0 175 88 319t238.5 225t329.5 81q134 0 254 -48t207.5 -131t138.5 -198.5t51 -245.5q0 -134 -46 -249t-138.5 -199.5t-219.5 -118.5v-168h404v-119h-514v371q179 32 278 159t99 320q0 216 -148 359t-368 143
q-142 0 -260.5 -65t-187.5 -180.5t-69 -256.5q0 -190 100.5 -320t276.5 -159v-371h-514v119z" />
    <glyph glyph-name="uni03A9" unicode="&#x3c9;" horiz-adv-x="1523" 
d="M96 119h404v168q-186 53 -295 209.5t-109 355.5q0 175 88 319t238.5 225t329.5 81q134 0 254 -48t207.5 -131t138.5 -198.5t51 -245.5q0 -134 -46 -249t-138.5 -199.5t-219.5 -118.5v-168h404v-119h-514v371q179 32 278 159t99 320q0 216 -148 359t-368 143
q-142 0 -260.5 -65t-187.5 -180.5t-69 -256.5q0 -190 100.5 -320t276.5 -159v-371h-514v119z" />
    <glyph glyph-name="uni03BC" unicode="&#x3bc;" horiz-adv-x="1138" 
d="M154 946h122v-565q0 -144 59.5 -219.5t178.5 -75.5q151 0 239.5 105t88.5 274v481h123v-690q0 -10 5 -129t5 -127h-123q-3 131 -8 166h-6q-45 -90 -132 -140.5t-194 -50.5q-150 0 -238 78v-520h-120v1413z" />
    <glyph glyph-name="pi" unicode="&#x3c0;" horiz-adv-x="1153" 
d="M221 850h-143v96h987v-96h-156v-657q0 -65 21 -90t69 -25q30 0 74 14v-74q-72 -30 -119 -30q-82 0 -116.5 44.5t-34.5 170.5v647h-475v-850h-107v850z" />
    <glyph glyph-name="uni060C" unicode="&#x60c;" horiz-adv-x="532" 
d="M137 0l158 467h121l-135 -467h-144z" />
    <glyph glyph-name="uni0615" unicode="&#x615;" 
d="M-262 1133v67h104v344h68v-219q79 102 184 102q77 0 122.5 -52t45.5 -136q0 -51 -18 -106h-506zM90 1360q-55 0 -104 -42t-78 -118h285q4 28 4 39q0 56 -29 88.5t-78 32.5z" />
    <glyph glyph-name="uni061B" unicode="&#x61b;" horiz-adv-x="532" 
d="M143 381l158 467h121l-135 -467h-144zM217 -12q-41 0 -69.5 28.5t-28.5 69.5t28.5 69.5t69.5 28.5t69.5 -28.5t28.5 -69.5t-28.5 -69.5t-69.5 -28.5z" />
    <glyph glyph-name="uni061F" unicode="&#x61f;" horiz-adv-x="948" 
d="M428 381v131q0 48 -12.5 89.5t-38.5 78t-51 62.5t-64 61q-79 69 -122.5 146.5t-43.5 185.5q0 163 105.5 257.5t271.5 94.5q156 0 263 -87.5t136 -244.5l-133 -16q-24 109 -93 173t-175 64q-111 0 -175.5 -68t-64.5 -180q0 -84 42.5 -151t117.5 -135q76 -68 118 -135
t42 -154v-172h-123zM487 -12q-41 0 -69.5 28.5t-28.5 69.5t28.5 69.5t69.5 28.5t70 -28.5t29 -69.5t-29 -69.5t-70 -28.5z" />
    <glyph glyph-name="uni0621" unicode="&#x621;" horiz-adv-x="966" 
d="M115 109h202q-98 112 -98 268q0 157 113 262.5t286 105.5q105 0 203 -32l-24 -107q-90 25 -162 25q-136 0 -218.5 -71t-82.5 -193q0 -130 115 -258h415v-109h-749v109z" />
    <glyph glyph-name="uni0622" unicode="&#x622;" horiz-adv-x="454" 
d="M350 1679q-55 0 -156.5 28t-132.5 28q-47 0 -100 -39l-45 53q76 68 150 68q37 0 136.5 -28t141.5 -28q34 0 57 11t58 43l51 -50q-59 -86 -160 -86zM166 0v1548h123v-1548h-123z" />
    <glyph glyph-name="uni0623" unicode="&#x623;" horiz-adv-x="454" 
d="M166 1548h123v-1548h-123v1548zM68 1661v65h79q-32 56 -32 109q0 70 47 112t121 42q35 0 94 -13l-12 -65q-33 10 -72 10q-48 0 -78.5 -25t-30.5 -71q0 -45 33 -99h178v-65h-327z" />
    <glyph glyph-name="uni0624" unicode="&#x624;" horiz-adv-x="1009" 
d="M524 0q-190 0 -300.5 106.5t-110.5 294.5q0 189 109.5 316t291.5 127q178 0 274.5 -107.5t96.5 -283.5v-361q0 -101 -30.5 -180t-95.5 -140t-175.5 -93.5t-261.5 -32.5q-45 0 -82 2l-7 112q29 -2 82 -2q434 0 443 285q-104 -43 -234 -43zM508 725q-119 0 -194.5 -83.5
t-75.5 -227.5t80.5 -218.5t222.5 -74.5q123 0 221 37v254q0 154 -66.5 233.5t-187.5 79.5zM287 1104v82h102q-43 67 -43 143q0 88 58.5 139.5t152.5 51.5q54 0 127 -15l-16 -80q-74 11 -95 11q-59 0 -100 -29.5t-41 -89.5q0 -63 45 -131h232v-82h-422z" />
    <glyph glyph-name="uni0625" unicode="&#x625;" horiz-adv-x="454" 
d="M166 1548h123v-1548h-123v1548zM63 -512v66h78q-30 50 -30 106q0 70 46 113t119 43q43 0 97 -15l-13 -63q-33 10 -71 10q-48 0 -78.5 -25t-30.5 -71q0 -51 33 -98h178v-66h-328z" />
    <glyph glyph-name="uni0626" unicode="&#x626;" horiz-adv-x="1544" 
d="M756 -336q-320 0 -491 105t-171 319q0 118 47 264l115 -30q-37 -136 -37 -220q0 -166 134.5 -241.5t402.5 -75.5q248 0 387 59t139 158q0 40 -28 75.5t-73 63t-99.5 55t-109 59.5t-99.5 69t-73 90t-28 116q0 135 106 224.5t289 89.5q87 0 219 -31l-22 -117
q-114 29 -201 29q-123 0 -193.5 -52t-70.5 -136q0 -48 28 -88t73 -68.5t99 -55.5t108 -56t99 -62.5t73 -82.5t28 -108q0 -160 -177.5 -256t-473.5 -96zM143 631h103q-43 67 -43 143q0 88 58.5 139.5t152.5 51.5q54 0 127 -15l-17 -80q-74 11 -94 11q-59 0 -100 -29.5
t-41 -89.5q0 -63 45 -131h231v-82h-422v82z" />
    <glyph glyph-name="uni0627" unicode="&#x627;" horiz-adv-x="454" 
d="M166 0v1548h123v-1548h-123z" />
    <glyph glyph-name="uni0628" unicode="&#x628;" horiz-adv-x="1890" 
d="M1642 821h123v-467q0 -161 -102.5 -257.5t-290.5 -96.5h-807q-224 0 -347.5 102.5t-123.5 282.5q0 141 66 320l114 -31q-55 -178 -55 -268q0 -289 363 -289h776q145 0 214.5 68t69.5 218v418zM901 -184q37 0 59.5 -23.5t22.5 -60.5t-22.5 -60.5t-59.5 -23.5
q-38 0 -62 23.5t-24 60.5t24 60.5t62 23.5z" />
    <glyph glyph-name="uni0629" unicode="&#x629;" horiz-adv-x="1034" 
d="M356 1085q-36 0 -60 24t-24 60t24 60t60 24q37 0 60.5 -23.5t23.5 -60.5t-23.5 -60.5t-60.5 -23.5zM629 1085q-37 0 -61.5 23.5t-24.5 60.5t24.5 60.5t61.5 23.5q35 0 58.5 -23.5t23.5 -60.5t-23.5 -60.5t-58.5 -23.5zM496 -10q-199 0 -306.5 113t-107.5 292
q0 122 46 221.5t142 162.5t226 63q98 0 178 -36.5t130.5 -98.5t77.5 -142t27 -170q0 -183 -110.5 -294t-302.5 -111zM500 111q134 0 209 72t75 216q0 145 -74 234.5t-214 89.5q-141 0 -215 -89.5t-74 -234.5t77.5 -216.5t215.5 -71.5z" />
    <glyph glyph-name="uni062A" unicode="&#x62a;" horiz-adv-x="1890" 
d="M782 885q-36 0 -60 24t-24 60t24 60t60 24q37 0 60.5 -23.5t23.5 -60.5t-23.5 -60.5t-60.5 -23.5zM1055 885q-37 0 -61.5 23.5t-24.5 60.5t24.5 60.5t61.5 23.5q35 0 58.5 -23.5t23.5 -60.5t-23.5 -60.5t-58.5 -23.5zM1642 821h123v-467q0 -161 -102.5 -257.5
t-290.5 -96.5h-807q-224 0 -347.5 102.5t-123.5 282.5q0 141 66 320l114 -31q-55 -178 -55 -268q0 -289 363 -289h776q145 0 214.5 68t69.5 218v418z" />
    <glyph glyph-name="uni062B" unicode="&#x62b;" horiz-adv-x="1890" 
d="M924 1094q-37 0 -60.5 24.5t-23.5 61.5q0 34 24 59t60 25q35 0 58.5 -25t23.5 -59q0 -37 -23.5 -61.5t-58.5 -24.5zM782 891q-36 0 -60 24t-24 60q0 35 24.5 59.5t59.5 24.5q36 0 60 -24t24 -60q0 -37 -23.5 -60.5t-60.5 -23.5zM969 975q0 35 24.5 59.5t61.5 24.5
q35 0 58.5 -24.5t23.5 -59.5q0 -37 -23.5 -60.5t-58.5 -23.5q-37 0 -61.5 23.5t-24.5 60.5zM1642 821h123v-467q0 -161 -102.5 -257.5t-290.5 -96.5h-807q-224 0 -347.5 102.5t-123.5 282.5q0 141 66 320l114 -31q-55 -178 -55 -268q0 -289 363 -289h776q145 0 214.5 68
t69.5 218v418z" />
    <glyph glyph-name="uni062C" unicode="&#x62c;" horiz-adv-x="1249" 
d="M600 842q252 0 383 -144t131 -393q0 -143 -43 -305h-633q-109 0 -170 -52t-61 -149q0 -103 71.5 -157t202.5 -54q56 0 129 15l25 -117q-70 -18 -168 -18q-172 0 -278.5 87.5t-106.5 241.5q0 147 93.5 233.5t250.5 86.5h545q24 91 24 180q0 195 -106 310.5t-307 115.5
q-103 0 -234 -41l-31 111q132 49 283 49zM584 -117q34 0 54.5 -21.5t20.5 -56.5q0 -34 -20.5 -55.5t-54.5 -21.5q-35 0 -57.5 21.5t-22.5 55.5q0 35 22.5 56.5t57.5 21.5z" />
    <glyph glyph-name="uni062D" unicode="&#x62d;" horiz-adv-x="1249" 
d="M438 0q-109 0 -170 -52t-61 -149q0 -103 71.5 -157t202.5 -54q80 0 191 29l22 -113q-113 -36 -227 -36q-172 0 -278.5 87.5t-106.5 241.5q0 147 93.5 233.5t250.5 86.5h545q24 91 24 180q0 195 -106 310.5t-307 115.5q-103 0 -234 -41l-31 111q132 49 283 49
q252 0 383 -144t131 -393q0 -143 -43 -305h-633z" />
    <glyph glyph-name="uni062E" unicode="&#x62e;" horiz-adv-x="1249" 
d="M600 1085q-38 0 -62 23.5t-24 60.5t24 60.5t62 23.5q37 0 59.5 -23.5t22.5 -60.5t-22.5 -60.5t-59.5 -23.5zM438 0q-109 0 -170 -52t-61 -149q0 -103 71.5 -157t202.5 -54q80 0 191 29l22 -113q-113 -36 -227 -36q-172 0 -278.5 87.5t-106.5 241.5q0 147 93.5 233.5
t250.5 86.5h545q24 91 24 180q0 195 -106 310.5t-307 115.5q-103 0 -234 -41l-31 111q132 49 283 49q252 0 383 -144t131 -393q0 -143 -43 -305h-633z" />
    <glyph glyph-name="uni062F" unicode="&#x62f;" horiz-adv-x="1040" 
d="M82 0v117h700v45q0 177 -105 329.5t-317 290.5l74 99q135 -88 227 -176.5t145.5 -182t76 -188.5t22.5 -209v-125h-823z" />
    <glyph glyph-name="uni0630" unicode="&#x630;" horiz-adv-x="1040" 
d="M393 1077q-38 0 -62 23.5t-24 60.5t24 60.5t62 23.5q37 0 59.5 -23.5t22.5 -60.5t-22.5 -60.5t-59.5 -23.5zM82 0v117h700v45q0 177 -105 329.5t-317 290.5l74 99q135 -88 227 -176.5t145.5 -182t76 -188.5t22.5 -209v-125h-823z" />
    <glyph glyph-name="uni0631" unicode="&#x631;" horiz-adv-x="585" 
d="M16 -352l-24 114q161 27 233 113t72 266v680h123v-655q0 -232 -98 -361.5t-306 -156.5z" />
    <glyph glyph-name="uni0632" unicode="&#x632;" horiz-adv-x="585" 
d="M360 1065q-38 0 -62 23.5t-24 60.5t24 60.5t62 23.5q37 0 59.5 -23.5t22.5 -60.5t-22.5 -60.5t-59.5 -23.5zM16 -352l-24 114q161 27 233 113t72 266v680h123v-655q0 -232 -98 -361.5t-306 -156.5z" />
    <glyph glyph-name="uni0633" unicode="&#x633;" horiz-adv-x="2441" 
d="M625 -336q-253 0 -392 127.5t-139 335.5q0 160 84 362l109 -38q-68 -172 -68 -310q0 -177 108 -266.5t302 -89.5q413 0 413 399v488h123v-350q0 -108 60 -156.5t159 -48.5q113 0 171.5 62.5t58.5 211.5v281h123v-340q0 -215 229 -215q120 0 173.5 67.5t53.5 218.5v418
h123v-467q0 -169 -91 -261.5t-257 -92.5q-103 0 -177 39.5t-110 112.5q-81 -156 -297 -156q-152 0 -221 94q-20 -208 -163 -317t-375 -109z" />
    <glyph glyph-name="uni0634" unicode="&#x634;" horiz-adv-x="2441" 
d="M625 -336q-253 0 -392 127.5t-139 335.5q0 160 84 362l109 -38q-68 -172 -68 -310q0 -177 108 -266.5t302 -89.5q413 0 413 399v488h123v-350q0 -108 60 -156.5t159 -48.5q113 0 171.5 62.5t58.5 211.5v281h123v-340q0 -215 229 -215q120 0 173.5 67.5t53.5 218.5v418
h123v-467q0 -169 -91 -261.5t-257 -92.5q-103 0 -177 39.5t-110 112.5q-81 -156 -297 -156q-152 0 -221 94q-20 -208 -163 -317t-375 -109zM1538 922q-36 0 -60 24t-24 60q0 35 24.5 59.5t59.5 24.5q36 0 60 -24t24 -60q0 -37 -23.5 -60.5t-60.5 -23.5zM1810 922
q-37 0 -61.5 23.5t-24.5 60.5q0 35 24.5 59.5t61.5 24.5q35 0 58.5 -24.5t23.5 -59.5q0 -37 -23.5 -60.5t-58.5 -23.5zM1595 1210q0 34 24 59t60 25q35 0 58.5 -25t23.5 -59q0 -37 -23.5 -61.5t-58.5 -24.5q-37 0 -60.5 24.5t-23.5 61.5z" />
    <glyph glyph-name="uni0635" unicode="&#x635;" horiz-adv-x="2719" 
d="M2148 842q141 0 241 -64t148 -174t48 -256q0 -165 -64 -348h-1130q-152 0 -230 72q-26 -199 -167.5 -303.5t-368.5 -104.5q-253 0 -392 127.5t-139 335.5q0 160 84 362l109 -38q-68 -172 -68 -310q0 -177 108 -266.5t302 -89.5q413 0 413 399v488h123v-379
q0 -131 131 -166q90 168 187 296.5t183 206.5t175.5 127t162 67t144.5 18zM2423 117q37 118 37 225q0 170 -85 275.5t-239 105.5q-175 0 -357.5 -148.5t-353.5 -457.5h998z" />
    <glyph glyph-name="uni0636" unicode="&#x636;" horiz-adv-x="2719" 
d="M1968 1085q-38 0 -62 23.5t-24 60.5t24 60.5t62 23.5q37 0 59.5 -23.5t22.5 -60.5t-22.5 -60.5t-59.5 -23.5zM2148 842q141 0 241 -64t148 -174t48 -256q0 -165 -64 -348h-1130q-152 0 -230 72q-26 -199 -167.5 -303.5t-368.5 -104.5q-253 0 -392 127.5t-139 335.5
q0 160 84 362l109 -38q-68 -172 -68 -310q0 -177 108 -266.5t302 -89.5q413 0 413 399v488h123v-379q0 -131 131 -166q90 168 187 296.5t183 206.5t175.5 127t162 67t144.5 18zM2423 117q37 118 37 225q0 170 -85 275.5t-239 105.5q-175 0 -357.5 -148.5t-353.5 -457.5h998z
" />
    <glyph glyph-name="uni0637" unicode="&#x637;" horiz-adv-x="1742" 
d="M94 0v117h232v1431h123v-1220q156 254 346.5 384t378.5 130q210 0 322 -137.5t112 -356.5q0 -168 -62 -348h-1452zM451 117h997q37 118 37 231q0 169 -84 272t-238 103q-179 0 -373 -158t-339 -448z" />
    <glyph glyph-name="uni0638" unicode="&#x638;" horiz-adv-x="1742" 
d="M94 0v117h232v1431h123v-1220q156 254 346.5 384t378.5 130q210 0 322 -137.5t112 -356.5q0 -168 -62 -348h-1452zM451 117h997q37 118 37 231q0 169 -84 272t-238 103q-179 0 -373 -158t-339 -448zM944 1169q0 37 24 60.5t62 23.5q37 0 59.5 -23.5t22.5 -60.5
t-22.5 -60.5t-59.5 -23.5q-38 0 -62 23.5t-24 60.5z" />
    <glyph glyph-name="uni0639" unicode="&#x639;" horiz-adv-x="1044" 
d="M461 0q-120 0 -187 -52.5t-67 -146.5q0 -107 75.5 -160t206.5 -53q91 0 183 25l22 -113q-100 -32 -209 -32q-189 0 -296 86.5t-107 244.5q0 127 80.5 210t214.5 104q-127 157 -127 333t121.5 286t335.5 110q103 0 221 -31l-25 -117q-118 29 -198 29q-151 0 -238.5 -77.5
t-87.5 -207.5q0 -92 41.5 -175.5t99.5 -145.5h455v-117h-514z" />
    <glyph glyph-name="uni063A" unicode="&#x63a;" horiz-adv-x="1044" 
d="M707 1085q-38 0 -62 23.5t-24 60.5t24 60.5t62 23.5q36 0 58.5 -23.5t22.5 -60.5t-22.5 -60.5t-58.5 -23.5zM461 0q-120 0 -187 -52.5t-67 -146.5q0 -107 75.5 -160t206.5 -53q91 0 183 25l22 -113q-100 -32 -209 -32q-189 0 -296 86.5t-107 244.5q0 127 80.5 210
t214.5 104q-127 157 -127 333t121.5 286t335.5 110q103 0 221 -31l-25 -117q-118 29 -198 29q-151 0 -238.5 -77.5t-87.5 -207.5q0 -92 41.5 -175.5t99.5 -145.5h455v-117h-514z" />
    <glyph glyph-name="uni0640" unicode="&#x640;" horiz-adv-x="106" 
d="M0 0v117h106q41 0 41 -58q0 -59 -41 -59h-106z" />
    <glyph glyph-name="uni0641" unicode="&#x641;" horiz-adv-x="2117" 
d="M565 0q-224 0 -347.5 102.5t-123.5 282.5q0 141 66 320l114 -31q-55 -178 -55 -268q0 -289 363 -289h712q-114 120 -114 299q0 187 119.5 306.5t310.5 119.5q96 0 170.5 -34t120.5 -94.5t69 -139t23 -171.5q0 -174 -90 -403h-1338zM1307 414q0 -161 129 -297h381
q49 158 49 280q0 151 -69 238.5t-198 87.5q-134 0 -213 -85.5t-79 -223.5zM1524 1169q0 37 24 60.5t62 23.5q37 0 59.5 -23.5t22.5 -60.5t-22.5 -60.5t-59.5 -23.5q-38 0 -62 23.5t-24 60.5z" />
    <glyph glyph-name="uni0642" unicode="&#x642;" horiz-adv-x="1574" 
d="M942 1085q-36 0 -60 24t-24 60t24 60t60 24q37 0 60.5 -23.5t23.5 -60.5t-23.5 -60.5t-60.5 -23.5zM1214 1085q-37 0 -61.5 23.5t-24.5 60.5t24.5 60.5t61.5 23.5q35 0 58.5 -23.5t23.5 -60.5t-23.5 -60.5t-58.5 -23.5zM791 -336q-345 0 -521 120t-176 355q0 124 47 267
l115 -31q-37 -112 -37 -219q0 -187 139 -279t433 -92q519 0 534 258q-107 -43 -235 -43q-190 0 -301 106.5t-111 294.5q0 189 109.5 315t293.5 126q177 0 273 -113.5t96 -300.5v-313q0 -229 -160 -340t-499 -111zM1106 121q128 0 221 37v239q0 154 -62.5 240t-189.5 86
q-120 0 -195 -82t-75 -227t80 -219t221 -74z" />
    <glyph glyph-name="uni0643" unicode="&#x643;" horiz-adv-x="1691" 
d="M565 0q-224 0 -347.5 102.5t-123.5 282.5q0 141 66 320l114 -31q-55 -178 -55 -268q0 -289 363 -289h567q143 0 198.5 65t55.5 221v1145h123v-1194q0 -354 -377 -354h-584zM1034 651h-399v80h113q-39 56 -39 125q0 80 56 134t148 54q46 0 99 -16l-17 -78q-47 15 -80 15
q-56 0 -90 -30t-34 -85q0 -67 49 -119h194v-80z" />
    <glyph glyph-name="uni0644" unicode="&#x644;" horiz-adv-x="1331" 
d="M618 -336q-242 0 -383 124.5t-141 338.5q0 160 84 362l109 -38q-68 -195 -68 -312q0 -176 105.5 -265t302.5 -89q206 0 310.5 102t104.5 303v1358h123v-1388q0 -232 -147 -364t-400 -132z" />
    <glyph glyph-name="uni0645" unicode="&#x645;" horiz-adv-x="1296" 
d="M82 -532v329q0 153 81.5 236.5t231.5 83.5h62q-95 151 -95 299q0 189 118 307.5t302 118.5q182 0 285.5 -119.5t103.5 -306.5q0 -88 -26.5 -162t-79.5 -131.5t-141.5 -90t-204.5 -32.5h-322q-93 0 -143.5 -51.5t-50.5 -151.5v-329h-121zM770 723q-125 0 -204 -82.5
t-79 -222.5q0 -84 29 -154.5t80 -146.5h133q159 0 238.5 83t79.5 218q0 138 -75.5 221.5t-201.5 83.5z" />
    <glyph glyph-name="uni0646" unicode="&#x646;" horiz-adv-x="1331" 
d="M649 844q-38 0 -62 23.5t-24 60.5t24 60.5t62 23.5q37 0 59.5 -23.5t22.5 -60.5t-22.5 -60.5t-59.5 -23.5zM625 -336q-253 0 -392 127.5t-139 335.5q0 160 84 362l109 -38q-68 -172 -68 -310q0 -177 108 -266.5t302 -89.5q413 0 413 399v488h123v-518q0 -238 -145 -364
t-395 -126z" />
    <glyph glyph-name="uni0647" unicode="&#x647;" horiz-adv-x="1034" 
d="M496 -10q-199 0 -306.5 113t-107.5 292q0 122 46 221.5t142 162.5t226 63q98 0 178 -36.5t130.5 -98.5t77.5 -142t27 -170q0 -183 -110.5 -294t-302.5 -111zM500 111q134 0 209 72t75 216q0 145 -74 234.5t-214 89.5q-141 0 -215 -89.5t-74 -234.5t77.5 -216.5
t215.5 -71.5z" />
    <glyph glyph-name="uni0648" unicode="&#x648;" horiz-adv-x="1009" 
d="M240 -352l-7 112q29 -2 82 -2q434 0 443 285q-104 -43 -234 -43q-190 0 -300.5 106.5t-110.5 294.5q0 189 109.5 316t291.5 127q178 0 274.5 -107.5t96.5 -283.5v-361q0 -101 -30.5 -180t-95.5 -140t-175.5 -93.5t-261.5 -32.5q-45 0 -82 2zM541 121q123 0 221 37v254
q0 154 -66.5 233.5t-187.5 79.5q-119 0 -194.5 -83.5t-75.5 -227.5t80.5 -218.5t222.5 -74.5z" />
    <glyph glyph-name="uni0649" unicode="&#x649;" horiz-adv-x="1544" 
d="M756 -336q-320 0 -491 105t-171 319q0 118 47 264l115 -30q-37 -136 -37 -220q0 -166 134.5 -241.5t402.5 -75.5q248 0 387 59t139 158q0 40 -28 75.5t-73 63t-99.5 55t-109 59.5t-99.5 69t-73 90t-28 116q0 135 106 224.5t289 89.5q87 0 219 -31l-22 -117
q-114 29 -201 29q-123 0 -193.5 -52t-70.5 -136q0 -48 28 -88t73 -68.5t99 -55.5t108 -56t99 -62.5t73 -82.5t28 -108q0 -160 -177.5 -256t-473.5 -96z" />
    <glyph glyph-name="uni064A" unicode="&#x64a;" horiz-adv-x="1544" 
d="M756 -336q-320 0 -491 105t-171 319q0 118 47 264l115 -30q-37 -136 -37 -220q0 -166 134.5 -241.5t402.5 -75.5q248 0 387 59t139 158q0 40 -28 75.5t-73 63t-99.5 55t-109 59.5t-99.5 69t-73 90t-28 116q0 135 106 224.5t289 89.5q87 0 219 -31l-22 -117
q-114 29 -201 29q-123 0 -193.5 -52t-70.5 -136q0 -48 28 -88t73 -68.5t99 -55.5t108 -56t99 -62.5t73 -82.5t28 -108q0 -160 -177.5 -256t-473.5 -96zM610 -688q-36 0 -60 24t-24 60t24 60t60 24q37 0 60.5 -23.5t23.5 -60.5t-23.5 -60.5t-60.5 -23.5zM883 -688
q-37 0 -61.5 23.5t-24.5 60.5t24.5 60.5t61.5 23.5q35 0 58.5 -23.5t23.5 -60.5t-23.5 -60.5t-58.5 -23.5z" />
    <glyph glyph-name="uni064B" unicode="&#x64b;" 
d="M-231 1300l-7 3l11 65l458 70l7 -2l-11 -66zM-231 1114l-7 2l11 66l458 69l7 -2l-11 -65z" />
    <glyph glyph-name="uni064C" unicode="&#x64c;" 
d="M152 1565q55 0 89.5 -50.5t34.5 -130.5q0 -112 -63 -185t-145 -73q-32 0 -60.5 15t-48.5 37t-37 44t-34 37t-33 15q-36 0 -88 -70l-43 39q65 94 135 94q25 0 48.5 -15t42.5 -36.5t37 -42.5t40 -36t45 -15q42 0 75.5 28.5t51.5 75.5q-24 -4 -41 -4q-61 0 -101.5 31
t-40.5 90q0 61 40 106.5t96 45.5zM170 1356q15 0 43 4q2 8 2 24q0 50 -17 82.5t-51 32.5q-31 0 -51 -24t-20 -56q0 -63 94 -63z" />
    <glyph glyph-name="uni064D" unicode="&#x64d;" 
d="M-233 -326l-7 2l11 66l458 70l7 -2l-11 -66zM-233 -489l-7 2l11 65l458 70l7 -2l-11 -66z" />
    <glyph glyph-name="uni064E" unicode="&#x64e;" 
d="M-231 1114l-7 2l11 66l458 69l7 -2l-11 -65z" />
    <glyph glyph-name="uni064F" unicode="&#x64f;" 
d="M39 1565q55 0 90 -50.5t35 -130.5q0 -121 -62 -189.5t-151 -68.5q-62 0 -115 31l29 57q39 -22 86 -22q44 0 80 28t55 76q-24 -4 -41 -4q-61 0 -101 31t-40 90q0 61 39.5 106.5t95.5 45.5zM57 1356q15 0 43 4q2 8 2 24q0 49 -18 82t-51 33q-31 0 -50.5 -24t-19.5 -56
q0 -63 94 -63z" />
    <glyph glyph-name="uni0650" unicode="&#x650;" 
d="M-231 -326l-7 2l11 66l458 70l7 -2l-11 -66z" />
    <glyph glyph-name="uni0651" unicode="&#x651;" 
d="M203 1403q28 -55 28 -117q0 -61 -31 -99t-89 -38q-64 0 -99 35q-31 -58 -108 -58q-64 0 -99.5 36t-35.5 95q0 47 20 97l49 -15q-10 -29 -10 -61q0 -39 20 -59.5t56 -20.5q67 0 67 80q0 23 -6 47l51 12q13 -47 13 -77v-11q28 -32 77 -32q66 0 66 71q0 44 -18 94z" />
    <glyph glyph-name="uni0652" unicode="&#x652;" 
d="M0 1122q-64 0 -99.5 35t-35.5 98q0 64 37.5 113t97.5 49t97.5 -49t37.5 -113q0 -63 -36 -98t-99 -35zM0 1188q68 0 68 72q0 38 -19 64t-49 26q-31 0 -50.5 -26t-19.5 -64q0 -72 70 -72z" />
    <glyph glyph-name="uni0653" unicode="&#x653;" 
d="M137 1133q-55 0 -156.5 27.5t-132.5 27.5q-47 0 -100 -39l-45 53q76 68 150 68q37 0 136.5 -28t141.5 -28q34 0 57 11t58 43l51 -49q-59 -86 -160 -86z" />
    <glyph glyph-name="uni0654" unicode="&#x654;" 
d="M-164 1180h80q-33 58 -33 108q0 70 47 112t121 42q40 0 94 -12l-12 -66q-33 10 -72 10q-48 0 -78 -25t-30 -71q0 -44 33 -98h178v-66h-328v66z" />
    <glyph glyph-name="uni0655" unicode="&#x655;" 
d="M-164 -446h78q-31 51 -31 106q0 70 46.5 113t119.5 43q42 0 96 -15l-12 -63q-33 10 -72 10q-48 0 -78 -25t-30 -71q0 -51 33 -98h178v-66h-328v66z" />
    <glyph glyph-name="uni0656" unicode="&#x656;" 
d="M-33 -567v358h66v-338l-56 -20h-10z" />
    <glyph glyph-name="uni0658" unicode="&#x658;" 
d="M-125 1362l59 -21q-22 -60 -22 -98q0 -82 92 -82q84 0 84 99v104h68v-104q0 -78 -40 -122t-112 -44q-73 0 -116.5 37.5t-43.5 105.5q0 58 31 125z" />
    <glyph glyph-name="uni0660" unicode="&#x660;" horiz-adv-x="1105" 
d="M553 473l-131 131l131 125l129 -127z" />
    <glyph glyph-name="uni0661" unicode="&#x661;" horiz-adv-x="1105" 
d="M492 0v1337h122v-1337h-122z" />
    <glyph glyph-name="uni0662" unicode="&#x662;" horiz-adv-x="1105" 
d="M197 0v1337h122v-295q146 -67 277 -67q132 0 180 83.5t33 270.5l123 8q17 -245 -63.5 -360t-274.5 -115q-128 0 -275 64v-926h-122z" />
    <glyph glyph-name="uni0663" unicode="&#x663;" horiz-adv-x="1105" 
d="M94 1337h123v-305q82 -28 158 -28q96 0 133 78t22 247l123 8q15 -199 -32 -305q86 -28 151 -28q95 0 132 78t22 247l123 8q19 -220 -46.5 -332t-207.5 -112q-110 0 -238 53q-62 -53 -158 -53q-89 0 -182 33v-926h-123v1337z" />
    <glyph glyph-name="uni0664" unicode="&#x664;" horiz-adv-x="1105" 
d="M932 117l6 -113q-160 -16 -252 -16q-240 0 -369 78t-129 235q0 125 85.5 225.5t238.5 159.5q-109 36 -182.5 106.5t-73.5 176.5q0 178 153 275t412 97q22 0 47 -2v-114q-20 2 -61 2q-196 0 -311 -66.5t-115 -193.5q0 -98 89.5 -155.5t254.5 -57.5q53 0 111 6v-117
q-256 -22 -389.5 -111.5t-133.5 -209.5q0 -112 97.5 -165t291.5 -53q70 0 230 13z" />
    <glyph glyph-name="uni0665" unicode="&#x665;" horiz-adv-x="1105" 
d="M553 -16q-80 0 -145 18t-120 59t-92 105t-58 159.5t-21 219.5q0 161 25 295t67.5 225t99 154t118 91.5t126.5 28.5t127 -28.5t118.5 -91.5t98.5 -154t67 -225t25 -295q0 -124 -21 -219.5t-58 -159.5t-92 -105t-120 -59t-145 -18zM553 102q309 0 309 447
q0 309 -92.5 490.5t-216.5 181.5t-216.5 -181.5t-92.5 -490.5q0 -447 309 -447z" />
    <glyph glyph-name="uni0666" unicode="&#x666;" horiz-adv-x="1105" 
d="M743 0v1223h-645v114h768v-1337h-123z" />
    <glyph glyph-name="uni0667" unicode="&#x667;" horiz-adv-x="1105" 
d="M940 1350l131 -41l-448 -1309h-138l-450 1313l129 37l389 -1174z" />
    <glyph glyph-name="uni0668" unicode="&#x668;" horiz-adv-x="1105" 
d="M1071 23l-131 -37l-387 1167l-389 -1167l-129 39l448 1310h135z" />
    <glyph glyph-name="uni0669" unicode="&#x669;" horiz-adv-x="1105" 
d="M143 936q0 186 117 293.5t318 107.5h307v-1337h-123v578q-68 -7 -115 -7q-112 0 -202.5 21.5t-159 65t-105.5 114.5t-37 164zM268 936q0 -85 51 -143t133 -83.5t189 -25.5q66 0 121 8v531h-158q-157 0 -246.5 -75.5t-89.5 -211.5z" />
    <glyph glyph-name="uni066A" unicode="&#x66a;" horiz-adv-x="1165" 
d="M307 1077l-137 137l137 136l137 -138zM317 -37l-92 35l596 1352l92 -35zM862 0l-135 137l135 133l137 -135z" />
    <glyph glyph-name="uni066B" unicode="&#x66b;" horiz-adv-x="471" 
d="M350 152l-157 -467h-121l135 467h143z" />
    <glyph glyph-name="uni066C" unicode="&#x66c;" horiz-adv-x="403" 
d="M283 264l-109 -325h-102l94 325h117z" />
    <glyph glyph-name="uni066D" unicode="&#x66d;" horiz-adv-x="1724" 
d="M416 -201l-49 41l231 545l-514 307l16 76l613 -76l129 590h61l121 -590l612 76l23 -76l-535 -305l250 -547l-55 -41l-447 406z" />
    <glyph glyph-name="uni066E" unicode="&#x66e;" horiz-adv-x="1890" 
d="M1642 821h123v-467q0 -161 -102.5 -257.5t-290.5 -96.5h-807q-224 0 -347.5 102.5t-123.5 282.5q0 141 66 320l114 -31q-55 -178 -55 -268q0 -289 363 -289h776q145 0 214.5 68t69.5 218v418z" />
    <glyph glyph-name="uni066F" unicode="&#x66f;" horiz-adv-x="1574" 
d="M791 -336q-345 0 -521 120t-176 355q0 124 47 267l115 -31q-37 -112 -37 -219q0 -187 139 -279t433 -92q519 0 534 258q-107 -43 -235 -43q-190 0 -301 106.5t-111 294.5q0 189 109.5 315t293.5 126q177 0 273 -113.5t96 -300.5v-313q0 -229 -160 -340t-499 -111z
M1106 121q128 0 221 37v239q0 154 -62.5 240t-189.5 86q-120 0 -195 -82t-75 -227t80 -219t221 -74z" />
    <glyph glyph-name="uni0670" unicode="&#x670;" 
d="M-33 1139v358h66v-338l-56 -20h-10z" />
    <glyph glyph-name="uni0671" unicode="&#x671;" horiz-adv-x="454" 
d="M166 1548h123v-1548h-123v1548zM428 1661h-489v65h104v203h66v-94q73 107 182 107q71 0 113 -48t42 -125q0 -58 -18 -108zM285 1874q-55 0 -105 -41t-78 -107h275q6 24 6 46q0 48 -27 75t-71 27z" />
    <glyph glyph-name="uni0679" unicode="&#x679;" horiz-adv-x="1890" 
d="M94 385q0 141 66 320l114 -31q-55 -178 -55 -268q0 -289 363 -289h776q145 0 214.5 68t69.5 218v418h123v-467q0 -161 -102.5 -257.5t-290.5 -96.5h-807q-224 0 -347.5 102.5t-123.5 282.5zM643 893v68h105v344h67v-220q79 103 184 103q77 0 122.5 -52.5t45.5 -136.5
q0 -51 -18 -106h-506zM813 961h285q4 28 4 38q0 56 -29 88.5t-78 32.5q-55 0 -104 -41.5t-78 -117.5z" />
    <glyph glyph-name="uni067E" unicode="&#x67e;" horiz-adv-x="1890" 
d="M1642 821h123v-467q0 -161 -102.5 -257.5t-290.5 -96.5h-807q-224 0 -347.5 102.5t-123.5 282.5q0 141 66 320l114 -31q-55 -178 -55 -268q0 -289 363 -289h776q145 0 214.5 68t69.5 218v418zM844 -268q0 -38 -23.5 -62t-60.5 -24q-36 0 -60 24t-24 62q0 35 24.5 58.5
t59.5 23.5q37 0 60.5 -23.5t23.5 -58.5zM1032 -186q35 0 58.5 -23.5t23.5 -58.5q0 -38 -23 -62t-59 -24q-37 0 -61.5 24t-24.5 62q0 35 24.5 58.5t61.5 23.5zM899 -387q37 0 60.5 -23.5t23.5 -60.5q0 -36 -24 -60t-60 -24t-60 24t-24 60q0 37 23.5 60.5t60.5 23.5z" />
    <glyph glyph-name="uni0686" unicode="&#x686;" horiz-adv-x="1249" 
d="M600 842q252 0 383 -144t131 -393q0 -143 -43 -305h-633q-109 0 -170 -52t-61 -149q0 -103 71.5 -157t202.5 -54q56 0 129 15l25 -117q-70 -18 -168 -18q-172 0 -278.5 87.5t-106.5 241.5q0 147 93.5 233.5t250.5 86.5h545q24 91 24 180q0 195 -106 310.5t-307 115.5
q-103 0 -234 -41l-31 111q132 49 283 49zM590 -123q26 0 42.5 -16t16.5 -41q0 -26 -16.5 -43t-42.5 -17q-25 0 -42.5 17t-17.5 43q0 24 17.5 40.5t42.5 16.5zM780 -123q25 0 41.5 -16t16.5 -41q0 -26 -16.5 -43t-41.5 -17q-26 0 -42.5 17t-16.5 43q0 25 16.5 41t42.5 16z
M686 -262q26 0 42.5 -17t16.5 -43q0 -25 -16.5 -42t-42.5 -17q-25 0 -41 17t-16 42q0 26 16 43t41 17z" />
    <glyph glyph-name="uni0688" unicode="&#x688;" horiz-adv-x="1040" 
d="M905 0h-823v117h700v45q0 177 -105 329.5t-317 290.5l74 99q135 -88 227 -176.5t145.5 -182t76 -188.5t22.5 -209v-125zM115 1153h104v344h68v-219q79 102 184 102q77 0 122.5 -52t45.5 -136q0 -52 -18 -107h-506v68zM467 1313q-55 0 -104 -42t-78 -118h284q4 28 4 39
q0 56 -28.5 88.5t-77.5 32.5z" />
    <glyph glyph-name="uni0691" unicode="&#x691;" horiz-adv-x="585" 
d="M-8 -238q161 27 233 113t72 266v680h123v-655q0 -232 -98 -361.5t-306 -156.5zM82 1073v68h104v344h68v-219q79 102 184 102q77 0 122.5 -52t45.5 -136q0 -52 -18 -107h-506zM434 1300q-55 0 -104 -41.5t-78 -117.5h285q4 28 4 39q0 56 -29 88t-78 32z" />
    <glyph glyph-name="uni0698" unicode="&#x698;" horiz-adv-x="585" 
d="M362 1274q-36 0 -59.5 24.5t-23.5 61.5q0 35 23.5 59.5t59.5 24.5q35 0 58.5 -25t23.5 -59q0 -37 -23.5 -61.5t-58.5 -24.5zM221 1071q-36 0 -60 24t-24 60q0 35 24.5 59.5t59.5 24.5q36 0 60 -24t24 -60q0 -37 -23.5 -60.5t-60.5 -23.5zM494 1071q-37 0 -61.5 23.5
t-24.5 60.5q0 35 24.5 59.5t61.5 24.5q35 0 58 -24t23 -60q0 -37 -23 -60.5t-58 -23.5zM16 -352l-24 114q161 27 233 113t72 266v680h123v-655q0 -232 -98 -361.5t-306 -156.5z" />
    <glyph glyph-name="uni06A1" unicode="&#x6a1;" horiz-adv-x="2117" 
d="M94 385q0 141 66 320l114 -31q-55 -178 -55 -268q0 -289 363 -289h712q-114 120 -114 299q0 187 119.5 306.5t310.5 119.5q96 0 170.5 -34t120.5 -94.5t69 -139t23 -171.5q0 -174 -90 -403h-1338q-224 0 -347.5 102.5t-123.5 282.5zM1307 414q0 -161 129 -297h381
q49 158 49 280q0 151 -69 238.5t-198 87.5q-134 0 -213 -85.5t-79 -223.5z" />
    <glyph glyph-name="uni06A4" unicode="&#x6a4;" horiz-adv-x="2117" 
d="M565 0q-224 0 -347.5 102.5t-123.5 282.5q0 141 66 320l114 -31q-55 -178 -55 -268q0 -289 363 -289h712q-114 120 -114 299q0 187 119.5 306.5t310.5 119.5q96 0 170.5 -34t120.5 -94.5t69 -139t23 -171.5q0 -174 -90 -403h-1338zM1307 414q0 -161 129 -297h381
q49 158 49 280q0 151 -69 238.5t-198 87.5q-134 0 -213 -85.5t-79 -223.5zM1386 1176q0 35 24.5 59.5t59.5 24.5q36 0 60 -24t24 -60q0 -37 -23.5 -60.5t-60.5 -23.5q-36 0 -60 24t-24 60zM1743 1092q-37 0 -61.5 23.5t-24.5 60.5q0 35 24.5 59.5t61.5 24.5q35 0 58.5 -24.5
t23.5 -59.5q0 -37 -23.5 -60.5t-58.5 -23.5zM1612 1294q-37 0 -60.5 24.5t-23.5 61.5q0 34 24 59t60 25q35 0 58.5 -25t23.5 -59q0 -37 -23.5 -61.5t-58.5 -24.5z" />
    <glyph glyph-name="uni06A9" unicode="&#x6a9;" horiz-adv-x="1736" 
d="M983 915q180 -60 302 -134t191 -166t97.5 -193.5t28.5 -231.5v-190h-1037q-224 0 -347.5 102.5t-123.5 282.5q0 141 66 320l114 -31q-55 -178 -55 -268q0 -289 363 -289h901v94q0 234 -140.5 376.5t-484.5 248.5v122l580 560l82 -84z" />
    <glyph glyph-name="uni06AF" unicode="&#x6af;" horiz-adv-x="1736" 
d="M1364 1593l-518 -495l-84 84l520 493zM983 915q180 -60 302 -134t191 -166t97.5 -193.5t28.5 -231.5v-190h-1037q-224 0 -347.5 102.5t-123.5 282.5q0 141 66 320l114 -31q-55 -178 -55 -268q0 -289 363 -289h901v94q0 234 -140.5 376.5t-484.5 248.5v122l580 560l82 -84
z" />
    <glyph glyph-name="uni06BA" unicode="&#x6ba;" horiz-adv-x="1331" 
d="M625 -336q-253 0 -392 127.5t-139 335.5q0 160 84 362l109 -38q-68 -172 -68 -310q0 -177 108 -266.5t302 -89.5q413 0 413 399v488h123v-518q0 -238 -145 -364t-395 -126z" />
    <glyph glyph-name="uni06BE" unicode="&#x6be;" horiz-adv-x="1478" 
d="M387 866q186 -14 334 -43t270.5 -79.5t203.5 -121.5t125 -170.5t44 -224.5q0 -105 -29 -227h-350q-169 0 -297 47q-120 -47 -287 -47q-186 0 -319 59l37 111q124 -53 282 -53q73 0 144 14q-66 51 -109 133t-43 178q0 95 46 176.5t126 122.5q-80 10 -196 17zM506 446
q0 -98 50 -170t130 -112q87 34 145 107.5t58 177.5t-54 168.5t-137 64.5q-84 0 -138 -67.5t-54 -168.5zM961 117h276q12 59 12 123q0 287 -311 415q63 -88 63 -206q0 -100 -49 -186t-125 -134q71 -12 134 -12z" />
    <glyph glyph-name="uni06C1" unicode="&#x6c1;" horiz-adv-x="1034" 
d="M496 -10q-199 0 -306.5 113t-107.5 292q0 122 46 221.5t142 162.5t226 63q98 0 178 -36.5t130.5 -98.5t77.5 -142t27 -170q0 -183 -110.5 -294t-302.5 -111zM500 111q134 0 209 72t75 216q0 145 -74 234.5t-214 89.5q-141 0 -215 -89.5t-74 -234.5t77.5 -216.5
t215.5 -71.5z" />
    <glyph glyph-name="uni06C2" unicode="&#x6c2;" horiz-adv-x="1034" 
d="M496 -10q-199 0 -306.5 113t-107.5 292q0 122 46 221.5t142 162.5t226 63q98 0 178 -36.5t130.5 -98.5t77.5 -142t27 -170q0 -183 -110.5 -294t-302.5 -111zM496 723q-141 0 -215 -89.5t-74 -234.5t77.5 -216.5t215.5 -71.5q134 0 209 72t75 216q0 145 -74 234.5
t-214 89.5zM268 1102v82h103q-43 67 -43 143q0 88 58.5 139.5t152.5 51.5q54 0 127 -15l-17 -80q-74 11 -94 11q-59 0 -100 -29.5t-41 -89.5q0 -63 45 -131h231v-82h-422z" />
    <glyph glyph-name="uni06C3" unicode="&#x6c3;" horiz-adv-x="1034" 
d="M356 1085q-36 0 -60 24t-24 60t24 60t60 24q37 0 60.5 -23.5t23.5 -60.5t-23.5 -60.5t-60.5 -23.5zM629 1085q-37 0 -61.5 23.5t-24.5 60.5t24.5 60.5t61.5 23.5q35 0 58.5 -23.5t23.5 -60.5t-23.5 -60.5t-58.5 -23.5zM496 -10q-199 0 -306.5 113t-107.5 292
q0 122 46 221.5t142 162.5t226 63q98 0 178 -36.5t130.5 -98.5t77.5 -142t27 -170q0 -183 -110.5 -294t-302.5 -111zM500 111q134 0 209 72t75 216q0 145 -74 234.5t-214 89.5q-141 0 -215 -89.5t-74 -234.5t77.5 -216.5t215.5 -71.5z" />
    <glyph glyph-name="uni06CC" unicode="&#x6cc;" horiz-adv-x="1544" 
d="M756 -336q-320 0 -491 105t-171 319q0 118 47 264l115 -30q-37 -136 -37 -220q0 -166 134.5 -241.5t402.5 -75.5q248 0 387 59t139 158q0 40 -28 75.5t-73 63t-99.5 55t-109 59.5t-99.5 69t-73 90t-28 116q0 135 106 224.5t289 89.5q87 0 219 -31l-22 -117
q-114 29 -201 29q-123 0 -193.5 -52t-70.5 -136q0 -48 28 -88t73 -68.5t99 -55.5t108 -56t99 -62.5t73 -82.5t28 -108q0 -160 -177.5 -256t-473.5 -96z" />
    <glyph glyph-name="uni06D2" unicode="&#x6d2;" horiz-adv-x="1503" 
d="M713 -18q-234 0 -374.5 30t-201.5 88.5t-61 153.5q0 60 22.5 109.5t58 84t78.5 64t86.5 56.5t79 55t58 65.5t22.5 81.5v64h117v-68q0 -57 -22.5 -105.5t-58 -82t-78.5 -62.5t-86.5 -55.5t-79 -54t-58 -63t-22.5 -77.5q0 -93 128 -129.5t420 -36.5q316 0 752 74l8 -117
q-457 -75 -788 -75z" />
    <glyph glyph-name="uni06D3" unicode="&#x6d3;" horiz-adv-x="1503" 
d="M713 -18q-234 0 -374.5 30t-201.5 88.5t-61 153.5q0 60 22.5 109.5t58 84t78.5 64t86.5 56.5t79 55t58 65.5t22.5 81.5v64h117v-68q0 -57 -22.5 -105.5t-58 -82t-78.5 -62.5t-86.5 -55.5t-79 -54t-58 -63t-22.5 -77.5q0 -93 128 -129.5t420 -36.5q316 0 752 74l8 -117
q-457 -75 -788 -75zM735 1092h-422v82h103q-43 67 -43 143q0 88 58.5 139t152.5 51q59 0 127 -14l-17 -80q-68 10 -94 10q-59 0 -100 -29t-41 -89q0 -63 45 -131h231v-82z" />
    <glyph glyph-name="uni06D4" unicode="&#x6d4;" horiz-adv-x="706" 
d="M109 186q75 -69 219 -69h317v-117h-317q-172 0 -267 90z" />
    <glyph glyph-name="uni06D5" unicode="&#x6d5;" horiz-adv-x="1034" 
d="M496 -10q-199 0 -306.5 113t-107.5 292q0 122 46 221.5t142 162.5t226 63q98 0 178 -36.5t130.5 -98.5t77.5 -142t27 -170q0 -183 -110.5 -294t-302.5 -111zM500 111q134 0 209 72t75 216q0 145 -74 234.5t-214 89.5q-141 0 -215 -89.5t-74 -234.5t77.5 -216.5
t215.5 -71.5z" />
    <glyph glyph-name="uni06F0" unicode="&#x6f0;" horiz-adv-x="1105" 
d="M553 473l-131 131l131 125l129 -127z" />
    <glyph glyph-name="uni06F1" unicode="&#x6f1;" horiz-adv-x="1105" 
d="M492 0v1337h122v-1337h-122z" />
    <glyph glyph-name="uni06F2" unicode="&#x6f2;" horiz-adv-x="1105" 
d="M197 0v1337h122v-295q146 -67 277 -67q132 0 180 83.5t33 270.5l123 8q17 -245 -63.5 -360t-274.5 -115q-128 0 -275 64v-926h-122z" />
    <glyph glyph-name="uni06F3" unicode="&#x6f3;" horiz-adv-x="1105" 
d="M94 1337h123v-305q82 -28 158 -28q96 0 133 78t22 247l123 8q15 -199 -32 -305q86 -28 151 -28q95 0 132 78t22 247l123 8q19 -220 -46.5 -332t-207.5 -112q-110 0 -238 53q-62 -53 -158 -53q-89 0 -182 33v-926h-123v1337z" />
    <glyph glyph-name="uni06F4" unicode="&#x6f4;" horiz-adv-x="1105" 
d="M119 1337h123v-329q124 -45 293 -64q-31 88 -31 160q0 122 68 185t200 63q84 0 182 -25l-28 -113q-71 23 -144 23q-168 0 -168 -160q0 -61 31 -139h19q192 0 360 33l16 -111q-182 -37 -378 -37q-107 0 -220 19.5t-200 50.5v-893h-123v1337z" />
    <glyph glyph-name="uni06F5" unicode="&#x6f5;" horiz-adv-x="1105" 
d="M395 -12q-135 0 -212 128.5t-77 401.5q0 161 29 299t76 232t107 161t121.5 98t119.5 31q62 0 123 -29t118.5 -94t101.5 -158.5t70.5 -233t26.5 -306.5q0 -255 -73.5 -392.5t-190.5 -137.5q-91 0 -178 80q-80 -80 -162 -80zM412 104q26 0 52 12.5t53 31.5t38 24
q8 -4 35.5 -23.5t57 -32t61.5 -12.5q71 0 117 111t46 305q0 165 -28 302t-73.5 222.5t-100.5 132t-111 46.5q-44 0 -89.5 -30.5t-88 -91.5t-75.5 -143t-53 -195t-20 -239q0 -209 51 -314.5t128 -105.5z" />
    <glyph glyph-name="uni06F6" unicode="&#x6f6;" horiz-adv-x="1105" 
d="M885 889l96 -82l-721 -844l-98 80l497 582q-201 20 -314.5 111t-113.5 233q0 170 146 270t420 100h49v-114q-10 0 -29.5 1t-28.5 1q-209 0 -319.5 -69.5t-110.5 -190.5q0 -101 103.5 -162t292.5 -68z" />
    <glyph glyph-name="uni06F7" unicode="&#x6f7;" horiz-adv-x="1105" 
d="M940 1350l131 -41l-448 -1309h-138l-450 1313l129 37l389 -1174z" />
    <glyph glyph-name="uni06F8" unicode="&#x6f8;" horiz-adv-x="1105" 
d="M1071 23l-131 -37l-387 1167l-389 -1167l-129 39l448 1310h135z" />
    <glyph glyph-name="uni06F9" unicode="&#x6f9;" horiz-adv-x="1105" 
d="M143 936q0 186 117 293.5t318 107.5h307v-1337h-123v578q-68 -7 -115 -7q-112 0 -202.5 21.5t-159 65t-105.5 114.5t-37 164zM268 936q0 -85 51 -143t133 -83.5t189 -25.5q66 0 121 8v531h-158q-157 0 -246.5 -75.5t-89.5 -211.5z" />
    <glyph glyph-name="Germandbls" unicode="&#x1e9e;" horiz-adv-x="1368" 
d="M1120 1346q-183 0 -291 -72.5t-108 -200.5q0 -51 18.5 -94t61 -83t78 -65.5t102.5 -68.5q141 -89 211 -186t70 -232q0 -169 -112.5 -275t-287.5 -106q-262 0 -395 191l119 88q45 -75 123 -115.5t161 -40.5q114 0 183.5 70.5t72.5 185.5q3 103 -51 172t-186 150
q-73 44 -122 82t-93.5 87.5t-66 108.5t-21.5 129q0 197 200 299h-38q-106 0 -178 -15t-128 -53.5t-82 -109.5t-26 -180v-1012h-135v1038q0 127 32.5 214t100 138.5t161 74t226.5 22.5q147 0 401 -21v-120z" />
    <glyph glyph-name="uni2002" unicode="&#x2002;" horiz-adv-x="1171" 
 />
    <glyph glyph-name="uni2003" unicode="&#x2003;" horiz-adv-x="2340" 
 />
    <glyph glyph-name="uni2009" unicode="&#x2009;" horiz-adv-x="233" 
 />
    <glyph glyph-name="uni200A" unicode="&#x200a;" horiz-adv-x="47" 
 />
    <glyph glyph-name="uni200C" unicode="&#x200c;" 
d="M-160 2122l37 41l123 -125l121 123l37 -39l-119 -121l119 -121l-37 -39l-121 121l-123 -123l-37 41l121 121z" />
    <glyph glyph-name="uni200D" unicode="&#x200d;" 
d="M-231 2030h464v-162h-53v108h-358v-108h-53v162z" />
    <glyph glyph-name="uni200E" unicode="&#x200e;" 
d="M61 1839l-38 41l96 96h-295v54h295l-96 92l38 41l162 -162z" />
    <glyph glyph-name="uni200F" unicode="&#x200f;" 
d="M-61 1841l-162 160l162 162l38 -37l-96 -96h297v-54h-295l94 -96z" />
    <glyph glyph-name="uni2011" unicode="&#x2011;" horiz-adv-x="681" 
d="M594 541v-111h-506v111h506z" />
    <glyph glyph-name="endash" unicode="&#x2013;" horiz-adv-x="1024" 
d="M1024 541v-111h-1024v111h1024z" />
    <glyph glyph-name="emdash" unicode="&#x2014;" horiz-adv-x="2048" 
d="M2048 541v-111h-2048v111h2048z" />
    <glyph glyph-name="quoteleft" unicode="&#x2018;" horiz-adv-x="532" 
d="M283 1450h123l-132 -467h-147z" />
    <glyph glyph-name="quoteright" unicode="&#x2019;" horiz-adv-x="532" 
d="M406 1450l-158 -467h-121l129 467h150z" />
    <glyph glyph-name="quotesinglbase" unicode="&#x201a;" horiz-adv-x="532" 
d="M406 184l-158 -467h-121l129 467h150z" />
    <glyph glyph-name="quotedblleft" unicode="&#x201c;" horiz-adv-x="1064" 
d="M571 983l158 467h121l-129 -467h-150zM215 983l158 467h121l-129 -467h-150z" />
    <glyph glyph-name="quotedblright" unicode="&#x201d;" horiz-adv-x="1064" 
d="M692 983h-121l129 467h150zM336 983h-121l129 467h150z" />
    <glyph glyph-name="quotedblbase" unicode="&#x201e;" horiz-adv-x="1064" 
d="M692 -283h-121l129 467h150zM336 -283h-121l129 467h150z" />
    <glyph glyph-name="dagger" unicode="&#x2020;" horiz-adv-x="1064" 
d="M78 944v98h393v408h123v-408h393v-98h-393v-1202h-123v1202h-393z" />
    <glyph glyph-name="daggerdbl" unicode="&#x2021;" horiz-adv-x="1064" 
d="M78 1042h393v408h123v-408h393v-98h-393v-696h393v-98h-393v-408h-123v408h-393v98h393v696h-393v98z" />
    <glyph glyph-name="bullet" unicode="&#x2022;" horiz-adv-x="1024" 
d="M512 1087q148 0 255 -107t107 -255q0 -149 -107 -256t-255 -107q-151 0 -256.5 106t-105.5 257q0 148 107 255t255 107z" />
    <glyph glyph-name="ellipsis" unicode="&#x2026;" horiz-adv-x="2048" 
d="M342 184q41 0 69.5 -28.5t28.5 -69.5t-28.5 -69.5t-69.5 -28.5t-69.5 28.5t-28.5 69.5t28.5 69.5t69.5 28.5zM1024 184q41 0 69.5 -28.5t28.5 -69.5t-28.5 -69.5t-69.5 -28.5t-69.5 28.5t-28.5 69.5t28.5 69.5t69.5 28.5zM1706 184q41 0 69.5 -28.5t28.5 -69.5
t-28.5 -69.5t-69.5 -28.5t-69.5 28.5t-28.5 69.5t28.5 69.5t69.5 28.5z" />
    <glyph glyph-name="uni202A" unicode="&#x202a;" 
d="M119 1976h-117v54h117l-96 92l38 41l162 -162l-162 -162l-38 41zM-66 1976h-133v54h133v-54z" />
    <glyph glyph-name="uni202B" unicode="&#x202b;" 
d="M-223 2001l162 162l38 -37l-96 -96h117v-54h-115l94 -96l-38 -39zM66 1976v54h133v-54h-133z" />
    <glyph glyph-name="uni202C" unicode="&#x202c;" 
d="M-29 1837v238l-92 -95l-39 39l160 160l160 -160l-39 -39l-94 95v-238h-56z" />
    <glyph glyph-name="uni202D" unicode="&#x202d;" 
d="M-49 1839l-37 41l96 96h-252v54h250l-94 92l37 41l162 -162zM102 1839l-36 41l124 121l-124 121l36 41l162 -162z" />
    <glyph glyph-name="uni202E" unicode="&#x202e;" 
d="M-102 1896l-162 162l162 162l36 -39l-122 -123l122 -123zM49 1896l-160 162l160 162l39 -39l-96 -98h252v-51h-252l96 -97z" />
    <glyph glyph-name="perthousand" unicode="&#x2030;" horiz-adv-x="2009" 
d="M1069 1520l94 -58l-938 -1532l-90 58zM367 1475q131 0 222 -92t91 -222q0 -127 -91 -220t-222 -93q-133 0 -223.5 93t-90.5 220q0 126 92 220t222 94zM152 1161q0 -88 62.5 -151.5t152.5 -63.5q92 0 153.5 63t61.5 152q0 88 -63.5 151.5t-151.5 63.5q-87 0 -151 -63
t-64 -152zM940 602q131 0 222 -91.5t91 -221.5q0 -127 -91 -220.5t-222 -93.5q-133 0 -223 93.5t-90 220.5q0 126 91.5 219.5t221.5 93.5zM1642 602q131 0 222.5 -91.5t91.5 -221.5q0 -127 -91.5 -220.5t-222.5 -93.5q-133 0 -223 93.5t-90 220.5q0 126 91.5 219.5
t221.5 93.5zM725 289q0 -88 62.5 -151.5t152.5 -63.5q92 0 153.5 63t61.5 152q0 88 -63.5 151.5t-151.5 63.5q-87 0 -151 -63t-64 -152zM1427 289q0 -88 62.5 -151.5t152.5 -63.5q92 0 154 63t62 152q0 88 -64 151.5t-152 63.5q-87 0 -151 -63t-64 -152z" />
    <glyph glyph-name="guilsinglleft" unicode="&#x2039;" horiz-adv-x="645" 
d="M410 901l86 -59l-238 -357l242 -360l-90 -55l-281 415z" />
    <glyph glyph-name="guilsinglright" unicode="&#x203a;" horiz-adv-x="645" 
d="M236 901l280 -416l-280 -415l-86 59l237 356l-242 361z" />
    <glyph glyph-name="fraction" unicode="&#x2044;" horiz-adv-x="344" 
d="M592 1520l94 -58l-938 -1532l-90 58z" />
    <glyph glyph-name="Euro" unicode="&#x20ac;" horiz-adv-x="962" 
d="M51 510l25 98h98q-6 27 -6 99q0 82 8 139h-121l23 98h106q47 266 175.5 402.5t330.5 136.5q126 0 213 -41l-33 -113q-80 37 -176 37q-143 0 -237 -108t-129 -314h456l-26 -98h-447q-8 -52 -8 -127q0 -76 4 -111h410l-23 -98h-375q25 -198 121.5 -310t239.5 -112
q111 0 199 55l24 -116q-89 -60 -237 -60q-107 0 -194 43t-145 119t-94.5 171.5t-52.5 209.5h-129z" />
    <glyph glyph-name="uni20B9" unicode="&#x20b9;" horiz-adv-x="1064" 
d="M147 1026v98h508q-26 228 -344 228h-164v98h881v-98h-360q113 -82 123 -228h237v-98h-237q-44 -332 -474 -332l480 -694h-164l-486 711v88h156q72 0 128 10.5t104.5 35t79 70.5t40.5 111h-508z" />
    <glyph glyph-name="uni20BA" unicode="&#x20ba;" horiz-adv-x="1064" 
d="M39 897v117l197 82v354h122v-293l430 189v-117l-430 -189v-219l430 189v-117l-430 -188v-607q36 -4 66 -4q105 0 186.5 32t135 88.5t88 141t49 184t14.5 222.5h133q0 -137 -18.5 -251t-61.5 -213.5t-109 -167.5t-165.5 -107t-226.5 -39q-58 0 -128.5 5.5t-84.5 10.5v643
l-197 -82v117l197 82v219z" />
    <glyph glyph-name="uni2113" unicode="&#x2113;" horiz-adv-x="1024" 
d="M164 416l172 168v538q0 153 69.5 247.5t182.5 94.5q98 0 155.5 -68.5t57.5 -181.5q0 -151 -86.5 -308t-263.5 -339v-317q0 -87 43 -135.5t122 -48.5q90 0 179 69l39 -49q-114 -102 -250 -102q-120 0 -184 65t-64 178v271l-129 -140zM451 1145v-494q258 304 258 553
q0 86 -33.5 136.5t-87.5 50.5q-61 0 -99 -68t-38 -178z" />
    <glyph glyph-name="trademark" unicode="&#x2122;" horiz-adv-x="2027" 
d="M979 606v844h176l266 -672l265 672h169v-844h-110v740h-4l-291 -740h-66l-290 740h-4v-740h-111zM444 1352h-272v98h655v-98h-272v-746h-111v746z" />
    <glyph glyph-name="Omega" unicode="&#x2126;" horiz-adv-x="1523" 
d="M96 119h404v168q-186 53 -295 209.5t-109 355.5q0 175 88 319t238.5 225t329.5 81q134 0 254 -48t207.5 -131t138.5 -198.5t51 -245.5q0 -134 -46 -249t-138.5 -199.5t-219.5 -118.5v-168h404v-119h-514v371q179 32 278 159t99 320q0 216 -148 359t-368 143
q-142 0 -260.5 -65t-187.5 -180.5t-69 -256.5q0 -190 100.5 -320t276.5 -159v-371h-514v119z" />
    <glyph glyph-name="estimated" unicode="&#x212e;" horiz-adv-x="1998" 
d="M1001 -39q-197 0 -359 60t-267.5 162t-163 235.5t-57.5 283.5t59 290t165 249t267.5 174.5t351.5 65.5q135 0 251 -24.5t201 -67.5t153 -103t112.5 -128.5t74 -147t42 -155.5t12.5 -157h-1366q-12 0 -12 -12v-389q0 -42 16 -61q84 -107 216 -164.5t298 -57.5
q168 0 298 63t253 179h148q-86 -104 -177 -166.5t-217.5 -95.5t-298.5 -33zM465 754q0 -13 12 -13h1045q12 0 12 13v397q0 28 -25 57q-50 63 -118 108t-140 68t-136 33t-126 10q-133 0 -266 -53t-238 -162q-20 -23 -20 -59v-399z" />
    <glyph glyph-name="partialdiff" unicode="&#x2202;" horiz-adv-x="1015" 
d="M430 1477q161 0 275.5 -94.5t170.5 -258.5t56 -383q0 -367 -118.5 -566.5t-342.5 -199.5q-179 0 -293.5 132t-114.5 327q0 192 108.5 314t289.5 122q98 0 187 -46t153 -126q2 33 2 109q0 106 -21.5 202.5t-64.5 177.5t-115.5 129t-165.5 48q-60 0 -111 -21.5t-118 -72.5
l-74 88q8 10 30 26t60 38.5t94 38.5t113 16zM193 430q0 -145 77 -245.5t203 -100.5q135 0 218 125.5t100 359.5q-140 187 -320 187q-125 0 -201.5 -91.5t-76.5 -234.5z" />
    <glyph glyph-name="Delta" unicode="&#x2206;" horiz-adv-x="1372" 
d="M758 1458l588 -1458h-1315l575 1458h152zM217 127h932l-469 1194z" />
    <glyph glyph-name="product" unicode="&#x220f;" horiz-adv-x="1456" 
d="M145 -438v2048h1168v-2048h-135v1921h-897v-1921h-136z" />
    <glyph glyph-name="summation" unicode="&#x2211;" horiz-adv-x="1236" 
d="M1159 1610v-127h-905l633 -891l-672 -905h969v-125h-1133v112l674 918l-645 903v115h1079z" />
    <glyph glyph-name="minus" unicode="&#x2212;" horiz-adv-x="1363" 
d="M1204 670v-99h-1044v99h1044z" />
    <glyph glyph-name="uni2215" unicode="&#x2215;" horiz-adv-x="344" 
d="M592 1520l94 -58l-938 -1532l-90 58z" />
    <glyph glyph-name="uni2219" unicode="&#x2219;" horiz-adv-x="532" 
d="M266 750q41 0 70 -29t29 -70t-29 -69.5t-70 -28.5t-69.5 28.5t-28.5 69.5t28.5 70t69.5 29z" />
    <glyph glyph-name="radical" unicode="&#x221a;" horiz-adv-x="1009" 
d="M1028 1610l-430 -2048h-135l-336 696l-94 -45l-49 102l204 99l324 -680l387 1876h129z" />
    <glyph glyph-name="infinity" unicode="&#x221e;" horiz-adv-x="1517" 
d="M1434 516q0 -131 -81.5 -217t-205.5 -86q-91 0 -181 50.5t-206 168.5q-147 -130 -224 -174.5t-159 -44.5q-130 0 -211.5 82.5t-81.5 214.5q0 131 80 217t203 86q81 0 167 -47t226 -182q131 138 215.5 184.5t167.5 46.5q128 0 209.5 -84.5t81.5 -214.5zM838 508
q103 -96 175.5 -136t139.5 -40q75 0 119.5 49t44.5 129q0 87 -45.5 137.5t-124.5 50.5q-58 0 -129.5 -44t-179.5 -146zM373 332q128 0 309 178q-112 100 -184.5 143t-132.5 43q-71 0 -117.5 -52.5t-46.5 -131.5q0 -82 47 -131t125 -49z" />
    <glyph glyph-name="integral" unicode="&#x222b;" horiz-adv-x="1112" 
d="M686 1610q63 0 104 -28.5t41 -74.5q0 -34 -20.5 -51.5t-54.5 -17.5q-24 0 -41 13t-25 28t-18.5 28t-22.5 13q-35 0 -54.5 -61.5t-19.5 -176.5q0 -14 2.5 -69t2.5 -80v-1063q0 -51 -0.5 -83.5t-5.5 -91.5t-14 -98.5t-27.5 -87.5t-44 -76.5t-65.5 -48.5t-91 -20
q-56 0 -90.5 26t-34.5 70q0 29 19 47.5t48 18.5q21 0 38 -12t26 -27t19.5 -27t19.5 -12q65 0 65 313q0 14 1 56.5t1 62.5v964q0 25 -1 79t-1 87q0 400 244 400z" />
    <glyph glyph-name="approxequal" unicode="&#x2248;" horiz-adv-x="1363" 
d="M1206 813q-17 -123 -79 -190.5t-160 -67.5q-69 0 -179 37.5t-217.5 75t-171.5 37.5q-63 0 -109 -44.5t-63 -119.5h-67q47 262 237 262q71 0 180 -37.5t217 -75t177 -37.5q64 0 105.5 37.5t64.5 122.5h65zM1206 463q-17 -123 -79 -190.5t-160 -67.5q-55 0 -136 23.5
t-150.5 51t-149 51t-132.5 23.5q-65 0 -109.5 -44t-62.5 -120h-67q41 263 237 263q72 0 182 -37.5t218 -75t174 -37.5q64 0 105.5 37.5t64.5 122.5h65z" />
    <glyph glyph-name="notequal" unicode="&#x2260;" horiz-adv-x="1363" 
d="M180 647v98h572l157 297l84 -45l-133 -252h324v-98h-375l-156 -291h531v-98h-582l-153 -291l-87 43l132 248h-314v98h365l153 291h-518z" />
    <glyph glyph-name="lessequal" unicode="&#x2264;" horiz-adv-x="1363" 
d="M1184 240l-1004 376v115l1004 377v-107l-883 -329l883 -328v-104zM180 121h1004v-96h-1004v96z" />
    <glyph glyph-name="greaterequal" unicode="&#x2265;" horiz-adv-x="1363" 
d="M180 344l885 328l-885 329v107l1004 -377v-115l-1004 -376v104zM1184 25h-1004v96h1004v-96z" />
    <glyph glyph-name="lozenge" unicode="&#x25ca;" horiz-adv-x="1214" 
d="M670 1530l350 -801l-350 -801h-129l-346 801l346 801h129zM328 729l278 -666l281 666l-281 666z" />
    <glyph glyph-name="uni25CC" unicode="&#x25cc;" horiz-adv-x="942" 
d="M471 700q-55 0 -55 58q0 55 55 55t55 -55q0 -58 -55 -58zM293 655q-53 0 -53 60q0 53 53 53q59 0 59 -53q0 -60 -59 -60zM647 655q-59 0 -59 60q0 53 59 53q53 0 53 -53q0 -60 -53 -60zM164 526q-53 0 -53 58q0 55 53 55q57 0 57 -55q0 -58 -57 -58zM776 526
q-55 0 -55 58q0 55 55 55t55 -55q0 -58 -55 -58zM119 352q-53 0 -53 56q0 55 53 55q57 0 57 -55q0 -56 -57 -56zM821 352q-55 0 -55 56q0 55 55 55q56 0 56 -55q0 -56 -56 -56zM164 176q-53 0 -53 55q0 56 53 56q57 0 57 -56q0 -55 -57 -55zM776 176q-55 0 -55 55
q0 56 55 56t55 -56q0 -55 -55 -55zM293 47q-53 0 -53 55q0 56 53 56q59 0 59 -56q0 -55 -59 -55zM647 47q-59 0 -59 55q0 26 15.5 41t43.5 15q53 0 53 -56q0 -55 -53 -55zM471 2q-55 0 -55 55q0 58 55 58t55 -58q0 -55 -55 -55z" />
    <glyph glyph-name="uni274A" unicode="&#x274a;" horiz-adv-x="1298" 
d="M459 16l-97 47l203 402l-432 -98l-22 100l434 88l-357 279l72 84l342 -289l-4 450h109l-9 -450l349 284l65 -84l-356 -276l432 -92l-23 -101l-430 107l197 -406l-94 -47l-187 412z" />
    <glyph glyph-name="fi" unicode="&#xfb01;" horiz-adv-x="1062" 
d="M233 836h-196v110h196v318q0 143 80 226t203 83q83 0 141 -25l-24 -106q-41 20 -111 20q-166 0 -166 -243v-273h222v-110h-222v-836h-123v836zM756 0v946h123v-946h-123zM725 1321q0 38 27 65t65 27q39 0 65.5 -26.5t26.5 -65.5t-26.5 -65.5t-65.5 -26.5q-38 0 -65 27
t-27 65z" />
    <glyph glyph-name="fl" unicode="&#xfb02;" horiz-adv-x="1062" 
d="M233 836h-196v110h196v318q0 143 80 226t203 83q83 0 141 -25l-24 -106q-41 20 -111 20q-166 0 -166 -243v-273h222v-110h-222v-836h-123v836zM879 0h-123v1548h123v-1548z" />
    <glyph glyph-name="uniFBB2" unicode="&#xfbb2;" 
d="M2 1124q-38 0 -62 23.5t-24 60.5t24 60.5t62 23.5q37 0 59.5 -23.5t22.5 -60.5t-22.5 -60.5t-59.5 -23.5z" />
    <glyph glyph-name="uniFBB3" unicode="&#xfbb3;" 
d="M2 -352q-38 0 -62 23.5t-24 60.5t24 60.5t62 23.5q37 0 59.5 -23.5t22.5 -60.5t-22.5 -60.5t-59.5 -23.5z" />
    <glyph glyph-name="uniFBB4" unicode="&#xfbb4;" 
d="M-135 1124q-36 0 -60 24t-24 60t24 60t60 24q37 0 60.5 -23.5t23.5 -60.5t-23.5 -60.5t-60.5 -23.5zM137 1124q-37 0 -61.5 23.5t-24.5 60.5t24.5 60.5t61.5 23.5q35 0 58.5 -23.5t23.5 -60.5t-23.5 -60.5t-58.5 -23.5z" />
    <glyph glyph-name="uniFBB5" unicode="&#xfbb5;" 
d="M-135 -352q-36 0 -60 24t-24 60t24 60t60 24q37 0 60.5 -23.5t23.5 -60.5t-23.5 -60.5t-60.5 -23.5zM137 -352q-37 0 -61.5 23.5t-24.5 60.5t24.5 60.5t61.5 23.5q35 0 58.5 -23.5t23.5 -60.5t-23.5 -60.5t-58.5 -23.5z" />
    <glyph glyph-name="uniFBB6" unicode="&#xfbb6;" 
d="M6 1333q-37 0 -60.5 24.5t-23.5 61.5q0 34 24 59t60 25q35 0 58.5 -25t23.5 -59q0 -37 -23.5 -61.5t-58.5 -24.5zM-135 1130q-36 0 -60 24t-24 60q0 35 24.5 59.5t59.5 24.5q36 0 60 -24t24 -60q0 -37 -23.5 -60.5t-60.5 -23.5zM137 1130q-37 0 -61.5 23.5t-24.5 60.5
q0 35 24.5 59.5t61.5 24.5q35 0 58.5 -24.5t23.5 -59.5q0 -37 -23.5 -60.5t-58.5 -23.5z" />
    <glyph glyph-name="uniFBB9" unicode="&#xfbb9;" 
d="M-135 -354q-36 0 -60 24t-24 62q0 35 24.5 58.5t59.5 23.5q37 0 60.5 -23.5t23.5 -58.5q0 -38 -23.5 -62t-60.5 -24zM137 -354q-37 0 -61.5 24t-24.5 62q0 35 24.5 58.5t61.5 23.5q35 0 58.5 -23.5t23.5 -58.5q0 -38 -23 -62t-59 -24zM4 -555q-36 0 -60 24t-24 60
q0 37 23.5 60.5t60.5 23.5t60.5 -23.5t23.5 -60.5q0 -36 -24 -60t-60 -24z" />
    <glyph glyph-name="uniFD3E" unicode="&#xfd3e;" horiz-adv-x="1048" 
d="M229 641v-109l148 115h-90v35q-40 10 -58 23q16 10 58 20v33h90l-148 116v-108q-116 -41 -116 -61q0 -23 116 -64zM530 604q43 0 71 29t28 72q0 40 -28.5 69t-70.5 29q-38 0 -67 -30.5t-29 -67.5q0 -39 29 -70t67 -31zM651 131v88q-57 132 -67 213l137 -26l-129 133v-58
h-37v-63l-41 63h-45v58l-96 -138l125 29q20 -75 61.5 -161.5t91.5 -137.5zM373 1006l96 -140v56h45l41 65v-65h37v-54l129 131l-137 -26q10 80 67 215v86q-50 -52 -92 -137.5t-61 -161.5zM684 643l143 -108v106q49 10 83 29t34 35q0 13 -34.5 32t-82.5 29v106l-143 -108h82
v-37q28 -2 63 -22q-32 -23 -63 -25v-37h-82zM950 -199q-29 0 -99.5 58t-147 141t-144.5 188t-90 187l-139 -23h-6q-17 0 -23 15t6 32l117 162q16 13 16 35q0 16 -24 16q-15 0 -29 -14l-147 -131q-16 -16 -29 -16q-29 0 -29 38v115q-121 59 -121 101q0 39 121 98v112
q0 41 29 41q5 0 29 -18l147 -131q20 -14 29 -14q24 0 24 18q0 22 -16 35l-117 162q-11 17 -5.5 32t22.5 15h6l139 -23q22 82 90 187t144.5 188t147 141t99.5 58q17 0 17.5 -11t-13.5 -26q-142 -171 -220.5 -298.5t-90.5 -242.5l98 12q2 0 7.5 1t7.5 1q21 0 24.5 -11.5
t-10.5 -26.5l-129 -152q-23 -27 -23 -35q0 -14 21 -14q17 0 29 6l151 111q22 16 37 16q14 0 14 -21v-112q46 -16 84.5 -42t38.5 -56q0 -31 -38.5 -58t-84.5 -43v-115q0 -20 -14 -20q-15 0 -37 16l-151 113q-12 6 -29 6q-21 0 -21 -16q0 -2 23 -37l129 -148
q14 -15 10.5 -26.5t-24.5 -11.5q-2 0 -7.5 1t-7.5 1l-98 12q13 -124 95 -264.5t216 -276.5q10 -9 13 -17.5t-1.5 -14t-15.5 -5.5z" />
    <glyph glyph-name="uniFD3F" unicode="&#xfd3f;" horiz-adv-x="1048" 
d="M61 705q0 30 38.5 56t84.5 42v112q0 21 15 21t37 -16l151 -111q3 -2 9 -3.5t7 -2.5h13q20 0 20 14q0 9 -22 35l-129 152q-14 15 -10.5 26.5t24.5 11.5q2 0 7 -1t7 -1l99 -12q-3 28 -9 47q-24 107 -99.5 224t-203.5 270q-14 15 -13.5 26t17.5 11q40 0 143 -93t207 -233
t132 -248l139 23h6q17 0 22.5 -15t-5.5 -32l-117 -162q-17 -14 -17 -35q0 -18 25 -18q9 0 29 14l147 131q24 18 29 18q28 0 28 -41v-112q121 -59 121 -98q0 -42 -121 -101v-115q0 -38 -28 -38q-13 0 -29 16l-147 131q-14 14 -29 14q-25 0 -25 -16q0 -21 17 -35l117 -162
q12 -17 6 -32t-23 -15h-6l-139 23q-28 -108 -132 -248t-207 -233t-143 -93q-11 0 -15.5 5.5t-1.5 14t13 17.5q278 278 312 541h-9l-90 -12q-2 0 -7 -1t-7 -1q-21 0 -24.5 11.5t10.5 26.5l129 148q22 33 22 37q0 16 -20 16h-13q-1 -1 -7 -2.5t-9 -3.5l-151 -113
q-22 -16 -37 -16t-15 20v115q-46 16 -84.5 43t-38.5 58zM334 999l129 -131v54h37v65l41 -65h45v-56l96 140l-125 -31q-19 75 -61.5 161t-92.5 138v-86q59 -139 68 -215zM471 432q-9 -78 -68 -213v-88q50 51 92 137.5t62 161.5l125 -29l-96 138v-58h-45l-41 -63v63h-37v58
l-129 -133zM426 705q0 -43 28 -72t70 -29q33 0 62 25q35 35 35 76q0 38 -29.5 68t-67.5 30q-41 0 -69.5 -28.5t-28.5 -69.5zM227 641v-106l144 108h-82v37q-38 3 -62 27q31 17 62 20v37h82l-144 108v-106q-34 -7 -75 -24.5t-41 -36.5q0 -32 116 -64zM678 758h90v-33
q41 -10 57 -20q-18 -14 -57 -23v-35h-90l147 -115v109q31 10 74 30.5t43 33.5q0 18 -70 43q-24 10 -47 18v108z" />
    <glyph glyph-name="uniFEFF" unicode="&#xfeff;" 
 />
    <glyph glyph-name="uni066E.fina" horiz-adv-x="2043" 
d="M2044 117q41 0 41 -58q0 -59 -41 -59q-247 0 -330 160q-100 -160 -342 -160h-807q-224 0 -347.5 102.5t-123.5 282.5q0 141 66 320l114 -31q-55 -178 -55 -268q0 -289 363 -289h776q145 0 214.5 68t69.5 218v418h123v-444q0 -260 279 -260z" />
    <glyph glyph-name="uniFBE9.wide" horiz-adv-x="663" 
d="M664 117q41 0 41 -58q0 -59 -41 -59q-244 0 -328 156q-87 -156 -328 -156h-8v117h12q131 0 190.5 67.5t59.5 218.5v418h123v-444q0 -260 279 -260z" />
    <glyph glyph-name="uniFBE8.wide" horiz-adv-x="571" 
d="M0 0v117h12q131 0 190.5 67.5t59.5 218.5v418h123v-436q0 -385 -377 -385h-8z" />
    <glyph glyph-name="uni06A1.fina" horiz-adv-x="2201" 
d="M94 385q0 141 66 320l114 -31q-55 -178 -55 -268q0 -289 363 -289h657q123 0 182 14q-97 59 -156 149t-59 201q0 157 113 259t293 102q179 0 287 -101t108 -260q0 -114 -58 -204t-159 -148q76 -12 172 -12h240q41 0 41 -58q0 -59 -41 -59h-230q-213 0 -364 43
q-151 -43 -375 -43h-668q-224 0 -347.5 102.5t-123.5 282.5zM1610 723q-122 0 -199.5 -67.5t-77.5 -174.5q0 -112 79.5 -196.5t195.5 -120.5q111 34 191.5 119.5t80.5 199.5q0 108 -74.5 174t-195.5 66z" />
    <glyph glyph-name="uni06A1.medi" horiz-adv-x="1177" 
d="M0 117h215q123 0 182 14q-97 59 -156 149t-59 201q0 157 113 259t293 102q179 0 287 -101t108 -260q0 -114 -58 -204t-159 -148q76 -12 172 -12h240q41 0 41 -58q0 -59 -41 -59h-230q-213 0 -364 43q-151 -43 -375 -43h-209v117zM309 481q0 -112 79.5 -196.5
t195.5 -120.5q111 34 191.5 119.5t80.5 199.5q0 108 -74.5 174t-195.5 66q-122 0 -199.5 -67.5t-77.5 -174.5z" />
    <glyph glyph-name="uni06A1.init" horiz-adv-x="1130" 
d="M905 0h-905v117h297q-115 121 -115 299q0 187 119.5 306.5t310.5 119.5q96 0 170.5 -34t120.5 -94.5t69 -139t23 -171.5q0 -174 -90 -403zM309 414q0 -161 129 -297h381q49 158 49 280q0 151 -68.5 238.5t-197.5 87.5q-134 0 -213.5 -85.5t-79.5 -223.5z" />
    <glyph glyph-name="uni066F.fina" horiz-adv-x="1689" 
d="M94 139q0 124 47 267l115 -31q-37 -112 -37 -219q0 -187 139 -279t433 -92q255 0 383 52.5t147 162.5h-166q-477 0 -477 412q0 113 45.5 209.5t139.5 158.5t220 62q167 0 267 -106t100 -298v-321h240q41 0 41 -58q0 -59 -41 -59h-246q-28 -183 -186 -259.5t-467 -76.5
q-345 0 -521 120t-176 355zM805 414q0 -157 91 -227t275 -70h156v295q0 149 -64.5 230t-189.5 81q-120 0 -194 -83t-74 -226z" />
    <glyph glyph-name="uni06C2.fina" horiz-adv-x="1105" 
d="M209 115q-119 123 -119 299q0 179 125.5 299.5t343.5 120.5h287v-506q0 -120 57 -165.5t203 -45.5q41 0 41 -58q0 -59 -41 -59h-76q-156 0 -234.5 75.5t-78.5 213.5v428h-158q-150 0 -246 -79.5t-96 -225.5q0 -74 20 -123t62 -101zM332 1094v82h102q-43 67 -43 143
q0 88 58.5 139t152.5 51q59 0 127 -14l-16 -80q-68 10 -95 10q-59 0 -100 -29t-41 -89q0 -63 45 -131h232v-82h-422z" />
    <glyph glyph-name="uni06C3.fina" horiz-adv-x="1124" 
d="M412 1065q-36 0 -60 24t-24 60t24 60t60 24q37 0 60.5 -23.5t23.5 -60.5t-23.5 -60.5t-60.5 -23.5zM684 1065q-37 0 -61.5 23.5t-24.5 60.5t24.5 60.5t61.5 23.5q35 0 58.5 -23.5t23.5 -60.5t-23.5 -60.5t-58.5 -23.5zM1124 117q41 0 41 -58q0 -59 -41 -59
q-150 0 -232.5 28t-111.5 89q-147 -68 -286 -68q-191 0 -301.5 95t-110.5 264q0 189 125 301t344 112h326v-512q0 -112 54 -152t193 -40zM750 229v476h-222q-147 0 -234 -73t-87 -212q0 -122 77 -186t220 -64q144 0 246 59z" />
    <glyph glyph-name="uniFBAF.wide" horiz-adv-x="1570" 
d="M705 -532q-327 0 -482 79t-155 254q0 152 113 234t321 82h1069q41 0 41 -58q0 -59 -41 -59h-1082q-159 0 -232 -49.5t-73 -145.5q0 -116 126 -166.5t423 -50.5q333 0 752 74l6 -119q-454 -75 -786 -75z" />
    <glyph glyph-name="uniFBB1.wide" horiz-adv-x="1570" 
d="M68 -199q0 152 113 234t321 82h1069q41 0 41 -58q0 -59 -41 -59h-1082q-159 0 -232 -49.5t-73 -145.5q0 -116 126 -166.5t423 -50.5q333 0 752 74l6 -119q-454 -75 -786 -75q-327 0 -482 79t-155 254zM623 350h-328v66h80q-33 58 -33 108q0 70 47 112t121 42q40 0 94 -12
l-12 -66q-33 10 -72 10q-48 0 -78 -25t-30 -71q0 -45 32 -98h179v-66z" />
    <glyph glyph-name="uni06D5.fina" horiz-adv-x="1124" 
d="M1124 117q41 0 41 -58q0 -59 -41 -59q-150 0 -232.5 28t-111.5 89q-147 -68 -286 -68q-191 0 -301.5 95t-110.5 264q0 189 125 301t344 112h326v-512q0 -112 54 -152t193 -40zM750 229v476h-222q-147 0 -234 -73t-87 -212q0 -122 77 -186t220 -64q144 0 246 59z" />
    <glyph glyph-name="uni06440671" horiz-adv-x="1347" 
d="M61 117h447v1009h123v-1009h133q149 0 222 70.5t73 224.5v1136h123v-1167q0 -183 -104.5 -282t-301.5 -99h-715v117zM281 1282v66h104v202h66v-94q73 107 182 107q71 0 113 -47.5t42 -124.5q0 -59 -18 -109h-489zM444 1348h275q6 24 6 45q0 48 -27 75t-71 27
q-55 0 -105 -40.5t-78 -106.5z" />
    <glyph glyph-name="uni06440671.fina" horiz-adv-x="1460" 
d="M61 0v117h447v1009h123v-1009h133q149 0 222 70.5t73 224.5v1136h123v-1171q0 -260 278 -260q41 0 41 -58q0 -59 -41 -59q-252 0 -332 164q-97 -164 -352 -164h-715zM281 1348h104v202h66v-94q73 107 182 107q71 0 113 -47.5t42 -124.5q0 -59 -18 -109h-489v66zM627 1495
q-55 0 -105 -40.5t-78 -106.5h275q6 24 6 45q0 48 -27 75t-71 27z" />
    <glyph glyph-name="uni0660.lf" horiz-adv-x="464" 
d="M233 473l-131 131l131 125l129 -127z" />
    <glyph glyph-name="uni0661.lf" horiz-adv-x="573" 
d="M225 0v1337h123v-1337h-123z" />
    <glyph glyph-name="uni0662.lf" horiz-adv-x="1054" 
d="M225 0v1337h123v-295q146 -67 277 -67q132 0 180 83.5t33 270.5l123 8q17 -245 -63.5 -360t-274.5 -115q-128 0 -275 64v-926h-123z" />
    <glyph glyph-name="uni0663.lf" horiz-adv-x="1275" 
d="M225 1337h123v-305q82 -28 158 -28q97 0 134 78t22 247l122 8q15 -199 -32 -305q86 -28 151 -28q95 0 132 78t22 247l123 8q19 -220 -46.5 -332t-207.5 -112q-110 0 -238 53q-62 -53 -158 -53q-89 0 -182 33v-926h-123v1337z" />
    <glyph glyph-name="uni0664.lf" horiz-adv-x="1026" 
d="M897 117l6 -113q-160 -16 -252 -16q-240 0 -368.5 78t-128.5 235q0 125 85 225.5t238 159.5q-109 36 -182.5 106.5t-73.5 176.5q0 178 153 275t412 97q23 0 48 -2v-114q-20 2 -62 2q-196 0 -311 -66.5t-115 -193.5q0 -98 89.5 -155.5t254.5 -57.5q52 0 111 6v-117
q-256 -22 -389 -111.5t-133 -209.5q0 -112 97.5 -165t291.5 -53q69 0 229 13z" />
    <glyph glyph-name="uni0665.lf" horiz-adv-x="1198" 
d="M600 -16q-80 0 -145 18t-120 59t-92 105t-58 159.5t-21 219.5q0 161 25 295t67.5 225t99 154t118 91.5t126.5 28.5t127 -28.5t118.5 -91.5t98.5 -154t67 -225t25 -295q0 -124 -21 -219.5t-58 -159.5t-92 -105t-120 -59t-145 -18zM600 102q309 0 309 447
q0 309 -92.5 490.5t-216.5 181.5t-216.5 -181.5t-92.5 -490.5q0 -447 309 -447z" />
    <glyph glyph-name="uni0666.lf" horiz-adv-x="1064" 
d="M717 0v1223h-645v114h768v-1337h-123z" />
    <glyph glyph-name="uni0667.lf" horiz-adv-x="1220" 
d="M997 1350l131 -41l-448 -1309h-137l-451 1313l129 37l389 -1174z" />
    <glyph glyph-name="uni0668.lf" horiz-adv-x="1220" 
d="M1128 23l-131 -37l-387 1167l-389 -1167l-129 39l449 1310h135z" />
    <glyph glyph-name="uni0669.lf" horiz-adv-x="1099" 
d="M133 936q0 186 116.5 293.5t317.5 107.5h307v-1337h-122v578q-68 -7 -115 -7q-112 0 -202.5 21.5t-159 65t-105.5 114.5t-37 164zM258 936q0 -85 51 -143t133 -83.5t189 -25.5q66 0 121 8v531h-158q-157 0 -246.5 -75.5t-89.5 -211.5z" />
    <glyph glyph-name="uni06F0.lf" horiz-adv-x="464" 
d="M233 473l-131 131l131 125l129 -127z" />
    <glyph glyph-name="uni06F1.lf" horiz-adv-x="573" 
d="M225 0v1337h123v-1337h-123z" />
    <glyph glyph-name="uni06F2.lf" horiz-adv-x="1054" 
d="M225 0v1337h123v-295q146 -67 277 -67q132 0 180 83.5t33 270.5l123 8q17 -245 -63.5 -360t-274.5 -115q-128 0 -275 64v-926h-123z" />
    <glyph glyph-name="uni06F3.lf" horiz-adv-x="1275" 
d="M225 1337h123v-305q82 -28 158 -28q97 0 134 78t22 247l122 8q15 -199 -32 -305q86 -28 151 -28q95 0 132 78t22 247l123 8q19 -220 -46.5 -332t-207.5 -112q-110 0 -238 53q-62 -53 -158 -53q-89 0 -182 33v-926h-123v1337z" />
    <glyph glyph-name="uni06F4.lf" horiz-adv-x="1239" 
d="M225 1337h123v-329q124 -45 293 -64q-31 88 -31 160q0 122 68.5 185t200.5 63q84 0 182 -25l-29 -113q-71 23 -143 23q-168 0 -168 -160q0 -61 31 -139h18q192 0 360 33l17 -111q-182 -37 -379 -37q-107 0 -220 19.5t-200 50.5v-893h-123v1337z" />
    <glyph glyph-name="uni06F5.lf" horiz-adv-x="1218" 
d="M453 -12q-135 0 -212 128.5t-77 401.5q0 161 29 299t76 232t107 161t121 98t119 31q62 0 123 -29t119 -94t102 -158.5t70.5 -233t26.5 -306.5q0 -255 -73.5 -392.5t-190.5 -137.5q-92 0 -179 80q-80 -80 -161 -80zM469 104q26 0 52 12.5t53 31.5t38 24q8 -4 35.5 -23.5
t57 -32t61.5 -12.5q71 0 117.5 111t46.5 305q0 133 -18.5 248.5t-49.5 197.5t-72 141t-85 87.5t-89 28.5q-44 0 -89.5 -30.5t-87.5 -91.5t-75 -143t-53 -195t-20 -239q0 -209 51 -314.5t127 -105.5z" />
    <glyph glyph-name="uni06F6.lf" horiz-adv-x="1026" 
d="M829 889l97 -82l-721 -844l-99 80l498 582q-201 20 -314.5 111t-113.5 233q0 170 146 270t419 100h50v-114q-10 0 -29.5 1t-28.5 1q-209 0 -319.5 -69.5t-110.5 -190.5q0 -102 103.5 -162.5t291.5 -67.5z" />
    <glyph glyph-name="uni06F7.lf" horiz-adv-x="1220" 
d="M997 1350l131 -41l-448 -1309h-137l-451 1313l129 37l389 -1174z" />
    <glyph glyph-name="uni06F8.lf" horiz-adv-x="1220" 
d="M1128 23l-131 -37l-387 1167l-389 -1167l-129 39l449 1310h135z" />
    <glyph glyph-name="uni06F9.lf" horiz-adv-x="1099" 
d="M133 936q0 186 116.5 293.5t317.5 107.5h307v-1337h-122v578q-68 -7 -115 -7q-112 0 -202.5 21.5t-159 65t-105.5 114.5t-37 164zM258 936q0 -85 51 -143t133 -83.5t189 -25.5q66 0 121 8v531h-158q-157 0 -246.5 -75.5t-89.5 -211.5z" />
    <glyph glyph-name="uni06F4.urdu" horiz-adv-x="1105" 
d="M717 969q-84 250 -221 250q-64 0 -102 -53.5t-38 -151.5v-1014h-123v1014q0 163 69.5 248.5t182.5 85.5q178 0 291 -246q67 94 205 225l82 -84q-145 -135 -246 -274h-100z" />
    <glyph glyph-name="uni06F7.urdu" horiz-adv-x="1105" 
d="M215 0l-76 117l580 1216l121 -53l-559 -1163h690v-117h-756z" />
    <glyph glyph-name="uni06F4.urdu.lf" horiz-adv-x="1013" 
d="M668 969q-84 250 -222 250q-64 0 -101.5 -53.5t-37.5 -151.5v-1014h-123v1014q0 163 69.5 248.5t182.5 85.5q178 0 291 -246q67 94 205 225l82 -84q-145 -135 -246 -274h-100z" />
    <glyph glyph-name="uni06F7.urdu.lf" horiz-adv-x="974" 
d="M158 0l-76 117l580 1216l120 -53l-559 -1163h690v-117h-755z" />
    <glyph glyph-name="acute.case" horiz-adv-x="491" 
d="M504 1835l-275 -295h-102l213 295h164z" />
    <glyph glyph-name="breve.case" horiz-adv-x="491" 
d="M-49 1804h86q11 -75 65 -117t142 -42q99 0 146 38t65 121h86q-13 -122 -93 -190t-206 -68q-129 0 -207 69.5t-84 188.5z" />
    <glyph glyph-name="caron.case" horiz-adv-x="491" 
d="M170 1540l-223 295h127l170 -233l176 233h110l-217 -295h-143z" />
    <glyph glyph-name="circumflex.case" horiz-adv-x="491" 
d="M74 1540h-121l221 295h143l222 -295h-133l-166 221z" />
    <glyph glyph-name="dieresis.case" horiz-adv-x="491" 
d="M51 1819q41 0 70 -29t29 -70q0 -42 -28.5 -70t-70.5 -28q-43 0 -70.5 27.5t-27.5 70.5q0 41 28.5 70t69.5 29zM440 1819q41 0 70 -29t29 -70t-29 -69.5t-70 -28.5q-43 0 -70.5 27.5t-27.5 70.5q0 41 28.5 70t69.5 29z" />
    <glyph glyph-name="dotaccent.case" horiz-adv-x="491" 
d="M252 1819q41 0 69.5 -29t28.5 -70q0 -43 -27.5 -70.5t-70.5 -27.5q-42 0 -70 28t-28 70q0 41 28.5 70t69.5 29z" />
    <glyph glyph-name="grave.case" horiz-adv-x="491" 
d="M152 1835l213 -295h-103l-274 295h164z" />
    <glyph glyph-name="hungarumlaut.case" horiz-adv-x="491" 
d="M379 1540h-103l213 295h164zM80 1540h-103l213 295h164z" />
    <glyph glyph-name="macron.case" horiz-adv-x="491" 
d="M516 1735v-99h-541v99h541z" />
    <glyph glyph-name="ring.case" horiz-adv-x="491" 
d="M248 1909q75 0 131.5 -59t56.5 -138q0 -78 -56 -135t-132 -57q-78 0 -135.5 57.5t-57.5 136.5t57.5 137t135.5 58zM129 1712q0 -50 33.5 -84.5t83.5 -34.5q49 0 82.5 35t33.5 86q0 53 -33 87t-83 34q-49 0 -83 -36t-34 -87z" />
    <glyph glyph-name="tilde.case" horiz-adv-x="491" 
d="M111 1784q53 0 150 -49t132 -49q75 0 99 98h73q-10 -97 -57.5 -153t-114.5 -56q-54 0 -153.5 49t-135.5 49q-77 0 -104 -98h-74q14 93 65 151t120 58z" />
    <glyph glyph-name="waslaar" 
d="M-254 1114v66h104v202h66v-94q73 107 182 107q71 0 113.5 -47.5t42.5 -124.5q0 -59 -18 -109h-490zM92 1327q-55 0 -104.5 -40.5t-77.5 -106.5h274q6 24 6 45q0 48 -27 75t-71 27z" />
    <glyph glyph-name="gafsarkashabovear" 
d="M-217 805l-84 84l520 493l82 -82z" />
    <glyph glyph-name="uni0654.big" 
d="M-211 1223h102q-43 67 -43 143q0 88 58.5 139t152.5 51q59 0 127 -14l-16 -80q-74 11 -94 11q-59 0 -100.5 -29.5t-41.5 -89.5q0 -61 46 -131h231v-82h-422v82z" />
    <glyph glyph-name="uni0654064F" 
d="M-158 1583l29 57q39 -22 86 -22q44 0 80 28t55 76q-24 -4 -41 -4q-61 0 -101 31t-40 90q0 61 39.5 106.5t95.5 45.5q55 0 90 -50.5t35 -130.5q0 -121 -62 -189.5t-151 -68.5q-62 0 -115 31zM-164 1114v66h80q-33 58 -33 108q0 70 47 112t121 42q40 0 94 -12l-12 -66
q-33 10 -72 10q-48 0 -78 -25t-30 -71q0 -44 33 -98h178v-66h-328zM39 1925q-31 0 -50.5 -24t-19.5 -56q0 -63 94 -63q15 0 43 4q3 12 3 24q0 49 -18 82t-52 33z" />
    <glyph glyph-name="uni0654064C" 
d="M-279 1630l-43 39q65 94 136 94q25 0 48.5 -15t42.5 -36.5t37 -42.5t40 -36t45 -15q42 0 75.5 28.5t51.5 75.5q-24 -4 -41 -4q-61 0 -101.5 31t-40.5 90q0 61 39.5 106.5t95.5 45.5q55 0 90 -50.5t35 -130.5q0 -112 -63 -185t-145 -73q-32 0 -60.5 15t-48.5 37t-37 44
t-34 37t-33 15q-37 0 -89 -70zM-164 1114v66h80q-33 58 -33 108q0 70 47 112t121 42q40 0 94 -12l-12 -66q-33 10 -72 10q-48 0 -78 -25t-30 -71q0 -44 33 -98h178v-66h-328zM31 1845q0 -63 94 -63q15 0 43 4q2 8 2 24q0 50 -17 82.5t-51 32.5q-31 0 -51 -24t-20 -56z" />
    <glyph glyph-name="uni0654064E" 
d="M-164 1180h80q-33 58 -33 108q0 70 47 112t121 42q40 0 94 -12l-12 -66q-33 10 -72 10q-48 0 -78 -25t-30 -71q0 -44 33 -98h178v-66h-328v66zM-227 1542l10 66l459 69l6 -2l-10 -65l-459 -70z" />
    <glyph glyph-name="uni0654064B" 
d="M164 1114h-328v66h80q-33 58 -33 108q0 70 47 112t121 42q40 0 94 -12l-12 -66q-33 10 -72 10q-48 0 -78 -25t-30 -71q0 -44 33 -98h178v-66zM-221 1540l-6 2l10 66l459 69l6 -2l-10 -65zM-221 1726l-6 3l10 65l459 70l6 -2l-10 -66z" />
    <glyph glyph-name="uni06540652" 
d="M-111 1681q0 64 38 113t98 49t97.5 -49t37.5 -113q0 -63 -36 -98t-99 -35q-64 0 -100 35t-36 98zM164 1114h-328v66h80q-33 58 -33 108q0 70 47 112t121 42q40 0 94 -12l-12 -66q-33 10 -72 10q-48 0 -78 -25t-30 -71q0 -44 33 -98h178v-66zM25 1776q-31 0 -50.5 -26
t-19.5 -64q0 -72 70 -72q67 0 67 72q0 38 -18.5 64t-48.5 26z" />
    <glyph glyph-name="uni06550650" 
d="M-164 -512v66h78q-31 51 -31 106q0 70 46.5 113t119.5 43q42 0 96 -15l-12 -63q-33 10 -72 10q-48 0 -78 -25t-30 -71q0 -51 33 -98h178v-66h-328zM-223 -774l-6 2l10 65l459 70l6 -2l-10 -66z" />
    <glyph glyph-name="uni0655064D" 
d="M164 -512h-328v66h78q-31 51 -31 106q0 70 46.5 113t119.5 43q42 0 96 -15l-12 -63q-33 10 -72 10q-48 0 -78 -25t-30 -71q0 -51 33 -98h178v-66zM-223 -938l-6 2l10 66l459 69l6 -2l-10 -65zM-223 -774l-6 2l10 65l459 70l6 -2l-10 -66z" />
    <glyph glyph-name="uni06510670" 
d="M20 1468l-55 -20h-10v358h65v-338zM203 1403q28 -55 28 -117q0 -61 -31 -99t-89 -38q-64 0 -99 35q-31 -58 -108 -58q-64 0 -99.5 36t-35.5 95q0 47 20 97l49 -15q-10 -29 -10 -61q0 -39 20 -59.5t56 -20.5q67 0 67 80q0 23 -6 47l51 12q13 -47 13 -77v-11q28 -32 77 -32
q66 0 66 71q0 44 -18 94z" />
    <glyph glyph-name="uni0651064F" 
d="M150 1694q0 -121 -62 -189.5t-151 -68.5q-63 0 -115 30l28 58q41 -23 87 -23q44 0 80 28.5t55 76.5q-24 -4 -41 -4q-61 0 -101.5 31t-40.5 89q0 61 40 106.5t96 45.5q55 0 90 -50t35 -130zM43 1665q15 0 43 4q2 8 2 25q0 49 -18 81.5t-52 32.5q-31 0 -50 -23.5t-19 -55.5
q0 -64 94 -64zM203 1403q28 -55 28 -117q0 -61 -31 -99t-89 -38q-64 0 -99 35q-31 -58 -108 -58q-64 0 -99.5 36t-35.5 95q0 47 20 97l49 -15q-10 -29 -10 -61q0 -39 20 -59.5t56 -20.5q67 0 67 80q0 23 -6 47l51 12q13 -47 13 -77v-11q28 -32 77 -32q66 0 66 71
q0 44 -18 94z" />
    <glyph glyph-name="uni0651064C" 
d="M2 1436q-32 0 -60.5 15t-48.5 37t-37 43.5t-34 36.5t-33 15q-36 0 -88 -70l-43 39q66 95 135 95q31 0 60.5 -23t49 -50t47.5 -50t56 -23q42 0 75.5 29t51.5 76q-24 -4 -41 -4q-61 0 -101 30.5t-40 89.5q0 61 39.5 106.5t95.5 45.5q55 0 90 -50t35 -130q0 -112 -63.5 -185
t-145.5 -73zM104 1665q15 0 43 4q3 12 3 25q0 50 -17 82t-51 32q-31 0 -51.5 -23.5t-20.5 -55.5q0 -64 94 -64zM203 1403q28 -55 28 -117q0 -61 -31 -99t-89 -38q-64 0 -99 35q-31 -58 -108 -58q-64 0 -99.5 36t-35.5 95q0 47 20 97l49 -15q-10 -29 -10 -61q0 -39 20 -59.5
t56 -20.5q67 0 67 80q0 23 -6 47l51 12q13 -47 13 -77v-11q28 -32 77 -32q66 0 66 71q0 44 -18 94z" />
    <glyph glyph-name="uni0651064E" 
d="M227 1559l-10 -66l-459 -70l-6 2l10 66l459 70zM203 1403q28 -55 28 -117q0 -61 -31 -99t-89 -38q-64 0 -99 35q-31 -58 -108 -58q-64 0 -99.5 36t-35.5 95q0 47 20 97l49 -15q-10 -29 -10 -61q0 -39 20 -59.5t56 -20.5q67 0 67 80q0 23 -6 47l51 12q13 -47 13 -77v-11
q28 -32 77 -32q66 0 66 71q0 44 -18 94z" />
    <glyph glyph-name="uni0651064B.1" 
d="M217 1679l-459 -69l-6 2l10 65l459 70l6 -2zM227 1559l-10 -66l-459 -70l-6 2l10 66l459 70zM203 1403q28 -55 28 -117q0 -61 -31 -99t-89 -38q-64 0 -99 35q-31 -58 -108 -58q-64 0 -99.5 36t-35.5 95q0 47 20 97l49 -15q-10 -29 -10 -61q0 -39 20 -59.5t56 -20.5
q67 0 67 80q0 23 -6 47l51 12q13 -47 13 -77v-11q28 -32 77 -32q66 0 66 71q0 44 -18 94z" />
    <glyph glyph-name="uni06510650" 
d="M-86 1313q-64 0 -99.5 36t-35.5 95q0 46 20 96l49 -14q-10 -29 -10 -62q0 -39 20 -59.5t56 -20.5q68 0 68 80q0 19 -7 47l52 13q12 -44 12 -78v-10q29 -33 78 -33q65 0 65 72q0 45 -18 94l49 20q29 -57 29 -116q0 -61 -31.5 -99.5t-89.5 -38.5q-63 0 -98 35
q-31 -57 -109 -57zM-227 1182l458 69l7 -2l-11 -65l-458 -70l-7 2z" />
    <glyph glyph-name="uni0651064D" 
d="M-86 1499q-64 0 -99.5 36t-35.5 95q0 46 20 96l49 -14q-10 -29 -10 -61q0 -39 20 -59.5t56 -20.5q68 0 68 80q0 19 -7 47l52 12q12 -44 12 -78v-10q29 -33 78 -33q65 0 65 72q0 45 -18 94l49 21q29 -57 29 -117q0 -61 -31.5 -99t-89.5 -38q-64 0 -98 34q-31 -57 -109 -57
zM-227 1368l458 70l7 -2l-11 -66l-458 -70l-7 3zM-227 1182l458 69l7 -2l-11 -65l-458 -70l-7 2z" />
    </font>
</defs>
</svg>
