<?xml version="1.0" standalone="no"?>
<!DOCTYPE svg PUBLIC "-//W3C//DTD SVG 1.1//EN" "http://www.w3.org/Graphics/SVG/1.1/DTD/svg11.dtd" >
<svg xmlns="http://www.w3.org/2000/svg" xmlns:xlink="http://www.w3.org/1999/xlink" version="1.1">
<metadata>
Created by FontForge 20170731 at Fri Dec  1 07:20:34 2023
 By Aleksey,,,
Copyright (c) 2018 Monotype GmbH. All rights reserved.
</metadata>
<defs>
<font id="Avenir-Heavy" horiz-adv-x="0" >
  <font-face 
    font-family="Avenir Heavy"
    font-weight="850"
    font-stretch="normal"
    units-per-em="2048"
    panose-1="2 11 7 3 2 2 3 2 2 4"
    ascent="1638"
    descent="-410"
    x-height="983"
    cap-height="1450"
    bbox="-371 -979 2826 2220"
    underline-thickness="102"
    underline-position="-358"
    unicode-range="U+000D-FEFF"
  />
<missing-glyph horiz-adv-x="1048" 
d="M1049 1470v-1470h-1049v1470h1049zM946 102v1264h-844v-1264h844zM530 1247q113 0 183.5 -74t70.5 -194q0 -77 -29 -129.5t-104 -118.5q-73 -66 -84 -102q-12 -30 -12 -150h-94l-4 39q0 107 26.5 163.5t104.5 129.5q46 43 69 79.5t23 80.5q0 72 -47.5 123t-108.5 51
q-69 0 -112.5 -50t-55.5 -145l-102 17q12 137 83.5 208.5t192.5 71.5zM455 377h114v-137h-114v137z" />
    <glyph glyph-name="uniFB51" unicode="&#x671;" horiz-adv-x="589" arabic-form="final" 
d="M590 0q-246 0 -350.5 92.5t-104.5 290.5v1165h242v-1159q0 -90 50.5 -131t162.5 -41q41 0 41 -115q0 -102 -41 -102zM-25 1649v110h93v207h104v-86q72 92 172 92q78 0 125 -50t47 -134q0 -68 -29 -139h-512zM164 1759h235q4 10 4 27q0 34 -22 55t-59 21
q-42 0 -84.5 -26.5t-73.5 -76.5z" />
    <glyph glyph-name="uniFB57" unicode="&#x67e;" horiz-adv-x="2066" arabic-form="final" 
d="M2066 217q41 0 41 -115q0 -102 -41 -102q-210 0 -292 115q-95 -115 -295 -115h-918q-233 0 -368.5 113.5t-135.5 298.5q0 152 66 327l213 -55q-39 -147 -39 -223q0 -119 79 -181.5t222 -62.5h809q107 0 153 48t46 165v426h241v-432q0 -207 219 -207zM899 -299
q0 -57 -36 -94t-93 -37q-56 0 -93.5 37t-37.5 94q0 55 37.5 93t93.5 38t92.5 -37.5t36.5 -93.5zM1106 -168q54 0 90.5 -37.5t36.5 -93.5q0 -57 -36.5 -94t-90.5 -37q-58 0 -95.5 37t-37.5 94q0 56 37.5 93.5t95.5 37.5zM942 -442q57 0 92 -37t35 -96q0 -55 -35.5 -91
t-91.5 -36t-93.5 36.5t-37.5 90.5q0 58 37.5 95.5t93.5 37.5z" />
    <glyph glyph-name="uniFB58" unicode="&#x67e;" horiz-adv-x="638" arabic-form="initial" 
d="M0 0v217h41q122 0 166.5 51.5t44.5 188.5v399h242v-432q0 -230 -107.5 -327t-343.5 -97h-43zM129 -430q-56 0 -93.5 37t-37.5 94q0 55 38 93t93 38q56 0 92.5 -37.5t36.5 -93.5q0 -57 -36 -94t-93 -37zM465 -430q-58 0 -95.5 37t-37.5 94q0 56 37.5 93.5t95.5 37.5
q54 0 90.5 -37.5t36.5 -93.5q0 -57 -36.5 -94t-90.5 -37zM301 -702q-56 0 -93.5 36.5t-37.5 90.5q0 58 37.5 95.5t93.5 37.5q57 0 92 -37t35 -96q0 -55 -35.5 -91t-91.5 -36z" />
    <glyph glyph-name="uniFB59" unicode="&#x67e;" horiz-adv-x="712" arabic-form="medial" 
d="M713 217q41 0 41 -115q0 -102 -41 -102q-217 0 -301 123q-101 -123 -369 -123h-43v217h41q122 0 166.5 51.5t44.5 188.5v399h242v-432q0 -207 219 -207zM299 -299q0 -57 -36 -94t-93 -37q-56 0 -93.5 37t-37.5 94q0 55 37.5 93t93.5 38t92.5 -37.5t36.5 -93.5zM506 -168
q54 0 90.5 -37.5t36.5 -93.5q0 -57 -36.5 -94t-90.5 -37q-58 0 -95.5 37t-37.5 94q0 56 37.5 93.5t95.5 37.5zM342 -442q57 0 92 -37t35 -96q0 -55 -35.5 -91t-91.5 -36t-93.5 36.5t-37.5 90.5q0 58 37.5 95.5t93.5 37.5z" />
    <glyph glyph-name="uniFB67" unicode="&#x679;" horiz-adv-x="2066" arabic-form="final" 
d="M57 412q0 152 66 327l213 -55q-39 -147 -39 -223q0 -119 79 -181.5t222 -62.5h809q107 0 153 48t46 165v426h241v-432q0 -207 219 -207q41 0 41 -115q0 -102 -41 -102q-210 0 -292 115q-95 -115 -295 -115h-918q-233 0 -368.5 113.5t-135.5 298.5zM643 1010h94v350h117
v-199q75 94 180 94q89 0 144 -59t55 -158q0 -60 -29 -149h-561v121zM1020 1135q-46 0 -91.5 -32.5t-78.5 -92.5h258q2 10 2 28q0 44 -24.5 70.5t-65.5 26.5z" />
    <glyph glyph-name="uniFB68" unicode="&#x679;" horiz-adv-x="548" arabic-form="initial" 
d="M449 424q0 -233 -108 -328.5t-341 -95.5v217q119 0 163 50t44 190v399h242v-432zM8 1104v121h94v350h117v-199q75 94 180 94q89 0 144 -59t55 -158q0 -60 -29 -149h-561zM215 1225h258q2 10 2 28q0 44 -24.5 70.5t-65.5 26.5q-46 0 -91.5 -32.5t-78.5 -92.5z" />
    <glyph glyph-name="uniFB69" unicode="&#x679;" horiz-adv-x="667" arabic-form="medial" 
d="M367 123q-101 -123 -367 -123v217q119 0 163 50t44 190v399h242v-432q0 -207 219 -207q41 0 41 -115q0 -102 -41 -102q-217 0 -301 123zM8 1104v121h94v350h117v-199q75 94 180 94q89 0 144 -59t55 -158q0 -60 -29 -149h-561zM215 1225h258q2 10 2 28q0 44 -24.5 70.5
t-65.5 26.5q-46 0 -91.5 -32.5t-78.5 -92.5z" />
    <glyph glyph-name="uniFB6B" unicode="&#x6a4;" horiz-adv-x="2238" arabic-form="final" 
d="M1653 1380q-55 0 -92 38t-37 95q0 55 37 93.5t92 38.5q56 0 92.5 -38.5t36.5 -93.5q0 -57 -36 -95t-93 -38zM1479 1102q-56 0 -93.5 38t-37.5 95q0 56 37.5 92.5t93.5 36.5q57 0 93 -36t36 -93t-36 -95t-93 -38zM1681 1235q0 57 37.5 93t96.5 36q55 0 91 -36t36 -93
t-36.5 -95t-90.5 -38q-58 0 -96 38t-38 95zM2238 217q41 0 41 -115q0 -102 -41 -102h-229q-208 0 -373 33q-176 -33 -358 -33h-705q-233 0 -368 113t-135 299q0 155 65 327l213 -55q-39 -147 -39 -223q0 -119 79 -181.5t222 -62.5h674q-102 105 -102 260q0 168 126 285
t341 117q211 0 332.5 -115t121.5 -281q0 -150 -104 -266h239zM1640 236q75 10 148.5 77.5t73.5 157.5q0 80 -60 132t-157 52t-158.5 -50.5t-61.5 -133.5q0 -85 69 -151.5t146 -83.5z" />
    <glyph glyph-name="uniFB6C" unicode="&#x6a4;" horiz-adv-x="1175" arabic-form="initial" 
d="M0 0v217h197q-50 88 -50 205q0 198 131.5 327.5t352.5 129.5q98 0 176.5 -28.5t127.5 -74.5t81.5 -107t45.5 -121.5t13 -123.5q0 -203 -82 -424h-993zM621 655q-109 0 -169.5 -64t-60.5 -167q0 -100 60 -207h358q25 103 25 184q0 112 -52.5 183t-160.5 71zM461 1102
q-56 0 -93.5 38t-37.5 95q0 56 37.5 92.5t93.5 36.5q57 0 93 -36t36 -93t-36 -95t-93 -38zM664 1235q0 57 37 93t96 36q55 0 91 -36t36 -93t-36.5 -95t-90.5 -38q-58 0 -95.5 38t-37.5 95zM635 1380q-55 0 -92 38t-37 95q0 55 37 93.5t92 38.5q56 0 92.5 -38.5t36.5 -93.5
q0 -57 -36 -95t-93 -38z" />
    <glyph glyph-name="uniFB6D" unicode="&#x6a4;" horiz-adv-x="1204" arabic-form="medial" 
d="M618 1380q-55 0 -92 38t-37 95q0 55 37 93.5t92 38.5q56 0 93 -38.5t37 -93.5q0 -57 -36.5 -95t-93.5 -38zM444 1102q-56 0 -93.5 38t-37.5 95q0 56 37.5 92.5t93.5 36.5q57 0 93 -36t36 -93t-36 -95t-93 -38zM647 1235q0 57 37 93t96 36q54 0 90.5 -36t36.5 -93
t-36.5 -95t-90.5 -38q-58 0 -95.5 38t-37.5 95zM1204 217q41 0 41 -115q0 -102 -41 -102h-229q-208 0 -373 33q-176 -33 -358 -33h-244v217h250q-103 106 -103 260q0 168 126 285t341 117q211 0 333 -115t122 -281q0 -150 -104 -266h239zM606 236q75 10 148 77.5t73 157.5
q0 80 -60 132t-157 52t-158 -50.5t-61 -133.5q0 -85 69 -151.5t146 -83.5z" />
    <glyph glyph-name="uniFB7B" unicode="&#x686;" horiz-adv-x="1302" arabic-form="final" 
d="M504 -532q-196 0 -320.5 98.5t-124.5 269.5q0 177 112 279t304 102h434q4 40 4 62q0 188 -83.5 282t-258.5 94q-89 0 -204 -28l-54 204q136 48 279 48q144 0 251.5 -41.5t172 -118.5t96 -179.5t31.5 -232.5q0 -28 -4 -90h164q40 0 40 -115q0 -54 -9 -78t-31 -24h-816
q-86 0 -133 -42t-47 -116q0 -77 56 -119t145 -42q17 0 45 4l18 -213q-36 -4 -67 -4zM801 -166q0 39 26.5 65.5t65.5 26.5q38 0 64 -27t26 -65q0 -40 -26 -66t-64 -26q-40 0 -66 26t-26 66zM686 -360q0 41 26.5 67.5t65.5 26.5q40 0 65 -26.5t25 -67.5q0 -37 -25.5 -63
t-64.5 -26q-38 0 -65 26t-27 63zM567 -166q0 38 26 65t64 27q39 0 65 -26.5t26 -65.5q0 -40 -25.5 -66t-65.5 -26q-38 0 -64 26t-26 66z" />
    <glyph glyph-name="uniFB7C" unicode="&#x686;" horiz-adv-x="985" arabic-form="initial" 
d="M0 0v217h635q7 40 8.5 80.5t-4 84t-18.5 82.5t-39 74.5t-62 61t-89.5 40.5t-119.5 15q-92 0 -207 -28l-53 204q130 48 281 48q148 0 257.5 -42.5t174.5 -119.5t95.5 -187.5t26 -242t-39.5 -287.5h-846zM242 -430q-56 0 -93.5 37t-37.5 94q0 55 37.5 93t93.5 38
t92.5 -37.5t36.5 -93.5q0 -57 -36 -94t-93 -37zM578 -430q-58 0 -96 37t-38 94q0 56 38 93.5t96 37.5q54 0 90.5 -37.5t36.5 -93.5q0 -57 -36.5 -94t-90.5 -37zM414 -702q-56 0 -93.5 36.5t-37.5 90.5q0 58 37.5 95.5t93.5 37.5q57 0 92 -37t35 -96q0 -55 -35.5 -91
t-91.5 -36z" />
    <glyph glyph-name="uniFB7D" unicode="&#x686;" horiz-adv-x="1030" arabic-form="medial" 
d="M0 0v217h635q7 40 8.5 80.5t-4 84t-18.5 82.5t-39 74.5t-62 61t-89.5 40.5t-119.5 15q-92 0 -207 -28l-53 204q130 48 281 48q157 0 270.5 -47.5t178 -136.5t89 -208.5t11.5 -269.5h149q41 0 41 -115q0 -102 -41 -102h-1030zM242 -430q-56 0 -93.5 37t-37.5 94
q0 55 37.5 93t93.5 38t92.5 -37.5t36.5 -93.5q0 -57 -36 -94t-93 -37zM444 -299q0 56 38 93.5t96 37.5q54 0 90.5 -37.5t36.5 -93.5q0 -57 -36.5 -94t-90.5 -37q-58 0 -96 37t-38 94zM283 -575q0 58 37.5 95.5t93.5 37.5q57 0 92 -37t35 -96q0 -55 -35.5 -91t-91.5 -36
t-93.5 36.5t-37.5 90.5z" />
    <glyph glyph-name="uniFB89" unicode="&#x688;" horiz-adv-x="1083" arabic-form="final" 
d="M1083 0h-1013v217h620v4q0 74 -33.5 151t-89 142.5t-117.5 118.5t-128 94l145 195q128 -83 217.5 -169t140.5 -174.5t75 -174.5t30 -187h153q41 0 41 -115q0 -102 -41 -102zM61 1081v121h95v350h116v-198q75 94 181 94q89 0 143.5 -59t54.5 -158q0 -64 -28 -150h-562z
M268 1202h258q2 10 2 29q0 44 -24.5 70t-65.5 26q-46 0 -91.5 -32.5t-78.5 -92.5z" />
    <glyph glyph-name="uniFB8B" unicode="&#x698;" horiz-adv-x="702" arabic-form="final" 
d="M377 1358q-55 0 -92 38t-37 95q0 55 37 93t92 38q56 0 92.5 -38t36.5 -93q0 -57 -36 -95t-93 -38zM203 1079q-56 0 -93.5 38t-37.5 95q0 56 37.5 92.5t93.5 36.5q57 0 93 -36t36 -93t-36 -95t-93 -38zM406 1212q0 57 37 93t96 36q55 0 91 -36.5t36 -92.5q0 -57 -36.5 -95
t-90.5 -38q-58 0 -95.5 38t-37.5 95zM702 217q41 0 41 -115q0 -102 -41 -102h-219q-29 -177 -140.5 -269.5t-315.5 -105.5l-37 209q143 21 202.5 77t59.5 183v762h242v-639h208z" />
    <glyph glyph-name="uniFB8D" unicode="&#x691;" horiz-adv-x="702" arabic-form="final" 
d="M27 -375l-37 209q143 21 202.5 77t59.5 183v762h242v-639h208q41 0 41 -115q0 -102 -41 -102h-219q-29 -177 -140.5 -269.5t-315.5 -105.5zM614 1104h-561v121h94v350h117v-199q75 94 180 94q89 0 144 -59t55 -158q0 -60 -29 -149zM260 1225h258q2 10 2 28
q0 44 -24.5 70.5t-65.5 26.5q-46 0 -91.5 -32.5t-78.5 -92.5z" />
    <glyph glyph-name="uniFB8F" unicode="&#x6a9;" horiz-adv-x="1853" arabic-form="final" 
d="M57 412q0 152 66 327l213 -55q-39 -147 -39 -223q0 -119 79 -181.5t222 -62.5h827v21q0 100 -25.5 173.5t-89.5 138t-175.5 113t-280.5 87.5v227l580 559l155 -160l-491 -475q139 -42 240.5 -99t163 -118.5t98.5 -140t50.5 -154.5t14.5 -172h188q41 0 41 -115
q0 -102 -41 -102h-1292q-233 0 -368.5 113.5t-135.5 298.5z" />
    <glyph glyph-name="uniFB90" unicode="&#x6a9;" horiz-adv-x="974" arabic-form="initial" 
d="M307 901q143 -44 246.5 -103t164.5 -122.5t97 -146t47.5 -160.5t11.5 -179v-190h-874v217h635v21q0 100 -26 173.5t-90 138t-175.5 113t-280.5 87.5v227l580 559l156 -160z" />
    <glyph glyph-name="uniFB91" unicode="&#x6a9;" horiz-adv-x="1060" arabic-form="medial" 
d="M0 0v217h635v21q0 100 -26 173.5t-90 138t-175.5 113t-280.5 87.5v227l580 559l156 -160l-492 -475q139 -42 240.5 -99t163 -118.5t98.5 -140t50.5 -154.5t14.5 -172h187q41 0 41 -115q0 -102 -41 -102h-1061z" />
    <glyph glyph-name="uniFB93" unicode="&#x6af;" horiz-adv-x="1853" arabic-form="final" 
d="M561 0q-233 0 -368.5 113.5t-135.5 298.5q0 152 66 327l213 -55q-39 -147 -39 -223q0 -119 79 -181.5t222 -62.5h827v21q0 100 -25.5 173.5t-89.5 138t-175.5 113t-280.5 87.5v227l580 559l155 -160l-491 -475q139 -42 240.5 -99t163 -118.5t98.5 -140t50.5 -154.5
t14.5 -172h188q41 0 41 -115q0 -102 -41 -102h-1292zM834 1106l-127 127l530 504l125 -125z" />
    <glyph glyph-name="uniFB94" unicode="&#x6af;" horiz-adv-x="974" arabic-form="initial" 
d="M43 1106l-127 127l530 504l125 -125zM307 901q143 -44 246.5 -103t164.5 -122.5t97 -146t47.5 -160.5t11.5 -179v-190h-874v217h635v21q0 100 -26 173.5t-90 138t-175.5 113t-280.5 87.5v227l580 559l156 -160z" />
    <glyph glyph-name="uniFB95" unicode="&#x6af;" horiz-adv-x="1060" arabic-form="medial" 
d="M0 217h635v21q0 100 -26 173.5t-90 138t-175.5 113t-280.5 87.5v227l580 559l156 -160l-492 -475q139 -42 240.5 -99t163 -118.5t98.5 -140t50.5 -154.5t14.5 -172h187q41 0 41 -115q0 -102 -41 -102h-1061v217zM-84 1233l530 504l125 -125l-528 -506z" />
    <glyph glyph-name="uniFB9F" unicode="&#x6ba;" horiz-adv-x="1392" arabic-form="final" 
d="M1393 217q41 0 41 -115q0 -102 -41 -102h-215q-43 -178 -190.5 -268t-366.5 -90q-141 0 -251.5 42t-177 113t-101 158.5t-34.5 183.5q0 175 93 379l210 -74q-59 -152 -59 -272q0 -150 86.5 -228.5t239.5 -78.5q159 0 242 80t83 266v496h242v-490h199z" />
    <glyph glyph-name="uniFBA7" unicode="&#x6c1;" horiz-adv-x="1183" arabic-form="final" 
d="M256 -35l-186 78q111 253 255.5 396t309.5 143q99 0 169 -46.5t142 -160.5q61 -99 106 -128.5t132 -29.5q41 0 41 -117q0 -55 -9.5 -77.5t-31.5 -22.5q-159 0 -245 46t-165 175q-52 85 -84 114.5t-76 29.5q-82 0 -178.5 -109.5t-179.5 -290.5z" />
    <glyph glyph-name="uniFBA8" unicode="&#x6c1;" horiz-adv-x="548" arabic-form="initial" 
d="M0 0v217q119 0 163 50t44 190v399h242v-432q0 -233 -108 -328.5t-341 -95.5zM180 -571q-76 115 -76 262q0 118 48 223l157 -37q-20 -68 -20 -131q0 -123 73 -233z" />
    <glyph glyph-name="uniFBA9" unicode="&#x6c1;" horiz-adv-x="958" arabic-form="medial" 
d="M0 0v217h342q-42 -132 -47 -217q-2 -10 -2 -31q0 -184 141 -241q0 236 130.5 362.5t373.5 126.5h20q41 0 41 -115q0 -102 -41 -102h-18q-158 0 -235.5 -85.5t-77.5 -272.5q0 -71 8 -136h-23q-113 0 -211.5 26.5t-175 78t-120.5 133.5t-44 186q0 26 7 70h-68z" />
    <glyph glyph-name="uniFBAB" unicode="&#x6be;" horiz-adv-x="1415" arabic-form="final" 
d="M70 59l55 209q148 -51 342 -51h20v160q0 145 46 254t143 173t235 64q88 0 159 -26.5t115.5 -68.5t74.5 -97t42.5 -109t12.5 -108q0 -133 -64 -242h164q41 0 41 -115q0 -102 -41 -102h-145q55 -90 55 -180q0 -141 -106 -226.5t-295 -85.5q-229 0 -333 105t-104 305v82h-22
q-235 0 -395 59zM729 217h113q105 0 168 62.5t63 171.5q0 84 -44.5 139t-125.5 55t-127.5 -58.5t-46.5 -166.5v-203zM1034 0h-305v-61q0 -107 44.5 -157t144.5 -50q163 0 163 131q0 70 -47 137z" />
    <glyph glyph-name="uniFBAC" unicode="&#x6be;" horiz-adv-x="1306" arabic-form="initial" 
d="M483 651q-67 0 -108 -51.5t-41 -130.5q0 -81 39.5 -141.5t105.5 -96.5q70 34 112 95t42 141q0 83 -42 133.5t-108 50.5zM1018 270q0 220 -215 328q33 -65 33 -143q0 -135 -76 -238h256q2 16 2 53zM102 723l31 195q137 -6 249.5 -17.5t228.5 -34.5t204.5 -56t168.5 -84.5
t131.5 -118t81.5 -158t30 -203.5q0 -101 -29 -246h-469q-150 0 -256 41q-93 -41 -262 -41h-211v217h203q-74 100 -74 232q0 76 29 147t88 121z" />
    <glyph glyph-name="uniFBAD" unicode="&#x6be;" horiz-adv-x="1046" arabic-form="medial" 
d="M0 0v217h121v160q0 145 46 254t143 173t235 64q88 0 159 -26.5t115.5 -68.5t74.5 -97t42 -109t12 -108q0 -128 -67 -242h166q40 0 40 -115q0 -54 -9 -78t-31 -24h-144q55 -95 55 -180q0 -141 -106 -226.5t-295 -85.5q-228 0 -332 105t-104 305v82h-121zM362 211h113
q107 0 169.5 65.5t62.5 174.5q0 84 -44.5 139t-125.5 55q-83 0 -129 -58t-46 -167v-209zM362 0v-61q0 -107 44.5 -157t144.5 -50q87 0 125.5 36t38.5 95q0 70 -47 137h-306z" />
    <glyph glyph-name="uniFBAF" unicode="&#x6d2;" horiz-adv-x="884" arabic-form="final" 
d="M731 -532q-370 0 -527 88.5t-157 285.5q0 375 533 375h305q41 0 41 -115q0 -102 -41 -102h-324q-150 0 -217.5 -38t-67.5 -114q0 -57 42 -91t152.5 -52t305.5 -18q357 0 750 61l8 -213q-418 -67 -803 -67z" />
    <glyph glyph-name="uniFBB1" unicode="&#x6d3;" horiz-adv-x="884" arabic-form="final" 
d="M47 -158q0 375 533 375h305q41 0 41 -115q0 -102 -41 -102h-324q-150 0 -217.5 -38t-67.5 -114q0 -57 42 -91t152.5 -52t305.5 -18q357 0 750 61l8 -213q-418 -67 -803 -67q-370 0 -527 88.5t-157 285.5zM743 461h-450v143h86q-31 57 -31 117q0 91 65 147t171 56
q52 0 135 -17l-27 -139q-38 10 -84 10q-47 0 -78.5 -22t-31.5 -66q0 -41 28 -86h217v-143z" />
    <glyph glyph-name="uniFBE8" unicode="&#x649;" horiz-adv-x="548" arabic-form="initial" 
d="M0 0v217q119 0 163 50t44 190v399h242v-432q0 -233 -108 -328.5t-341 -95.5z" />
    <glyph glyph-name="uniFBE9" unicode="&#x649;" horiz-adv-x="667" arabic-form="medial" 
d="M668 217q41 0 41 -115q0 -102 -41 -102q-217 0 -301 123q-101 -123 -367 -123v217q119 0 163 50t44 190v399h242v-432q0 -207 219 -207z" />
    <glyph glyph-name="uniFBFD" unicode="&#x6cc;" horiz-adv-x="1576" arabic-form="final" 
d="M1577 217q41 0 41 -115q0 -102 -41 -102h-117q68 -68 68 -170q0 -153 -200 -257.5t-544 -104.5q-375 0 -557 132.5t-182 366.5q0 119 53 281l217 -60q-26 -124 -26 -186q0 -159 116 -229t398 -70q233 0 358 49t125 125q0 51 -47 94.5t-147 69.5l-279 74l59 186l277 -65
q83 -19 201 -19h227z" />
    <glyph glyph-name="uniFBFE" unicode="&#x6cc;" horiz-adv-x="655" arabic-form="initial" 
d="M0 0v217h41q122 0 166.5 51.5t44.5 188.5v399h242v-432q0 -230 -107.5 -327t-343.5 -97h-43zM129 -428q-56 0 -93.5 37t-37.5 92q0 57 37.5 95t93.5 38q57 0 93 -38t36 -95q0 -56 -36 -92.5t-93 -36.5zM465 -428q-58 0 -95.5 36.5t-37.5 92.5q0 57 37.5 95t95.5 38
q54 0 90.5 -38t36.5 -95q0 -55 -36.5 -92t-90.5 -37z" />
    <glyph glyph-name="uniFBFF" unicode="&#x6cc;" horiz-adv-x="712" arabic-form="medial" 
d="M713 217q41 0 41 -115q0 -102 -41 -102q-217 0 -301 123q-101 -123 -369 -123h-43v217h41q122 0 166.5 51.5t44.5 188.5v399h242v-432q0 -207 219 -207zM170 -166q57 0 93 -38t36 -95q0 -56 -36 -92.5t-93 -36.5q-56 0 -93.5 37t-37.5 92q0 57 37.5 95t93.5 38zM506 -166
q54 0 90.5 -38t36.5 -95q0 -55 -36.5 -92t-90.5 -37q-58 0 -95.5 36.5t-37.5 92.5q0 57 37.5 95t95.5 38z" />
    <glyph glyph-name="uniFDF2" unicode="&#xfdf2;" horiz-adv-x="2961" arabic-form="isolated" 
d="M59 418q0 89 34 167t98 139t166.5 96.5t230.5 35.5h389v-461q0 -103 37.5 -140.5t140.5 -37.5q122 0 162.5 51t40.5 189v743h241v-780q0 -203 218 -203q120 0 160 50.5t40 189.5v1091h242v-1142q0 -222 -106.5 -314t-335.5 -92q-215 3 -297 121q-101 -121 -365 -121
q-271 0 -350 90q-129 -63 -281 -63q-130 0 -233.5 43t-167.5 133t-64 215zM2585 0v1548h241v-1548h-241zM553 639q-113 0 -179.5 -52.5t-66.5 -148.5q0 -186 248 -186q104 0 168 33v354h-170zM1225 1440q0 54 22 108l72 -16q-8 -27 -8 -53q0 -68 61 -68q53 0 53 70
q0 20 -2 32l74 17q10 -45 10 -76v-6q24 -21 60 -21q51 0 51 58q0 37 -14 80l77 30q35 -71 35 -135q0 -65 -35.5 -104t-93.5 -39q-61 0 -104 37q-37 -56 -113 -56q-68 0 -106.5 38.5t-38.5 103.5zM1423 1624h-12v295h115v-264z" />
    <glyph glyph-name="uniFDFA" unicode="&#xfdfa;" horiz-adv-x="2355" arabic-form="isolated" 
d="M76 535q0 186 229 186h150v-150q0 -26 11 -37.5t38 -11.5h6q34 0 46.5 12.5t12.5 47.5v139h152v-148q0 -27 12 -39t41 -12h273v123h151v-123h334q26 0 37.5 13t11.5 47v299h152v-316q0 -43 45 -43h229q-14 35 -14 64q0 70 49.5 112.5t138.5 42.5q52 0 107 -14l-27 -127
q-27 6 -53 6q-54 0 -54 -45q0 -17 11 -39h141v-147h-532q-78 0 -107 33q-38 -33 -131 -33h-338v-385q0 -22 9.5 -31.5t31.5 -9.5h21q32 0 32 31v124h152v-129q0 -26 31 -26q18 0 25 6.5t7 21.5v127h152v-131q0 -24 33 -24q17 0 23.5 6.5t6.5 21.5v181h154v-228
q0 -63 -40.5 -96t-117.5 -33q-55 0 -100 31q-47 -31 -109 -31q-70 0 -112 31q-50 -31 -125 -31h-33q-72 0 -106 31q-42 -31 -134 -31h-362q-51 -63 -154 -63h-121q-29 32 -45 63h-18q-20 0 -28.5 -10t-8.5 -37v-143h-145v176q0 162 155 162h19q6 77 60 125.5t143 48.5
q78 0 128 -45.5t54 -128.5h317q30 0 42 12t12 45v369h-285q-76 0 -105 33q-44 -33 -141 -33h-31q-85 0 -127 31q-55 -25 -118 -25q-72 0 -118 41.5t-46 112.5zM1141 717q-127 0 -191.5 47t-64.5 131q0 37 24 90l142 -27q-9 -22 -9 -34q0 -28 28.5 -44t80.5 -16q69 0 106 19
t37 47q0 15 -20.5 26.5t-91.5 32.5l39 127q84 -20 145 -20q28 0 38.5 13.5t10.5 49.5v348h150v-370q0 -41 43 -41q21 0 30 9.5t9 33.5v125h151v-131q0 -19 7 -27.5t26 -9.5q104 221 278 221q93 0 143 -55t50 -160q0 -62 -25 -154h-432q-71 0 -110 31q-43 -31 -123 -31
q-64 0 -90 33q-36 -33 -95 -33q25 -19 25 -57q0 -73 -84 -123.5t-227 -50.5zM61 1110q0 182 230 182h151v-162q0 -19 8 -26.5t29 -7.5q23 0 31 10t8 37v262h152v-268q0 -41 39 -41q23 0 32 11.5t9 43.5v356h151v-379q0 -105 -43.5 -142.5t-148.5 -37.5q-75 0 -105 33
q-38 -33 -131 -33q-87 0 -129 31q-52 -25 -117 -25q-74 0 -120 42t-46 114zM2089 -176q-73 0 -118.5 45.5t-45.5 126.5q0 75 51 122.5t140 47.5q94 0 137 -55t43 -142v-116q0 -115 -65.5 -167.5t-205.5 -52.5q-39 0 -59 2l-8 138q20 -2 59 -2q131 0 125 59q-24 -6 -53 -6z
M1120 1012h-151v495h151v-495zM483 1489q0 21 9 45l47 -10q-4 -20 -4 -23q0 -14 14 -14q12 0 12 14v19l45 4q2 -14 2 -33q2 0 6.5 -1t6.5 -1q12 0 12 18q0 11 -4 27l55 14q14 -28 14 -57t-18 -45t-43 -16q-26 0 -43 14q-19 -19 -55 -19q-56 0 -56 64zM477 262q0 31 20 51.5
t52 20.5q29 0 49 -20.5t20 -51.5q0 -30 -19.5 -49.5t-49.5 -19.5q-32 0 -52 19.5t-20 49.5zM715 193q-32 0 -52 19.5t-20 49.5q0 31 20 51.5t52 20.5q28 0 46.5 -20.5t18.5 -51.5q0 -29 -18.5 -49t-46.5 -20zM430 -76q0 -28 16 -57h25q33 0 50.5 17t17.5 44q0 15 -2 21
q-9 39 -52 39q-41 0 -53 -39q-2 -8 -2 -25zM2097 1180q-63 0 -115 -84l166 -2q4 16 4 24q0 29 -14.5 45.5t-40.5 16.5zM2111 43q-22 0 -34.5 -14.5t-12.5 -40.5q0 -22 13.5 -34.5t36.5 -12.5q31 0 43 4v39q0 59 -46 59zM207 1130q0 -43 53 -43q20 0 37 7v84h-25
q-65 0 -65 -48zM221 557q0 -43 51 -43q3 0 39 6v84h-26q-64 0 -64 -47z" />
    <glyph glyph-name="uniFE82" unicode="&#x622;" horiz-adv-x="589" arabic-form="final" 
d="M395 1653q-58 0 -173 26.5t-144 26.5q-44 0 -94 -35l-72 96q83 80 170 80q38 0 149.5 -28.5t155.5 -28.5q30 0 52.5 10t54.5 37l81 -84q-72 -100 -180 -100zM590 0q-246 0 -350.5 92.5t-104.5 290.5v1165h242v-1159q0 -90 50.5 -131t162.5 -41q41 0 41 -115
q0 -102 -41 -102z" />
    <glyph glyph-name="uniFE84" unicode="&#x623;" horiz-adv-x="589" arabic-form="final" 
d="M590 0q-246 0 -350.5 92.5t-104.5 290.5v1165h242v-1159q0 -90 50.5 -131t162.5 -41q41 0 41 -115q0 -102 -41 -102zM82 1645v112h68q-25 45 -25 92q0 71 49.5 114.5t132.5 43.5q47 0 105 -12l-21 -109q-32 8 -65 8q-84 0 -84 -69q0 -30 20 -68h168v-112h-348z" />
    <glyph glyph-name="uniFE86" unicode="&#x624;" horiz-adv-x="1138" arabic-form="final" 
d="M602 0q-240 0 -368 114t-128 304q0 93 33 177.5t92 147t144.5 99.5t185.5 37q201 0 310.5 -116.5t109.5 -301.5v-244h158q41 0 41 -115q0 -102 -41 -102h-164q-10 -66 -32.5 -120.5t-66.5 -103.5t-107.5 -82.5t-158.5 -53t-215 -19.5q-60 0 -119 4l-14 217q41 -4 119 -4
q317 0 352 162h-131zM354 436q0 -219 258 -219h127v195q0 117 -47 180t-139 63q-87 0 -143 -61.5t-56 -157.5zM324 1122v144h86q-31 57 -31 116q0 91 64.5 147t170.5 56q58 0 136 -16l-27 -139q-38 10 -84 10q-47 0 -79 -22t-32 -66q0 -39 29 -86h217v-144h-450z" />
    <glyph glyph-name="uniFE88" unicode="&#x625;" horiz-adv-x="589" arabic-form="final" 
d="M135 1548h242v-1159q0 -90 50.5 -131t162.5 -41q41 0 41 -115q0 -102 -41 -102q-246 0 -350.5 92.5t-104.5 290.5v1165zM109 -522v112h67q-24 44 -24 93q0 71 49.5 114t132.5 43q46 0 104 -12l-20 -109q-36 9 -66 9q-84 0 -84 -70q0 -28 21 -68h168v-112h-348z" />
    <glyph glyph-name="uniFE8A" unicode="&#x626;" horiz-adv-x="1576" arabic-form="final" 
d="M45 -33q0 119 53 281l217 -60q-26 -124 -26 -186q0 -159 116 -229t398 -70q233 0 358 49t125 125q0 51 -47 94.5t-147 69.5l-279 74l59 186l277 -65q83 -19 201 -19h227q41 0 41 -115q0 -102 -41 -102h-117q68 -68 68 -170q0 -153 -200 -257.5t-544 -104.5
q-375 0 -557 132.5t-182 366.5zM141 436v144h86q-30 56 -30 116q0 91 64.5 147t170.5 56q57 0 135 -16l-26 -140q-42 11 -84 11q-47 0 -79 -22t-32 -66q0 -39 29 -86h217v-144h-451z" />
    <glyph glyph-name="uniFE8B" unicode="&#x626;" horiz-adv-x="655" arabic-form="initial" 
d="M0 0v217h41q122 0 166.5 51.5t44.5 188.5v399h242v-432q0 -230 -107.5 -327t-343.5 -97h-43zM115 1100v143h86q-31 57 -31 117q0 91 65 147t171 56q52 0 135 -17l-27 -139q-38 10 -84 10q-47 0 -79 -22t-32 -66q0 -39 29 -86h217v-143h-450z" />
    <glyph glyph-name="uniFE8C" unicode="&#x626;" horiz-adv-x="712" arabic-form="medial" 
d="M0 0v217h41q122 0 166.5 51.5t44.5 188.5v399h242v-432q0 -207 219 -207q41 0 41 -115q0 -102 -41 -102q-217 0 -301 123q-101 -123 -369 -123h-43zM115 1100v143h86q-31 57 -31 117q0 91 65 147t171 56q52 0 135 -17l-27 -139q-38 10 -84 10q-47 0 -79 -22t-32 -66
q0 -39 29 -86h217v-143h-450z" />
    <glyph glyph-name="uniFE8E" unicode="&#x627;" horiz-adv-x="589" arabic-form="final" 
d="M590 0q-246 0 -350.5 92.5t-104.5 290.5v1165h242v-1159q0 -90 50.5 -131t162.5 -41q41 0 41 -115q0 -102 -41 -102z" />
    <glyph glyph-name="uniFE90" unicode="&#x628;" horiz-adv-x="2066" arabic-form="final" 
d="M2066 217q41 0 41 -115q0 -102 -41 -102q-210 0 -292 115q-95 -115 -295 -115h-918q-233 0 -368.5 113.5t-135.5 298.5q0 152 66 327l213 -55q-39 -147 -39 -223q0 -119 79 -181.5t222 -62.5h809q107 0 153 48t46 165v426h241v-432q0 -207 219 -207zM942 -166
q58 0 92.5 -37.5t34.5 -95.5q0 -56 -34.5 -92.5t-92.5 -36.5t-94.5 36.5t-36.5 92.5q0 58 36.5 95.5t94.5 37.5z" />
    <glyph glyph-name="uniFE91" unicode="&#x628;" horiz-adv-x="548" arabic-form="initial" 
d="M0 0v217q119 0 163 50t44 190v399h242v-432q0 -233 -108 -328.5t-341 -95.5zM248 -428q-58 0 -94.5 36.5t-36.5 92.5q0 58 36.5 95.5t94.5 37.5t92.5 -37.5t34.5 -95.5q0 -56 -34.5 -92.5t-92.5 -36.5z" />
    <glyph glyph-name="uniFE92" unicode="&#x628;" horiz-adv-x="667" arabic-form="medial" 
d="M668 217q41 0 41 -115q0 -102 -41 -102q-217 0 -301 123q-101 -123 -367 -123v217q119 0 163 50t44 190v399h242v-432q0 -207 219 -207zM303 -166q58 0 92.5 -37.5t34.5 -95.5q0 -56 -34.5 -92.5t-92.5 -36.5t-94.5 36.5t-36.5 92.5q0 58 36.5 95.5t94.5 37.5z" />
    <glyph glyph-name="uniFE94" unicode="&#x629;" horiz-adv-x="1150" arabic-form="final" 
d="M414 1094q-56 0 -93.5 38t-37.5 93q0 56 37.5 92.5t93.5 36.5q57 0 93 -36t36 -93q0 -56 -36.5 -93.5t-92.5 -37.5zM750 1094q-58 0 -96 37.5t-38 93.5q0 57 37.5 93t96.5 36q54 0 90.5 -36t36.5 -93q0 -56 -36.5 -93.5t-90.5 -37.5zM1151 217q41 0 41 -115
q0 -102 -41 -102q-272 0 -354 88q-129 -61 -279 -61q-130 0 -232 43t-164.5 133t-62.5 215q0 89 33 167t96.5 139t165.5 96.5t230 35.5h389v-461q0 -103 37.5 -140.5t140.5 -37.5zM719 285v354h-172q-111 0 -177.5 -52.5t-66.5 -148.5q0 -186 248 -186q104 0 168 33z" />
    <glyph glyph-name="uniFE96" unicode="&#x62a;" horiz-adv-x="2066" arabic-form="final" 
d="M793 879q-55 0 -93 37.5t-38 93.5t37.5 92.5t93.5 36.5q57 0 93 -36t36 -93q0 -56 -36.5 -93.5t-92.5 -37.5zM1128 879q-58 0 -95.5 37.5t-37.5 93.5q0 57 37 93t96 36q54 0 90.5 -36.5t36.5 -92.5t-36.5 -93.5t-90.5 -37.5zM2066 217q41 0 41 -115q0 -102 -41 -102
q-210 0 -292 115q-95 -115 -295 -115h-918q-233 0 -368.5 113.5t-135.5 298.5q0 152 66 327l213 -55q-39 -147 -39 -223q0 -119 79 -181.5t222 -62.5h809q107 0 153 48t46 165v426h241v-432q0 -207 219 -207z" />
    <glyph glyph-name="uniFE97" unicode="&#x62a;" horiz-adv-x="655" arabic-form="initial" 
d="M180 1094q-56 0 -93.5 38t-37.5 93q0 56 37.5 92.5t93.5 36.5q57 0 93 -36t36 -93q0 -56 -36.5 -93.5t-92.5 -37.5zM516 1094q-58 0 -95.5 37.5t-37.5 93.5q0 57 37 93t96 36q54 0 90.5 -36t36.5 -93q0 -56 -36.5 -93.5t-90.5 -37.5zM0 0v217h41q122 0 166.5 51.5
t44.5 188.5v399h242v-432q0 -230 -107.5 -327t-343.5 -97h-43z" />
    <glyph glyph-name="uniFE98" unicode="&#x62a;" horiz-adv-x="712" arabic-form="medial" 
d="M180 1094q-56 0 -93.5 38t-37.5 93q0 56 37.5 92.5t93.5 36.5q57 0 93 -36t36 -93q0 -56 -36.5 -93.5t-92.5 -37.5zM516 1094q-58 0 -95.5 37.5t-37.5 93.5q0 57 37 93t96 36q54 0 90.5 -36t36.5 -93q0 -56 -36.5 -93.5t-90.5 -37.5zM713 217q41 0 41 -115
q0 -102 -41 -102q-217 0 -301 123q-101 -123 -369 -123h-43v217h41q122 0 166.5 51.5t44.5 188.5v399h242v-432q0 -207 219 -207z" />
    <glyph glyph-name="uniFE9A" unicode="&#x62b;" horiz-adv-x="2066" arabic-form="final" 
d="M967 1143q-55 0 -92 38t-37 95q0 55 37 93t92 38q56 0 92.5 -38t36.5 -93q0 -57 -36 -95t-93 -38zM793 864q-56 0 -93.5 38t-37.5 95q0 56 37.5 92.5t93.5 36.5q57 0 93 -36t36 -93t-36 -95t-93 -38zM995 997q0 57 37 93t96 36q54 0 90.5 -36t36.5 -93t-36.5 -95
t-90.5 -38q-58 0 -95.5 38t-37.5 95zM2066 217q41 0 41 -115q0 -102 -41 -102q-210 0 -292 115q-95 -115 -295 -115h-918q-233 0 -368.5 113.5t-135.5 298.5q0 152 66 327l213 -55q-39 -147 -39 -223q0 -119 79 -181.5t222 -62.5h809q107 0 153 48t46 165v426h241v-432
q0 -207 219 -207z" />
    <glyph glyph-name="uniFE9B" unicode="&#x62b;" horiz-adv-x="655" arabic-form="initial" 
d="M354 1358q-55 0 -92 38t-37 95q0 55 37 93t92 38q56 0 92.5 -38t36.5 -93q0 -57 -36 -95t-93 -38zM180 1079q-56 0 -93.5 38t-37.5 95q0 56 37.5 92.5t93.5 36.5q57 0 93 -36t36 -93t-36 -95t-93 -38zM516 1079q-58 0 -95.5 38t-37.5 95t37 93t96 36q54 0 90.5 -36.5
t36.5 -92.5q0 -57 -36.5 -95t-90.5 -38zM0 0v217h41q122 0 166.5 51.5t44.5 188.5v399h242v-432q0 -230 -107.5 -327t-343.5 -97h-43z" />
    <glyph glyph-name="uniFE9C" unicode="&#x62b;" horiz-adv-x="712" arabic-form="medial" 
d="M354 1358q-55 0 -92 38t-37 95q0 55 37 93t92 38q56 0 92.5 -38t36.5 -93q0 -57 -36 -95t-93 -38zM180 1079q-56 0 -93.5 38t-37.5 95q0 56 37.5 92.5t93.5 36.5q57 0 93 -36t36 -93t-36 -95t-93 -38zM383 1212q0 57 37 93t96 36q54 0 90.5 -36.5t36.5 -92.5
q0 -57 -36.5 -95t-90.5 -38q-58 0 -95.5 38t-37.5 95zM713 217q41 0 41 -115q0 -102 -41 -102q-217 0 -301 123q-101 -123 -369 -123h-43v217h41q122 0 166.5 51.5t44.5 188.5v399h242v-432q0 -207 219 -207z" />
    <glyph glyph-name="uniFE9E" unicode="&#x62c;" horiz-adv-x="1302" arabic-form="final" 
d="M504 -532q-196 0 -320.5 98.5t-124.5 269.5q0 177 112 279t304 102h434q4 40 4 62q0 188 -83.5 282t-258.5 94q-89 0 -204 -28l-54 204q136 48 279 48q144 0 251.5 -41.5t172 -118.5t96 -179.5t31.5 -232.5q0 -28 -4 -90h164q40 0 40 -115q0 -54 -9 -78t-31 -24h-816
q-86 0 -133 -42t-47 -116q0 -77 56 -119t145 -42q17 0 45 4l18 -213q-36 -4 -67 -4zM571 -188q0 51 33.5 84.5t85.5 33.5t83.5 -33t31.5 -85t-31.5 -84.5t-83.5 -32.5t-85.5 33t-33.5 84z" />
    <glyph glyph-name="uniFE9F" unicode="&#x62c;" horiz-adv-x="985" arabic-form="initial" 
d="M0 0v217h635q7 40 8.5 80.5t-4 84t-18.5 82.5t-39 74.5t-62 61t-89.5 40.5t-119.5 15q-92 0 -207 -28l-53 204q130 48 281 48q148 0 257.5 -42.5t174.5 -119.5t95.5 -187.5t26 -242t-39.5 -287.5h-846zM414 -428q-58 0 -94.5 36.5t-36.5 92.5q0 58 36.5 95.5t94.5 37.5
t92.5 -37.5t34.5 -95.5q0 -56 -34.5 -92.5t-92.5 -36.5z" />
    <glyph glyph-name="uniFEA0" unicode="&#x62c;" horiz-adv-x="1030" arabic-form="medial" 
d="M0 0v217h635q7 40 8.5 80.5t-4 84t-18.5 82.5t-39 74.5t-62 61t-89.5 40.5t-119.5 15q-92 0 -207 -28l-53 204q130 48 281 48q157 0 270.5 -47.5t178 -136.5t89 -208.5t11.5 -269.5h149q41 0 41 -115q0 -102 -41 -102h-1030zM414 -428q-58 0 -94.5 36.5t-36.5 92.5
q0 58 36.5 95.5t94.5 37.5t92.5 -37.5t34.5 -95.5q0 -56 -34.5 -92.5t-92.5 -36.5z" />
    <glyph glyph-name="uniFEA2" unicode="&#x62d;" horiz-adv-x="1302" arabic-form="final" 
d="M504 -532q-197 0 -321 100.5t-124 281.5q0 166 111.5 266.5t298.5 100.5h440q4 40 4 62q0 188 -83.5 282t-258.5 94q-89 0 -204 -28l-54 204q136 48 279 48q144 0 253 -41.5t175.5 -118t99.5 -180t33 -232.5q0 -28 -4 -90h154q40 0 40 -115q0 -54 -9 -78t-31 -24h-816
q-86 0 -135 -40t-49 -112q0 -157 225 -157q74 0 162 20l41 -207q-113 -36 -227 -36z" />
    <glyph glyph-name="uniFEA3" unicode="&#x62d;" horiz-adv-x="985" arabic-form="initial" 
d="M0 0v217h635q7 40 8.5 80.5t-4 84t-18.5 82.5t-39 74.5t-62 61t-89.5 40.5t-119.5 15q-92 0 -207 -28l-53 204q130 48 281 48q148 0 257.5 -42.5t174.5 -119.5t95.5 -187.5t26 -242t-39.5 -287.5h-846z" />
    <glyph glyph-name="uniFEA4" unicode="&#x62d;" horiz-adv-x="1030" arabic-form="medial" 
d="M1030 0h-1030v217h635q7 40 8.5 80.5t-4 84t-18.5 82.5t-39 74.5t-62 61t-89.5 40.5t-119.5 15q-92 0 -207 -28l-53 204q130 48 281 48q157 0 270.5 -47.5t178 -136.5t89 -208.5t11.5 -269.5h149q41 0 41 -115q0 -102 -41 -102z" />
    <glyph glyph-name="uniFEA6" unicode="&#x62e;" horiz-adv-x="1302" arabic-form="final" 
d="M59 -150q0 166 111.5 266.5t298.5 100.5h440q4 40 4 62q0 188 -83.5 282t-258.5 94q-89 0 -204 -28l-54 204q136 48 279 48q144 0 253 -41.5t175.5 -118t99.5 -180t33 -232.5q0 -28 -4 -90h154q40 0 40 -115q0 -54 -9 -78t-31 -24h-816q-86 0 -135 -40t-49 -112
q0 -157 225 -157q74 0 162 20l41 -207q-113 -36 -227 -36q-197 0 -321 100.5t-124 281.5zM461 1247q0 57 36.5 93t94.5 36t92.5 -35.5t34.5 -93.5q0 -57 -35 -94t-92 -37q-58 0 -94.5 37.5t-36.5 93.5z" />
    <glyph glyph-name="uniFEA7" unicode="&#x62e;" horiz-adv-x="985" arabic-form="initial" 
d="M332 1116q-58 0 -94.5 37.5t-36.5 93.5q0 57 36.5 93t94.5 36t92.5 -35.5t34.5 -93.5q0 -57 -35 -94t-92 -37zM0 0v217h635q7 40 8.5 80.5t-4 84t-18.5 82.5t-39 74.5t-62 61t-89.5 40.5t-119.5 15q-92 0 -207 -28l-53 204q130 48 281 48q148 0 257.5 -42.5t174.5 -119.5
t95.5 -187.5t26 -242t-39.5 -287.5h-846z" />
    <glyph glyph-name="uniFEA8" unicode="&#x62e;" horiz-adv-x="1030" arabic-form="medial" 
d="M1030 0h-1030v217h635q7 40 8.5 80.5t-4 84t-18.5 82.5t-39 74.5t-62 61t-89.5 40.5t-119.5 15q-92 0 -207 -28l-53 204q130 48 281 48q157 0 270.5 -47.5t178 -136.5t89 -208.5t11.5 -269.5h149q41 0 41 -115q0 -102 -41 -102zM332 1116q-58 0 -94.5 37.5t-36.5 93.5
q0 57 36.5 93t94.5 36t92.5 -35.5t34.5 -93.5q0 -57 -35 -94t-92 -37z" />
    <glyph glyph-name="uniFEAA" unicode="&#x62f;" horiz-adv-x="1083" arabic-form="final" 
d="M70 217h620v4q0 74 -33.5 151t-89 142.5t-117.5 118.5t-128 94l145 195q128 -83 217.5 -169t140.5 -174.5t75 -174.5t30 -187h153q41 0 41 -115q0 -102 -41 -102h-1013v217z" />
    <glyph glyph-name="uniFEAC" unicode="&#x630;" horiz-adv-x="1083" arabic-form="final" 
d="M70 0v217h620v4q0 74 -33.5 151t-89 142.5t-117.5 118.5t-128 94l145 195q128 -83 217.5 -169t140.5 -174.5t75 -174.5t30 -187h153q41 0 41 -115q0 -102 -41 -102h-1013zM250 1202q0 57 36.5 93t94.5 36t92.5 -35.5t34.5 -93.5q0 -57 -35 -94t-92 -37q-58 0 -94.5 37.5
t-36.5 93.5z" />
    <glyph glyph-name="uniFEAE" unicode="&#x631;" horiz-adv-x="702" arabic-form="final" 
d="M702 217q41 0 41 -115q0 -102 -41 -102h-219q-29 -177 -140.5 -269.5t-315.5 -105.5l-37 209q143 21 202.5 77t59.5 183v762h242v-639h208z" />
    <glyph glyph-name="uniFEB0" unicode="&#x632;" horiz-adv-x="702" arabic-form="final" 
d="M373 1094q-58 0 -94.5 37.5t-36.5 93.5q0 57 36.5 93t94.5 36t92.5 -35.5t34.5 -93.5q0 -57 -35 -94t-92 -37zM702 217q41 0 41 -115q0 -102 -41 -102h-219q-29 -177 -140.5 -269.5t-315.5 -105.5l-37 209q143 21 202.5 77t59.5 183v762h242v-639h208z" />
    <glyph glyph-name="uniFEB2" unicode="&#x633;" horiz-adv-x="2545" arabic-form="final" 
d="M45 139q0 177 92 379l211 -74q-59 -152 -59 -272q0 -150 86 -228.5t239 -78.5q159 0 242.5 80.5t83.5 265.5v496h242v-353q0 -137 159 -137q95 0 132.5 45t37.5 158v287h242v-353q0 -137 166 -137q96 0 131 48.5t35 160.5v430h242v-432q0 -207 219 -207q41 0 41 -115
q0 -102 -41 -102q-214 0 -299 121q-102 -121 -303 -121q-173 0 -277 94q-102 -96 -295 -96q-123 0 -198 45q-33 -199 -183.5 -300t-382.5 -101q-113 0 -207.5 28t-159 75t-109.5 111t-66 135t-21 148z" />
    <glyph glyph-name="uniFEB3" unicode="&#x633;" horiz-adv-x="1705" arabic-form="initial" 
d="M0 217h45q97 0 135.5 45t38.5 158v287h242v-353q0 -137 160 -137q95 0 132.5 45t37.5 158v287h241v-353q0 -137 164 -137q97 0 132.5 48.5t35.5 160.5v430h242v-502q0 -164 -104 -259t-279 -95q-173 0 -277 94q-105 -94 -295 -94q-205 0 -291 96q-96 -96 -315 -96h-45
v217z" />
    <glyph glyph-name="uniFEB4" unicode="&#x633;" horiz-adv-x="1824" arabic-form="medial" 
d="M0 0v217h45q97 0 135.5 45t38.5 158v287h242v-353q0 -137 160 -137q95 0 132.5 45t37.5 158v287h241v-353q0 -137 164 -137q97 0 132.5 48.5t35.5 160.5v430h242v-432q0 -207 219 -207q41 0 41 -115q0 -102 -41 -102q-214 0 -299 121q-102 -121 -303 -121q-173 0 -277 94
q-105 -94 -295 -94q-205 0 -291 96q-96 -96 -315 -96h-45z" />
    <glyph glyph-name="uniFEB6" unicode="&#x634;" horiz-adv-x="2545" arabic-form="final" 
d="M45 139q0 177 92 379l211 -74q-59 -152 -59 -272q0 -150 86 -228.5t239 -78.5q159 0 242.5 80.5t83.5 265.5v496h242v-353q0 -137 159 -137q95 0 132.5 45t37.5 158v287h242v-353q0 -137 166 -137q96 0 131 48.5t35 160.5v430h242v-432q0 -207 219 -207q41 0 41 -115
q0 -102 -41 -102q-214 0 -299 121q-102 -121 -303 -121q-173 0 -277 94q-102 -96 -295 -96q-123 0 -198 45q-33 -199 -183.5 -300t-382.5 -101q-113 0 -207.5 28t-159 75t-109.5 111t-66 135t-21 148zM1331 1063q0 56 37.5 92.5t93.5 36.5q57 0 93 -36t36 -93t-36 -95
t-93 -38q-56 0 -93.5 38t-37.5 95zM1798 930q-58 0 -95.5 38t-37.5 95t37 93t96 36q54 0 90.5 -36t36.5 -93t-36.5 -95t-90.5 -38zM1507 1341q0 55 37 93.5t92 38.5q56 0 92.5 -38.5t36.5 -93.5q0 -57 -36 -95t-93 -38q-55 0 -92 38t-37 95z" />
    <glyph glyph-name="uniFEB7" unicode="&#x634;" horiz-adv-x="1705" arabic-form="initial" 
d="M0 0v217h45q97 0 135.5 45t38.5 158v287h242v-353q0 -137 160 -137q95 0 132.5 45t37.5 158v287h241v-353q0 -137 164 -137q97 0 132.5 48.5t35.5 160.5v430h242v-502q0 -164 -104 -259t-279 -95q-173 0 -277 94q-105 -94 -295 -94q-205 0 -291 96q-96 -96 -315 -96h-45z
M608 1063q0 56 37.5 92.5t93.5 36.5q57 0 93 -36t36 -93t-36 -95t-93 -38q-56 0 -93.5 38t-37.5 95zM942 1063q0 57 37 93t96 36q55 0 91 -36t36 -93t-36.5 -95t-90.5 -38q-58 0 -95.5 38t-37.5 95zM913 1208q-55 0 -92 38t-37 95q0 55 37 93.5t92 38.5q56 0 92.5 -38.5
t36.5 -93.5q0 -57 -36 -95t-93 -38z" />
    <glyph glyph-name="uniFEB8" unicode="&#x634;" horiz-adv-x="1824" arabic-form="medial" 
d="M0 0v217h45q97 0 135.5 45t38.5 158v287h242v-353q0 -137 160 -137q95 0 132.5 45t37.5 158v287h241v-353q0 -137 164 -137q97 0 132.5 48.5t35.5 160.5v430h242v-432q0 -207 219 -207q41 0 41 -115q0 -102 -41 -102q-214 0 -299 121q-102 -121 -303 -121q-173 0 -277 94
q-105 -94 -295 -94q-205 0 -291 96q-96 -96 -315 -96h-45zM608 1063q0 56 37.5 92.5t93.5 36.5q57 0 93 -36t36 -93t-36 -95t-93 -38q-56 0 -93.5 38t-37.5 95zM1075 930q-58 0 -95.5 38t-37.5 95t37 93t96 36q55 0 91 -36t36 -93t-36.5 -95t-90.5 -38zM784 1341
q0 55 37 93.5t92 38.5q56 0 92.5 -38.5t36.5 -93.5q0 -57 -36 -95t-93 -38q-55 0 -92 38t-37 95z" />
    <glyph glyph-name="uniFEBA" unicode="&#x635;" horiz-adv-x="2785" arabic-form="final" 
d="M45 139q0 177 92 379l211 -74q-59 -152 -59 -272q0 -150 86 -228.5t239 -78.5q159 0 242.5 80.5t83.5 265.5v496h242v-351q0 -58 37.5 -92.5t97.5 -42.5q84 163 181.5 286t182.5 192t176 111.5t156.5 55.5t130.5 13q230 0 353.5 -141.5t123.5 -385.5q0 -72 -8 -135h172
q41 0 41 -115q0 -102 -41 -102h-1390q-143 0 -219 53q-30 -204 -181 -307.5t-387 -103.5q-113 0 -207.5 28t-159 75t-109.5 111t-66 135t-21 148zM2111 655q-133 0 -269.5 -112t-252.5 -326h781q14 72 14 117q0 147 -70.5 234t-202.5 87z" />
    <glyph glyph-name="uniFEBB" unicode="&#x635;" horiz-adv-x="1923" arabic-form="initial" 
d="M1343 879q232 0 356 -141.5t124 -385.5q0 -160 -56 -352h-1173q-180 0 -279 76q-86 -76 -315 -76v217q101 0 134.5 42t33.5 171v277h242v-353q0 -63 26.5 -95t81.5 -40q61 118 128.5 216t130.5 165t130 118t124.5 81t117 48.5t105 25t89.5 6.5zM1571 217q12 61 12 117
q0 147 -69.5 234t-200.5 87q-134 0 -271.5 -112t-253.5 -326h783z" />
    <glyph glyph-name="uniFEBC" unicode="&#x635;" horiz-adv-x="1984" arabic-form="medial" 
d="M0 0v217q101 0 134.5 42t33.5 171v277h242v-353q0 -63 26.5 -95t81.5 -40q61 118 128.5 216t130.5 165t130 118t124.5 81t117 48.5t105 25t89.5 6.5q232 0 356 -141.5t124 -385.5q0 -72 -8 -135h170q40 0 40 -115q0 -54 -9 -78t-31 -24h-1391q-180 0 -279 76
q-86 -76 -315 -76zM788 217h783q12 61 12 117q0 147 -69.5 234t-200.5 87q-134 0 -271.5 -112t-253.5 -326z" />
    <glyph glyph-name="uniFEBE" unicode="&#x636;" horiz-adv-x="2785" arabic-form="final" 
d="M45 139q0 177 92 379l211 -74q-59 -152 -59 -272q0 -150 86 -228.5t239 -78.5q159 0 242.5 80.5t83.5 265.5v496h242v-351q0 -58 37.5 -92.5t97.5 -42.5q84 163 181.5 286t182.5 192t176 111.5t156.5 55.5t130.5 13q230 0 353.5 -141.5t123.5 -385.5q0 -72 -8 -135h172
q41 0 41 -115q0 -102 -41 -102h-1390q-143 0 -219 53q-30 -204 -181 -307.5t-387 -103.5q-113 0 -207.5 28t-159 75t-109.5 111t-66 135t-21 148zM2111 655q-133 0 -269.5 -112t-252.5 -326h781q14 72 14 117q0 147 -70.5 234t-202.5 87zM1835 1247q0 57 36.5 93t94.5 36
t92.5 -35.5t34.5 -93.5q0 -57 -35 -94t-92 -37q-58 0 -94.5 37.5t-36.5 93.5z" />
    <glyph glyph-name="uniFEBF" unicode="&#x636;" horiz-adv-x="1923" arabic-form="initial" 
d="M1149 1116q-58 0 -94.5 37.5t-36.5 93.5q0 57 36.5 93t94.5 36t92.5 -35.5t34.5 -93.5q0 -57 -35 -94t-92 -37zM1343 879q232 0 356 -141.5t124 -385.5q0 -160 -56 -352h-1173q-180 0 -279 76q-86 -76 -315 -76v217q101 0 134.5 42t33.5 171v277h242v-353q0 -63 26.5 -95
t81.5 -40q61 118 128.5 216t130.5 165t130 118t124.5 81t117 48.5t105 25t89.5 6.5zM1571 217q12 61 12 117q0 147 -69.5 234t-200.5 87q-134 0 -271.5 -112t-253.5 -326h783z" />
    <glyph glyph-name="uniFEC0" unicode="&#x636;" horiz-adv-x="1984" arabic-form="medial" 
d="M0 0v217q101 0 134.5 42t33.5 171v277h242v-353q0 -63 26.5 -95t81.5 -40q61 118 128.5 216t130.5 165t130 118t124.5 81t117 48.5t105 25t89.5 6.5q232 0 356 -141.5t124 -385.5q0 -72 -8 -135h170q40 0 40 -115q0 -54 -9 -78t-31 -24h-1391q-180 0 -279 76
q-86 -76 -315 -76zM788 217h783q12 61 12 117q0 147 -69.5 234t-200.5 87q-134 0 -271.5 -112t-253.5 -326zM1149 1116q-58 0 -94.5 37.5t-36.5 93.5q0 57 36.5 93t94.5 36t92.5 -35.5t34.5 -93.5q0 -57 -35 -94t-92 -37z" />
    <glyph glyph-name="uniFEC2" unicode="&#x637;" horiz-adv-x="1771" arabic-form="final" 
d="M57 0v217h191v1331h241v-1042q136 187 305 280t332 93q233 0 358.5 -144t125.5 -383q0 -49 -11 -135h173q40 0 40 -115q0 -54 -9 -78t-31 -24h-1715zM492 217h866q12 61 12 119q0 145 -69 232t-203 87q-146 0 -309 -117t-297 -321z" />
    <glyph glyph-name="uniFEC3" unicode="&#x637;" horiz-adv-x="1638" arabic-form="initial" 
d="M0 0v217h176v1331h242v-1042q136 187 305 280t332 93q233 0 358 -144t125 -383q0 -160 -55 -352h-1483zM422 217h862q14 57 14 119q0 145 -70 232t-204 87q-147 0 -307.5 -117.5t-294.5 -320.5z" />
    <glyph glyph-name="uniFEC4" unicode="&#x637;" horiz-adv-x="1695" arabic-form="medial" 
d="M0 217h176v1331h242v-1042q136 187 305 280t332 93q233 0 358 -144t125 -383q0 -57 -10 -135h168q41 0 41 -115q0 -102 -41 -102h-1696v217zM422 217h862q14 57 14 119q0 145 -70 232t-204 87q-147 0 -307.5 -117.5t-294.5 -320.5z" />
    <glyph glyph-name="uniFEC6" unicode="&#x638;" horiz-adv-x="1771" arabic-form="final" 
d="M57 0v217h191v1331h241v-1042q136 187 305 280t332 93q233 0 358.5 -144t125.5 -383q0 -49 -11 -135h173q40 0 40 -115q0 -54 -9 -78t-31 -24h-1715zM492 217h866q12 61 12 119q0 145 -69 232t-203 87q-146 0 -309 -117t-297 -321zM1026 1116q-58 0 -94.5 37.5
t-36.5 93.5q0 57 36.5 93t94.5 36t92.5 -35.5t34.5 -93.5q0 -57 -35 -94t-92 -37z" />
    <glyph glyph-name="uniFEC7" unicode="&#x638;" horiz-adv-x="1638" arabic-form="initial" 
d="M0 0v217h176v1331h242v-1042q136 187 305 280t332 93q233 0 358 -144t125 -383q0 -160 -55 -352h-1483zM422 217h862q14 57 14 119q0 145 -70 232t-204 87q-147 0 -307.5 -117.5t-294.5 -320.5zM807 1247q0 57 36.5 93t94.5 36t92.5 -35.5t34.5 -93.5q0 -57 -35 -94
t-92 -37q-58 0 -94.5 37.5t-36.5 93.5z" />
    <glyph glyph-name="uniFEC8" unicode="&#x638;" horiz-adv-x="1695" arabic-form="medial" 
d="M0 217h176v1331h242v-1042q136 187 305 280t332 93q233 0 358 -144t125 -383q0 -57 -10 -135h168q41 0 41 -115q0 -102 -41 -102h-1696v217zM422 217h862q14 57 14 119q0 145 -70 232t-204 87q-147 0 -307.5 -117.5t-294.5 -320.5zM938 1116q-58 0 -94.5 37.5t-36.5 93.5
q0 57 36.5 93t94.5 36t92.5 -35.5t34.5 -93.5q0 -57 -35 -94t-92 -37z" />
    <glyph glyph-name="uniFECA" unicode="&#x639;" horiz-adv-x="1185" arabic-form="final" 
d="M1186 217q41 0 41 -115q0 -102 -41 -102h-178q-252 0 -441 59q-142 -45 -201 -106t-59 -123q0 -139 215 -139q94 0 166 16l41 -207q-88 -32 -215 -32q-210 0 -332.5 88t-122.5 256q0 257 334 389q-110 168 -278 325q18 159 49 232q233 121 467 121q190 0 301.5 -80.5
t111.5 -223.5q0 -184 -174 -354q90 -4 117 -4h199zM344 610l-2 -8q155 -141 268 -317q88 50 139.5 114.5t51.5 120.5q0 58 -54.5 96.5t-160.5 38.5q-132 0 -242 -45z" />
    <glyph glyph-name="uniFECB" unicode="&#x639;" horiz-adv-x="972" arabic-form="initial" 
d="M0 217h190q-61 104 -61 246q0 187 128.5 301.5t360.5 114.5q117 0 246 -33l-45 -213q-97 22 -182 22q-128 0 -196 -56t-68 -155q0 -117 80 -227h460v-217h-913v217z" />
    <glyph glyph-name="uniFECC" unicode="&#x639;" horiz-adv-x="1198" arabic-form="medial" 
d="M0 0v217h182q124 0 201 6q-110 158 -262 303q19 158 49 230q236 121 469 121q190 0 301 -80.5t111 -225.5q0 -180 -170 -350q110 -4 137 -4h180q41 0 41 -115q0 -102 -41 -102h-160q-253 0 -448 53q-199 -53 -516 -53h-74zM348 606l-2 -10q160 -136 270 -313
q86 43 138.5 109t52.5 124q0 59 -55.5 98t-165.5 39q-121 0 -238 -47z" />
    <glyph glyph-name="uniFECE" unicode="&#x63a;" horiz-adv-x="1185" arabic-form="final" 
d="M618 1116q-58 0 -94.5 37.5t-36.5 93.5q0 57 36.5 93t94.5 36t92.5 -35.5t34.5 -93.5q0 -57 -35 -94t-92 -37zM1186 217q41 0 41 -115q0 -102 -41 -102h-178q-252 0 -441 59q-142 -45 -201 -106t-59 -123q0 -139 215 -139q94 0 166 16l41 -207q-88 -32 -215 -32
q-210 0 -332.5 88t-122.5 256q0 257 334 389q-110 168 -278 325q18 159 49 232q233 121 467 121q190 0 301.5 -80.5t111.5 -223.5q0 -184 -174 -354q90 -4 117 -4h199zM344 610l-2 -8q155 -141 268 -317q88 50 139.5 114.5t51.5 120.5q0 58 -54.5 96.5t-160.5 38.5
q-132 0 -242 -45z" />
    <glyph glyph-name="uniFECF" unicode="&#x63a;" horiz-adv-x="972" arabic-form="initial" 
d="M0 0v217h190q-61 104 -61 246q0 187 128.5 301.5t360.5 114.5q117 0 246 -33l-45 -213q-97 22 -182 22q-128 0 -196 -56t-68 -155q0 -117 80 -227h460v-217h-913zM487 1247q0 57 36.5 93t94.5 36t92.5 -35.5t34.5 -93.5q0 -57 -35 -94t-92 -37q-58 0 -94.5 37.5
t-36.5 93.5z" />
    <glyph glyph-name="uniFED0" unicode="&#x63a;" horiz-adv-x="1198" arabic-form="medial" 
d="M74 0h-74v217h182q124 0 201 6q-110 158 -262 303q19 158 49 230q236 121 469 121q190 0 301 -80.5t111 -225.5q0 -180 -170 -350q110 -4 137 -4h180q41 0 41 -115q0 -102 -41 -102h-160q-253 0 -448 53q-199 -53 -516 -53zM346 596q160 -136 270 -313q86 43 138.5 109
t52.5 124q0 59 -55.5 98t-165.5 39q-121 0 -238 -47zM489 1245q0 57 37 93t95 36t92.5 -35.5t34.5 -93.5q0 -57 -35 -94t-92 -37q-58 0 -95 37.5t-37 93.5z" />
    <glyph glyph-name="uniFED2" unicode="&#x641;" horiz-adv-x="2238" arabic-form="final" 
d="M1649 1116q-58 0 -94.5 37.5t-36.5 93.5q0 57 36.5 93t94.5 36t92.5 -35.5t34.5 -93.5q0 -57 -35 -94t-92 -37zM2238 217q41 0 41 -115q0 -102 -41 -102h-229q-208 0 -373 33q-176 -33 -358 -33h-705q-233 0 -368 113t-135 299q0 155 65 327l213 -55q-39 -147 -39 -223
q0 -119 79 -181.5t222 -62.5h674q-102 105 -102 260q0 168 126 285t341 117q211 0 332.5 -115t121.5 -281q0 -150 -104 -266h239zM1640 236q75 10 148.5 77.5t73.5 157.5q0 80 -60 132t-157 52t-158.5 -50.5t-61.5 -133.5q0 -85 69 -151.5t146 -83.5z" />
    <glyph glyph-name="uniFED3" unicode="&#x641;" horiz-adv-x="1175" arabic-form="initial" 
d="M0 0v217h197q-50 88 -50 205q0 198 131.5 327.5t352.5 129.5q98 0 176.5 -28.5t127.5 -74.5t81.5 -107t45.5 -121.5t13 -123.5q0 -203 -82 -424h-993zM621 655q-109 0 -169.5 -64t-60.5 -167q0 -100 60 -207h358q25 103 25 184q0 112 -52.5 183t-160.5 71zM500 1247
q0 57 36.5 93t94.5 36t92.5 -35.5t34.5 -93.5q0 -57 -35 -94t-92 -37q-58 0 -94.5 37.5t-36.5 93.5z" />
    <glyph glyph-name="uniFED4" unicode="&#x641;" horiz-adv-x="1204" arabic-form="medial" 
d="M614 1116q-58 0 -94.5 37.5t-36.5 93.5q0 57 36.5 93t94.5 36t92.5 -35.5t34.5 -93.5q0 -57 -35 -94t-92 -37zM1204 217q41 0 41 -115q0 -102 -41 -102h-229q-208 0 -373 33q-176 -33 -358 -33h-244v217h250q-103 106 -103 260q0 168 126 285t341 117q211 0 333 -115
t122 -281q0 -150 -104 -266h239zM606 236q75 10 148 77.5t73 157.5q0 80 -60 132t-157 52t-158 -50.5t-61 -133.5q0 -85 69 -151.5t146 -83.5z" />
    <glyph glyph-name="uniFED6" unicode="&#x642;" horiz-adv-x="1695" arabic-form="final" 
d="M45 139q0 130 53 281l221 -58q-26 -101 -26 -186q0 -73 23 -127t78.5 -97t158 -65t252.5 -22q219 0 328 32.5t139 102.5h-125q-252 0 -377 111t-125 311q0 90 32 172.5t89.5 146t144.5 101t191 37.5q201 0 309.5 -117.5t108.5 -308.5v-236h176q41 0 41 -115
q0 -102 -41 -102h-195q-45 -183 -214 -270.5t-484 -87.5q-758 0 -758 497zM893 432q0 -215 254 -215h131v195q0 243 -191 243q-88 0 -141 -61t-53 -162zM1268 1116q-58 0 -95.5 37.5t-37.5 93.5q0 57 37 93t96 36q54 0 90.5 -36t36.5 -93q0 -56 -36.5 -93.5t-90.5 -37.5z
M801 1247q0 56 37.5 92.5t93.5 36.5q57 0 93 -36t36 -93q0 -56 -36.5 -93.5t-92.5 -37.5t-93.5 38t-37.5 93z" />
    <glyph glyph-name="uniFED7" unicode="&#x642;" horiz-adv-x="1175" arabic-form="initial" 
d="M0 0v217h197q-50 88 -50 205q0 198 131.5 327.5t352.5 129.5q98 0 176.5 -28.5t127.5 -74.5t81.5 -107t45.5 -121.5t13 -123.5q0 -203 -82 -424h-993zM391 424q0 -100 60 -207h358q25 103 25 184q0 112 -52.5 183t-160.5 71q-109 0 -169.5 -64t-60.5 -167zM664 1247
q0 57 37 93t96 36q55 0 91 -36t36 -93q0 -56 -36.5 -93.5t-90.5 -37.5q-58 0 -95.5 37.5t-37.5 93.5zM461 1116q-55 0 -93 38t-38 93q0 56 37.5 92.5t93.5 36.5q57 0 93 -36t36 -93q0 -56 -36.5 -93.5t-92.5 -37.5z" />
    <glyph glyph-name="uniFED8" unicode="&#x642;" horiz-adv-x="1204" arabic-form="medial" 
d="M444 1116q-56 0 -93.5 38t-37.5 93q0 56 37.5 92.5t93.5 36.5q57 0 93 -36t36 -93q0 -56 -36.5 -93.5t-92.5 -37.5zM780 1116q-58 0 -95.5 37.5t-37.5 93.5q0 57 37 93t96 36q54 0 90.5 -36t36.5 -93q0 -56 -36.5 -93.5t-90.5 -37.5zM1204 217q41 0 41 -115
q0 -102 -41 -102h-229q-208 0 -373 33q-176 -33 -358 -33h-244v217h250q-103 106 -103 260q0 168 126 285t341 117q211 0 333 -115t122 -281q0 -150 -104 -266h239zM606 236q75 10 148 77.5t73 157.5q0 80 -60 132t-157 52t-158 -50.5t-61 -133.5q0 -85 69 -151.5t146 -83.5
z" />
    <glyph glyph-name="uniFEDA" unicode="&#x643;" horiz-adv-x="1830" arabic-form="final" 
d="M561 0q-233 0 -368.5 113.5t-135.5 298.5q0 152 66 327l213 -55q-39 -147 -39 -223q0 -119 79 -181.5t222 -62.5h569q120 0 160.5 51t40.5 189v1091h242v-1124h2q0 -207 219 -207q41 0 41 -115q0 -102 -41 -102q-217 0 -299 121q-99 -121 -365 -121h-606zM643 782h88
q-24 46 -24 97q0 79 60 135.5t163 56.5q48 0 106 -16l-18 -127q-38 10 -74 10q-40 0 -64 -19t-24 -57q0 -49 31 -80h172v-129h-416v129z" />
    <glyph glyph-name="uniFEDB" unicode="&#x643;" horiz-adv-x="974" arabic-form="initial" 
d="M307 901q143 -44 246.5 -103t164.5 -122.5t97 -146t47.5 -160.5t11.5 -179v-190h-874v217h635v21q0 100 -26 173.5t-90 138t-175.5 113t-280.5 87.5v227l580 559l156 -160z" />
    <glyph glyph-name="uniFEDC" unicode="&#x643;" horiz-adv-x="1060" arabic-form="medial" 
d="M0 0v217h635v21q0 100 -26 173.5t-90 138t-175.5 113t-280.5 87.5v227l580 559l156 -160l-492 -475q139 -42 240.5 -99t163 -118.5t98.5 -140t50.5 -154.5t14.5 -172h187q41 0 41 -115q0 -102 -41 -102h-1061z" />
    <glyph glyph-name="uniFEDE" unicode="&#x644;" horiz-adv-x="1396" arabic-form="final" 
d="M1397 217q41 0 41 -115q0 -102 -41 -102h-230v4q-43 -178 -191 -270t-370 -92q-135 0 -244 41t-177 111t-104 158.5t-36 186.5q0 167 92 379l211 -74q-59 -171 -59 -274q0 -148 84.5 -226.5t240.5 -78.5q163 0 245.5 82t82.5 264v1337h242v-1331h213z" />
    <glyph glyph-name="uniFEDF" unicode="&#x644;" horiz-adv-x="577" arabic-form="initial" 
d="M0 0v217q120 0 160.5 51t40.5 189v1091h241v-1142q0 -222 -106.5 -314t-335.5 -92z" />
    <glyph glyph-name="uniFEE0" unicode="&#x644;" horiz-adv-x="661" arabic-form="medial" 
d="M662 217q40 0 40 -115q0 -102 -40 -102q-215 0 -300 121q-99 -121 -362 -121v217q120 0 160.5 51t40.5 189v1091h241v-1124q0 -105 57 -156t163 -51z" />
    <glyph glyph-name="uniFEE2" unicode="&#x645;" horiz-adv-x="1497" arabic-form="final" 
d="M295 -532h-236v397q0 167 98 259.5t275 92.5h23q-9 47 -9 98q0 204 135.5 334.5t348.5 130.5q141 0 241.5 -62.5t147.5 -164t47 -231.5q0 -61 -8 -105h139q41 0 41 -115q0 -102 -41 -102h-250q-131 -131 -389 -131h-170q-81 60 -135 131h-90q-83 0 -125.5 -39t-42.5 -127
v-366zM913 557q-101 0 -163 -67.5t-62 -180.5q0 -132 82 -223h107q119 0 183 65.5t64 180.5q0 98 -56 161.5t-155 63.5z" />
    <glyph glyph-name="uniFEE3" unicode="&#x645;" horiz-adv-x="1144" arabic-form="initial" 
d="M541 0h-541v217h190q-61 95 -61 229q0 191 134.5 312t344.5 121q106 0 192 -36t139 -97t81.5 -138t28.5 -162q0 -67 -13.5 -127t-49 -120t-91 -102.5t-146.5 -69.5t-208 -27zM373 424q0 -110 69 -207h125q67 0 115 18t74 50.5t37.5 70t11.5 82.5q0 98 -58 157.5
t-153 59.5q-99 0 -160 -60t-61 -171z" />
    <glyph glyph-name="uniFEE4" unicode="&#x645;" horiz-adv-x="1181" arabic-form="medial" 
d="M0 217h137q-8 62 -8 98q0 204 135.5 334.5t347.5 130.5q106 0 190.5 -35.5t138.5 -98.5t82 -145.5t28 -178.5q0 -44 -11 -105h142q41 0 41 -115q0 -102 -41 -102h-256q-134 -131 -383 -131h-172q-81 60 -135 131h-236v217zM598 557q-104 0 -165.5 -67t-61.5 -181
q0 -126 75 -223h113q118 0 184 65.5t66 180.5q0 98 -56 161.5t-155 63.5z" />
    <glyph glyph-name="uniFEE6" unicode="&#x646;" horiz-adv-x="1392" arabic-form="final" 
d="M645 838q-58 0 -94.5 37.5t-36.5 93.5q0 57 36.5 93t94.5 36t92.5 -35.5t34.5 -93.5q0 -57 -35 -94t-92 -37zM1393 217q41 0 41 -115q0 -102 -41 -102h-215q-43 -178 -190.5 -268t-366.5 -90q-141 0 -251.5 42t-177 113t-101 158.5t-34.5 183.5q0 175 93 379l210 -74
q-59 -152 -59 -272q0 -150 86.5 -228.5t239.5 -78.5q159 0 242 80t83 266v496h242v-490h199z" />
    <glyph glyph-name="uniFEE7" unicode="&#x646;" horiz-adv-x="548" arabic-form="initial" 
d="M328 1094q-58 0 -94.5 37.5t-36.5 93.5q0 57 36.5 93t94.5 36t92.5 -35.5t34.5 -93.5q0 -57 -35 -94t-92 -37zM0 0v217q119 0 163 50t44 190v399h242v-432q0 -233 -108 -328.5t-341 -95.5z" />
    <glyph glyph-name="uniFEE8" unicode="&#x646;" horiz-adv-x="667" arabic-form="medial" 
d="M328 1094q-58 0 -94.5 37.5t-36.5 93.5q0 57 36.5 93t94.5 36t92.5 -35.5t34.5 -93.5q0 -57 -35 -94t-92 -37zM668 217q41 0 41 -115q0 -102 -41 -102q-217 0 -301 123q-101 -123 -367 -123v217q119 0 163 50t44 190v399h242v-432q0 -207 219 -207z" />
    <glyph glyph-name="uniFEE9" unicode="&#x647;" horiz-adv-x="1071" arabic-form="isolated" 
d="M518 -10q-213 0 -336 113.5t-123 304.5q0 205 124.5 338t334.5 133q140 0 245 -63.5t158.5 -169.5t53.5 -238q0 -193 -121.5 -305.5t-335.5 -112.5zM522 213q94 0 149.5 53t55.5 156q0 106 -55.5 169.5t-153.5 63.5q-101 0 -156 -63t-55 -168t57 -158t158 -53z" />
    <glyph glyph-name="uniFEEA" unicode="&#x647;" horiz-adv-x="1150" arabic-form="final" 
d="M1151 217q41 0 41 -115q0 -102 -41 -102q-272 0 -354 88q-129 -61 -279 -61q-130 0 -232 43t-164.5 133t-62.5 215q0 89 33 167t96.5 139t165.5 96.5t230 35.5h389v-461q0 -103 37.5 -140.5t140.5 -37.5zM719 285v354h-172q-111 0 -177.5 -52.5t-66.5 -148.5
q0 -186 248 -186q104 0 168 33z" />
    <glyph glyph-name="uniFEEB" unicode="&#x647;" horiz-adv-x="1306" arabic-form="initial" 
d="M483 651q-67 0 -108 -51.5t-41 -130.5q0 -81 39.5 -141.5t105.5 -96.5q70 34 112 95t42 141q0 83 -42 133.5t-108 50.5zM1018 270q0 220 -215 328q33 -65 33 -143q0 -135 -76 -238h256q2 16 2 53zM102 723l31 195q137 -6 249.5 -17.5t228.5 -34.5t204.5 -56t168.5 -84.5
t131.5 -118t81.5 -158t30 -203.5q0 -101 -29 -246h-469q-150 0 -256 41q-93 -41 -262 -41h-211v217h203q-74 100 -74 232q0 76 29 147t88 121z" />
    <glyph glyph-name="uniFEEC" unicode="&#x647;" horiz-adv-x="1046" arabic-form="medial" 
d="M0 0v217h121v160q0 145 46 254t143 173t235 64q88 0 159 -26.5t115.5 -68.5t74.5 -97t42 -109t12 -108q0 -128 -67 -242h166q40 0 40 -115q0 -54 -9 -78t-31 -24h-144q55 -95 55 -180q0 -141 -106 -226.5t-295 -85.5q-228 0 -332 105t-104 305v82h-121zM362 211h113
q107 0 169.5 65.5t62.5 174.5q0 84 -44.5 139t-125.5 55q-83 0 -129 -58t-46 -167v-209zM362 0v-61q0 -107 44.5 -157t144.5 -50q87 0 125.5 36t38.5 95q0 70 -47 137h-306z" />
    <glyph glyph-name="uniFEEE" unicode="&#x648;" horiz-adv-x="1138" arabic-form="final" 
d="M602 0q-240 0 -368 114t-128 304q0 93 33 177.5t92 147t144.5 99.5t185.5 37q201 0 310.5 -116.5t109.5 -301.5v-244h158q41 0 41 -115q0 -102 -41 -102h-164q-10 -66 -32.5 -120.5t-66.5 -103.5t-107.5 -82.5t-158.5 -53t-215 -19.5q-60 0 -119 4l-14 217q41 -4 119 -4
q317 0 352 162h-131zM354 436q0 -219 258 -219h127v195q0 117 -47 180t-139 63q-87 0 -143 -61.5t-56 -157.5z" />
    <glyph glyph-name="uniFEF0" unicode="&#x649;" horiz-adv-x="1576" arabic-form="final" 
d="M1577 217q41 0 41 -115q0 -102 -41 -102h-117q68 -68 68 -170q0 -153 -200 -257.5t-544 -104.5q-375 0 -557 132.5t-182 366.5q0 119 53 281l217 -60q-26 -124 -26 -186q0 -159 116 -229t398 -70q233 0 358 49t125 125q0 51 -47 94.5t-147 69.5l-279 74l59 186l277 -65
q83 -19 201 -19h227z" />
    <glyph glyph-name="uniFEF2" unicode="&#x64a;" horiz-adv-x="1576" arabic-form="final" 
d="M1577 217q41 0 41 -115q0 -102 -41 -102h-117q68 -68 68 -170q0 -153 -200 -257.5t-544 -104.5q-375 0 -557 132.5t-182 366.5q0 119 53 281l217 -60q-26 -124 -26 -186q0 -159 116 -229t398 -70q233 0 358 49t125 125q0 51 -47 94.5t-147 69.5l-279 74l59 186l277 -65
q83 -19 201 -19h227zM612 -698q57 0 93 -38t36 -95q0 -56 -36 -93t-93 -37q-56 0 -93.5 37.5t-37.5 92.5q0 57 37.5 95t93.5 38zM948 -698q54 0 90.5 -38t36.5 -95q0 -55 -36.5 -92.5t-90.5 -37.5q-58 0 -95.5 37t-37.5 93q0 57 37.5 95t95.5 38z" />
    <glyph glyph-name="uniFEF3" unicode="&#x64a;" horiz-adv-x="655" arabic-form="initial" 
d="M0 0v217h41q122 0 166.5 51.5t44.5 188.5v399h242v-432q0 -230 -107.5 -327t-343.5 -97h-43zM129 -428q-56 0 -93.5 37t-37.5 92q0 57 37.5 95t93.5 38q57 0 93 -38t36 -95q0 -56 -36 -92.5t-93 -36.5zM465 -428q-58 0 -95.5 36.5t-37.5 92.5q0 57 37.5 95t95.5 38
q54 0 90.5 -38t36.5 -95q0 -55 -36.5 -92t-90.5 -37z" />
    <glyph glyph-name="uniFEF4" unicode="&#x64a;" horiz-adv-x="712" arabic-form="medial" 
d="M713 217q41 0 41 -115q0 -102 -41 -102q-217 0 -301 123q-101 -123 -369 -123h-43v217h41q122 0 166.5 51.5t44.5 188.5v399h242v-432q0 -207 219 -207zM170 -166q57 0 93 -38t36 -95q0 -56 -36 -92.5t-93 -36.5q-56 0 -93.5 37t-37.5 92q0 57 37.5 95t93.5 38zM506 -166
q54 0 90.5 -38t36.5 -95q0 -55 -36.5 -92t-90.5 -37q-58 0 -95.5 36.5t-37.5 92.5q0 57 37.5 95t95.5 38z" />
    <glyph glyph-name="uniFEF5" unicode="&#xfef5;" horiz-adv-x="1366" arabic-form="isolated" 
d="M842 0h-793v217h387v909h242v-909h106q108 0 156.5 53t48.5 168v1110h242v-1171q0 -174 -99.5 -275.5t-289.5 -101.5zM213 1401q83 80 170 80q38 0 149.5 -29t155.5 -29q30 0 52.5 10t54.5 37l82 -84q-72 -100 -181 -100q-58 0 -173 26.5t-144 26.5q-45 0 -94 -34z" />
    <glyph glyph-name="uniFEF6" unicode="&#xfef6;" horiz-adv-x="1449" arabic-form="final" 
d="M49 217h387v909h242v-909h106q108 0 156.5 53t48.5 168v1110h242v-1124q0 -207 219 -207q41 0 41 -115q0 -102 -41 -102q-215 0 -299 123q-104 -123 -309 -123h-793v217zM213 1401q83 80 170 80q38 0 149.5 -29t155.5 -29q30 0 52.5 10t54.5 37l82 -84
q-72 -100 -181 -100q-58 0 -173 26.5t-144 26.5q-45 0 -94 -34z" />
    <glyph glyph-name="uniFEF7" unicode="&#xfef7;" horiz-adv-x="1366" arabic-form="isolated" 
d="M842 0h-793v217h387v909h242v-909h106q108 0 156.5 53t48.5 168v1110h242v-1171q0 -174 -99.5 -275.5t-289.5 -101.5zM383 1391h68q-25 45 -25 92q0 71 49.5 114t132.5 43q47 0 105 -12l-21 -108q-32 8 -65 8q-84 0 -84 -70q0 -29 20 -67h168v-113h-348v113z" />
    <glyph glyph-name="uniFEF8" unicode="&#xfef8;" horiz-adv-x="1449" arabic-form="final" 
d="M49 0v217h387v909h242v-909h106q108 0 156.5 53t48.5 168v1110h242v-1124q0 -207 219 -207q41 0 41 -115q0 -102 -41 -102q-215 0 -299 123q-104 -123 -309 -123h-793zM383 1278v113h68q-25 45 -25 92q0 71 49.5 114t132.5 43q47 0 105 -12l-21 -108q-32 8 -65 8
q-84 0 -84 -70q0 -29 20 -67h168v-113h-348z" />
    <glyph glyph-name="uniFEF9" unicode="&#xfef9;" horiz-adv-x="1366" arabic-form="isolated" 
d="M49 217h387v909h242v-909h106q108 0 156.5 53t48.5 168v1110h242v-1171q0 -174 -99.5 -275.5t-289.5 -101.5h-793v217zM381 -522v112h68q-25 45 -25 93q0 71 49.5 114t132.5 43q47 0 105 -12l-21 -109q-36 9 -65 9q-84 0 -84 -70q0 -30 20 -68h168v-112h-348z" />
    <glyph glyph-name="uniFEFA" unicode="&#xfefa;" horiz-adv-x="1449" arabic-form="final" 
d="M49 217h387v909h242v-909h106q108 0 156.5 53t48.5 168v1110h242v-1124q0 -207 219 -207q41 0 41 -115q0 -102 -41 -102q-215 0 -299 123q-104 -123 -309 -123h-793v217zM729 -522h-348v112h68q-25 45 -25 93q0 71 49.5 114t132.5 43q47 0 105 -12l-21 -109q-36 9 -65 9
q-84 0 -84 -70q0 -30 20 -68h168v-112z" />
    <glyph glyph-name="uniFEFB" unicode="&#xfefb;" horiz-adv-x="1366" arabic-form="isolated" 
d="M842 0h-793v217h387v909h242v-909h106q108 0 156.5 53t48.5 168v1110h242v-1171q0 -174 -99.5 -275.5t-289.5 -101.5z" />
    <glyph glyph-name="uniFEFC" unicode="&#xfefc;" horiz-adv-x="1449" arabic-form="final" 
d="M49 0v217h387v909h242v-909h106q108 0 156.5 53t48.5 168v1110h242v-1124q0 -207 219 -207q41 0 41 -115q0 -102 -41 -102q-215 0 -299 123q-104 -123 -309 -123h-793z" />
    <glyph glyph-name=".notdef" horiz-adv-x="1048" 
d="M1049 1470v-1470h-1049v1470h1049zM946 102v1264h-844v-1264h844zM530 1247q113 0 183.5 -74t70.5 -194q0 -77 -29 -129.5t-104 -118.5q-73 -66 -84 -102q-12 -30 -12 -150h-94l-4 39q0 107 26.5 163.5t104.5 129.5q46 43 69 79.5t23 80.5q0 72 -47.5 123t-108.5 51
q-69 0 -112.5 -50t-55.5 -145l-102 17q12 137 83.5 208.5t192.5 71.5zM455 377h114v-137h-114v137z" />
    <glyph glyph-name="uni0000" 
 />
    <glyph glyph-name="uni0000" 
 />
    <glyph glyph-name="uni000D" unicode="&#xd;" horiz-adv-x="606" 
 />
    <glyph glyph-name="space" unicode=" " horiz-adv-x="606" 
 />
    <glyph glyph-name="exclam" unicode="!" horiz-adv-x="606" 
d="M426 1450v-995h-246v995h246zM303 303q66 0 115 -45t49 -111q0 -65 -48 -112t-116 -47q-66 0 -115 45t-49 110q0 67 48.5 113.5t115.5 46.5z" />
    <glyph glyph-name="quotedbl" unicode="&#x22;" horiz-adv-x="1062" 
d="M608 909v541h209v-541h-209zM246 909v541h209v-541h-209z" />
    <glyph glyph-name="numbersign" unicode="#" horiz-adv-x="1212" 
d="M281 428h-185v172h207l37 250h-184v172h206l62 428h180l-61 -428h211l61 428h178l-61 -428h184v-172h-209l-35 -250h185v-172h-205l-64 -428h-178l62 428h-213l-62 -428h-178zM518 850l-35 -250h211l35 250h-211z" />
    <glyph glyph-name="dollar" unicode="$" horiz-adv-x="1212" 
d="M541 -25q-301 0 -478 183l187 190q48 -66 125 -104.5t166 -46.5v432q-111 28 -189 62.5t-137 83.5t-88 117.5t-29 158.5q0 164 122.5 282t320.5 140v137h110v-135h13q117 0 224 -37.5t183 -104.5l-170 -190q-104 110 -250 110v-409q61 -17 96 -27t91.5 -31t90 -40.5
t74.5 -52t63.5 -69t38 -87.5t15.5 -111q0 -100 -37 -182t-102.5 -136.5t-149 -87.5t-180.5 -43v-147h-110v145zM651 197q99 20 155 76.5t56 134.5q0 65 -46.5 108.5t-164.5 79.5v-399zM356 1063q0 -20 2.5 -37t9.5 -31.5t12.5 -25t19 -21.5t21 -17t27 -15.5t28 -13.5
t32.5 -14t33 -14v375q-85 -15 -135 -67t-50 -119z" />
    <glyph glyph-name="percent" unicode="%" horiz-adv-x="1857" 
d="M1272 1516l170 -78l-852 -1504l-170 78zM442 1475q156 0 268.5 -111t112.5 -270q0 -154 -110 -267.5t-271 -113.5q-157 0 -269 110.5t-112 270.5q0 155 110.5 268t270.5 113zM258 1094q0 -77 54 -131t130 -54t130.5 54t54.5 131t-55 130.5t-132 53.5q-74 0 -128 -53.5
t-54 -130.5zM1415 737q158 0 269.5 -111.5t111.5 -269.5q0 -157 -111 -269t-270 -112q-157 0 -269 111t-112 270q0 154 110 267.5t271 113.5zM1231 356q0 -77 54 -130.5t130 -53.5q77 0 130.5 54t53.5 130t-53.5 130.5t-132.5 54.5q-73 0 -127.5 -54t-54.5 -131z" />
    <glyph glyph-name="ampersand" unicode="&#x26;" horiz-adv-x="1517" 
d="M662 1487q192 0 300.5 -94t108.5 -248q0 -227 -289 -377l234 -252l162 246h288l-290 -420l313 -342h-318l-153 166q-94 -109 -194.5 -156t-233.5 -47q-211 0 -351.5 117t-140.5 309q0 132 82.5 240.5t231.5 167.5q-92 98 -129 173t-37 160q0 165 119 261t297 96z
M492 1120q0 -86 137 -211q196 103 196 221q0 62 -49 99t-110 37q-72 0 -123 -42.5t-51 -103.5zM369 403q0 -92 67.5 -155.5t161.5 -63.5q65 0 127.5 33t138.5 111l-297 323q-102 -58 -150 -117t-48 -131z" />
    <glyph glyph-name="quotesingle" unicode="'" horiz-adv-x="606" 
d="M408 1450v-541h-209v541h209z" />
    <glyph glyph-name="parenleft" unicode="(" horiz-adv-x="606" 
d="M569 1384q-262 -370 -262 -794q0 -207 68.5 -416t193.5 -381l-172 -112q-148 205 -223.5 437t-75.5 472q0 238 76 471.5t223 437.5l174 -106z" />
    <glyph glyph-name="parenright" unicode=")" horiz-adv-x="606" 
d="M37 -205q131 183 196.5 390t65.5 405q0 204 -66.5 408.5t-195.5 385.5l172 115q147 -202 223 -435.5t76 -473.5q0 -239 -76 -472t-223 -437l-174 106z" />
    <glyph glyph-name="asterisk" unicode="*" horiz-adv-x="948" 
d="M561 1450v-291l277 90l53 -164l-279 -90l176 -239l-141 -103l-176 242l-172 -236l-137 105l176 231l-281 97l54 163l278 -96v291h172z" />
    <glyph glyph-name="plus" unicode="+" horiz-adv-x="1363" 
d="M127 516v209h451v451h208v-451h451v-209h-451v-450h-208v450h-451z" />
    <glyph glyph-name="comma" unicode="," horiz-adv-x="606" 
d="M471 283l-174 -541h-219l143 541h250z" />
    <glyph glyph-name="hyphen" unicode="-" horiz-adv-x="645" 
d="M575 608v-209h-505v209h505z" />
    <glyph glyph-name="period" unicode="." horiz-adv-x="606" 
d="M303 303q66 0 115 -45t49 -111q0 -67 -48.5 -113t-115.5 -46q-66 0 -115 45t-49 110q0 67 48.5 113.5t115.5 46.5z" />
    <glyph glyph-name="slash" unicode="/" horiz-adv-x="796" 
d="M791 1487l-639 -1585l-170 61l639 1589z" />
    <glyph glyph-name="zero" unicode="0" horiz-adv-x="1212" 
d="M606 1475q251 0 387.5 -191t136.5 -559q0 -367 -136.5 -558.5t-387.5 -191.5t-387.5 191.5t-136.5 558.5q0 368 136.5 559t387.5 191zM328 725q0 -240 70.5 -378t207.5 -138q136 0 207.5 135.5t71.5 380.5q0 247 -71.5 381.5t-209.5 134.5q-133 0 -204.5 -134.5
t-71.5 -381.5z" />
    <glyph glyph-name="one" unicode="1" horiz-adv-x="1212" 
d="M795 1450v-1450h-246v1167l-273 -252l-143 170l438 365h224z" />
    <glyph glyph-name="two" unicode="2" horiz-adv-x="1212" 
d="M623 1475q214 0 341.5 -109t127.5 -303q0 -115 -52 -215.5t-170 -208.5l-450 -418h672v-221h-971v260l563 545q87 85 118.5 138t31.5 108q0 87 -61 138.5t-150 51.5t-150.5 -54t-73.5 -143l-258 21q20 197 149 303.5t333 106.5z" />
    <glyph glyph-name="three" unicode="3" horiz-adv-x="1212" 
d="M582 1475q206 0 335.5 -105.5t129.5 -282.5q0 -121 -67 -208.5t-181 -118.5v-4q129 -17 205.5 -113.5t76.5 -239.5q0 -193 -139 -310.5t-350 -117.5q-199 0 -327 88t-171 252l262 70q48 -188 236 -188q102 0 173 64t71 163q0 109 -77 165t-253 56h-51v221h41
q37 0 60.5 0.5t59.5 4.5t58.5 11.5t49 22t41.5 35t25.5 52t10.5 71.5q0 85 -58.5 137.5t-148.5 52.5q-73 0 -131.5 -42t-85.5 -117l-260 69q42 148 166.5 230t298.5 82z" />
    <glyph glyph-name="four" unicode="4" horiz-adv-x="1212" 
d="M70 539l583 911h279v-934h211v-221h-211v-295h-246v295h-616v244zM682 1102l-363 -586h367v586h-4z" />
    <glyph glyph-name="five" unicode="5" horiz-adv-x="1212" 
d="M1034 1450v-221h-583l-7 -289q67 18 156 18q215 0 349 -131.5t134 -349.5q0 -225 -146.5 -363.5t-377.5 -138.5q-178 0 -299 85t-170 247l258 70q55 -168 238 -168q108 0 180 71t72 177q0 136 -91 208t-249 72q-162 0 -303 -69l14 782h825z" />
    <glyph glyph-name="six" unicode="6" horiz-adv-x="1212" 
d="M895 1450l-348 -537l4 -4q45 25 135 25q185 0 310.5 -132.5t125.5 -330.5q0 -226 -145 -361t-371 -135q-233 0 -374.5 134t-141.5 360q0 117 39.5 214t122.5 226l344 541h299zM348 473q0 -110 78 -187t186 -77q109 0 187 77.5t78 186.5q0 110 -79 187t-188 77
q-107 0 -184.5 -77.5t-77.5 -186.5z" />
    <glyph glyph-name="seven" unicode="7" horiz-adv-x="1212" 
d="M1071 1450v-225l-579 -1225h-289l592 1217h-709v233h985z" />
    <glyph glyph-name="eight" unicode="8" horiz-adv-x="1212" 
d="M606 1475q196 0 320.5 -104t124.5 -277q0 -121 -58.5 -208t-161.5 -118v-4q111 -22 188 -124t77 -228q0 -200 -135.5 -318.5t-354.5 -118.5t-354 117.5t-135 319.5q0 127 75.5 227t188.5 125v4q-102 29 -160.5 117t-58.5 209q0 174 123.5 277.5t320.5 103.5zM408 1069
q0 -89 55 -146t143 -57q84 0 141.5 58.5t57.5 144.5q0 84 -57.5 140.5t-143.5 56.5q-89 0 -142.5 -55.5t-53.5 -141.5zM362 442q0 -103 68.5 -168t175.5 -65t175.5 65t68.5 168q0 100 -71.5 164t-174.5 64q-99 0 -170.5 -65.5t-71.5 -162.5z" />
    <glyph glyph-name="nine" unicode="9" horiz-adv-x="1212" 
d="M606 1475q231 0 373.5 -134t142.5 -360q0 -98 -30.5 -188.5t-106.5 -212.5l-369 -580h-299l349 537l-4 4q-45 -25 -136 -25q-185 0 -310.5 134.5t-125.5 328.5q0 222 145 359t371 137zM336 977q0 -111 78 -187.5t186 -76.5t186 76.5t78 187.5t-77 187.5t-189 76.5
q-105 0 -183.5 -77.5t-78.5 -186.5z" />
    <glyph glyph-name="colon" unicode=":" horiz-adv-x="606" 
d="M303 997q65 0 114.5 -44t49.5 -111t-48 -113.5t-116 -46.5q-65 0 -114.5 46t-49.5 110q0 66 49 112.5t115 46.5zM303 303q66 0 115 -45t49 -111q0 -68 -48.5 -113.5t-115.5 -45.5q-66 0 -115 45t-49 110q0 66 49 113t115 47z" />
    <glyph glyph-name="semicolon" unicode=";" horiz-adv-x="606" 
d="M303 997q65 0 114.5 -44t49.5 -111t-48.5 -113.5t-115.5 -46.5q-64 0 -114 44.5t-50 111.5q0 66 48 112.5t116 46.5zM471 283l-174 -541h-219l143 541h250z" />
    <glyph glyph-name="less" unicode="&#x3c;" horiz-adv-x="1363" 
d="M164 694l1036 461v-225l-692 -309l692 -310v-225l-1036 461v147z" />
    <glyph glyph-name="equal" unicode="=" horiz-adv-x="1363" 
d="M1237 700h-1110v209h1110v-209zM127 541h1110v-209h-1110v209z" />
    <glyph glyph-name="greater" unicode="&#x3e;" horiz-adv-x="1363" 
d="M1200 547l-1036 -461v225l692 310l-692 309v225l1036 -461v-147z" />
    <glyph glyph-name="question" unicode="?" horiz-adv-x="1062" 
d="M575 1487q89 0 166.5 -25.5t137.5 -74t94.5 -126t34.5 -174.5q0 -91 -39.5 -167.5t-147.5 -174.5q-7 -7 -29.5 -27.5t-28 -26l-22.5 -22.5t-21 -23t-15 -21t-13.5 -24.5t-7.5 -24.5t-6.5 -29.5t-1.5 -32.5v-86h-246v55q0 109 6 138q7 40 29 72.5t78 88.5l155 158
q52 52 52 133q0 82 -53 131t-132 49t-137.5 -54.5t-67.5 -145.5l-262 20q24 200 155.5 307t321.5 107zM553 303q66 0 115 -45t49 -111q0 -67 -48.5 -113t-115.5 -46q-65 0 -114.5 45t-49.5 110q0 68 49.5 114t114.5 46z" />
    <glyph glyph-name="at" unicode="@" horiz-adv-x="1638" 
d="M848 1487q146 0 278 -48.5t231 -135t157.5 -214t58.5 -276.5q0 -248 -135 -375q-134 -125 -320 -125q-63 0 -111 26.5t-51 84.5h-4q-105 -111 -262 -111q-138 0 -216.5 101t-78.5 243q0 120 49 224.5t144 170.5t217 66q164 0 221 -117h4l17 93h192l-76 -402
q-18 -92 -18 -119q0 -37 11 -56t44 -19q48 0 84 29.5t55 77.5t28 98t9 100q0 161 -69 275t-188 169.5t-277 55.5q-168 0 -298 -75.5t-200 -207.5t-70 -297q0 -175 79 -307t215.5 -200.5t308.5 -68.5q226 0 387 125h225q-109 -149 -274.5 -229t-354.5 -80q-217 0 -398 96
t-288.5 271t-107.5 393q0 160 62 302.5t167.5 243.5t249.5 159.5t303 58.5zM604 686q0 -188 170 -188q100 0 149.5 71t49.5 176q0 81 -38 135t-116 54q-98 0 -156.5 -73.5t-58.5 -174.5z" />
    <glyph glyph-name="A" unicode="A" horiz-adv-x="1478" 
d="M289 0h-289l631 1450h223l625 -1450h-295l-135 332h-629zM735 1143l-227 -590h450z" />
    <glyph glyph-name="B" unicode="B" horiz-adv-x="1327" 
d="M694 0h-532v1450h573q60 0 118 -11t116.5 -37.5t102.5 -67t71.5 -105t27.5 -144.5q0 -114 -64.5 -196.5t-186.5 -120.5v-4q139 -17 226 -115.5t87 -234.5t-70 -230.5t-189.5 -139t-279.5 -44.5zM420 221h246q309 0 309 213q0 108 -72 156.5t-223 48.5h-260v-418zM420 860
h244q116 0 182.5 49t66.5 133q0 187 -270 187h-223v-369z" />
    <glyph glyph-name="C" unicode="C" horiz-adv-x="1402" 
d="M850 1487q306 0 508 -230l-201 -147q-133 143 -305 143q-219 0 -358.5 -149t-139.5 -369q0 -150 60 -271.5t174.5 -194t263.5 -72.5q187 0 326 176l213 -152q-91 -128 -233 -193t-308 -65t-308 55t-242.5 153.5t-158 239.5t-57.5 308q0 168 55 310t154 243t242.5 158
t314.5 57z" />
    <glyph glyph-name="D" unicode="D" horiz-adv-x="1554" 
d="M162 1450h577q114 0 220 -28t199.5 -87.5t162.5 -143.5t109 -204t40 -262q0 -148 -49 -272t-128 -206t-180.5 -139t-203.5 -82.5t-200 -25.5h-547v1450zM420 233h203q95 0 179 17t157.5 55t126.5 94.5t83.5 139.5t30.5 186q0 129 -40 225t-114 153.5t-171 85.5t-218 28
h-237v-984z" />
    <glyph glyph-name="E" unicode="E" horiz-adv-x="1251" 
d="M162 0v1450h960v-233h-702v-357h665v-233h-665v-394h739v-233h-997z" />
    <glyph glyph-name="F" unicode="F" horiz-adv-x="1175" 
d="M162 0v1450h936v-233h-678v-381h639v-234h-639v-602h-258z" />
    <glyph glyph-name="G" unicode="G" horiz-adv-x="1593" 
d="M852 1487q367 0 569 -182l-190 -193q-71 68 -172.5 104.5t-206.5 36.5q-219 0 -358.5 -149t-139.5 -369q0 -150 59 -271.5t174.5 -194t266.5 -72.5q204 0 338 75v342h-297v234h555v-742q-271 -143 -598 -143q-167 0 -310 55.5t-243.5 154t-157.5 239.5t-57 307
q0 169 56 312.5t156 243.5t243.5 156t312.5 56z" />
    <glyph glyph-name="H" unicode="H" horiz-adv-x="1517" 
d="M162 0v1450h258v-578h678v578h258v-1450h-258v639h-678v-639h-258z" />
    <glyph glyph-name="I" unicode="I" horiz-adv-x="569" 
d="M414 1450v-1450h-258v1450h258z" />
    <glyph glyph-name="J" unicode="J" horiz-adv-x="1024" 
d="M872 1450v-1057q0 -80 -26.5 -155t-77.5 -137.5t-137 -100t-195 -37.5q-178 0 -286 84t-140 250l242 57q11 -70 58.5 -113.5t115.5 -43.5q97 0 142.5 67t45.5 205v981h258z" />
    <glyph glyph-name="K" unicode="K" horiz-adv-x="1402" 
d="M162 0v1450h258v-614h12l600 614h348l-678 -670l723 -780h-362l-629 713h-14v-713h-258z" />
    <glyph glyph-name="L" unicode="L" horiz-adv-x="1062" 
d="M420 1450v-1217h616v-233h-874v1450h258z" />
    <glyph glyph-name="M" unicode="M" horiz-adv-x="1896" 
d="M168 0v1450h393l387 -1016l391 1016h390v-1450h-246v1204h-4l-441 -1204h-180l-440 1204h-4v-1204h-246z" />
    <glyph glyph-name="N" unicode="N" horiz-adv-x="1630" 
d="M420 0h-258v1450h342l702 -1077h4v1077h258v-1450h-327l-717 1112h-4v-1112z" />
    <glyph glyph-name="O" unicode="O" horiz-adv-x="1705" 
d="M1622 727q0 -168 -59 -311t-161.5 -242t-246 -155t-309.5 -56q-165 0 -306.5 55.5t-242 154t-157 239.5t-56.5 307q0 158 51 296.5t146.5 244t244.5 166.5t334 61q170 0 312.5 -55.5t241 -154.5t153.5 -240.5t55 -309.5zM354 735q0 -150 58.5 -271t173.5 -194t266 -73
q152 0 267.5 73.5t174 194.5t58.5 270q0 224 -140.5 371t-361.5 147q-144 0 -258.5 -69.5t-176 -187.5t-61.5 -261z" />
    <glyph glyph-name="P" unicode="P" horiz-adv-x="1251" 
d="M420 0h-258v1450h497q45 0 88 -4t97 -15.5t100 -30t91.5 -51t77.5 -74.5t51.5 -104t19.5 -137q0 -226 -137 -330t-429 -104h-198v-600zM420 1229v-408h168q54 0 93.5 3t86 15t76 33.5t49.5 60.5t20 93q0 203 -301 203h-192z" />
    <glyph glyph-name="Q" unicode="Q" horiz-adv-x="1744" 
d="M846 1487q156 0 296.5 -55.5t243 -152t162.5 -233t60 -290.5q0 -177 -76.5 -316t-228.5 -227v-4h415v-209h-852q-223 0 -400 92t-279.5 265t-102.5 399q0 209 104.5 377.5t278.5 261t379 92.5zM354 750q0 -142 60 -259.5t173 -187.5t257 -70q217 0 355 147.5t138 369.5
q0 220 -140 361.5t-359 141.5q-212 0 -348 -144.5t-136 -358.5z" />
    <glyph glyph-name="R" unicode="R" horiz-adv-x="1290" 
d="M420 0h-258v1450h512q111 0 202 -21t167.5 -67.5t119.5 -129.5t43 -198q0 -162 -90.5 -266.5t-245.5 -126.5l385 -641h-311l-336 614h-188v-614zM420 1229v-393h213q51 0 89 3.5t80.5 15.5t70 33t45.5 58.5t18 89.5q0 59 -24.5 99.5t-68.5 59.5t-89 26.5t-103 7.5h-231z
" />
    <glyph glyph-name="S" unicode="S" horiz-adv-x="1175" 
d="M645 1487q124 0 231.5 -39t184.5 -111l-189 -198q-41 58 -108 86t-146 28q-109 0 -173 -50.5t-64 -135.5q0 -70 55.5 -115.5t169.5 -81.5q51 -16 77.5 -24.5t73.5 -26t72.5 -30.5t63.5 -35t59.5 -43.5t47 -52t38.5 -64t22 -76.5t9 -92q0 -145 -71 -251.5t-187.5 -159
t-261.5 -52.5q-321 0 -486 197l195 188q47 -72 123 -111.5t164 -39.5q106 0 180 56t74 142q0 80 -59 130t-201 93q-86 26 -145.5 50.5t-116.5 60t-91 78.5t-54.5 104t-20.5 138q0 196 148.5 317t385.5 121z" />
    <glyph glyph-name="T" unicode="T" horiz-adv-x="1175" 
d="M14 1217v233h1147v-233h-444v-1217h-258v1217h-445z" />
    <glyph glyph-name="U" unicode="U" horiz-adv-x="1478" 
d="M156 1450h258v-915q0 -43 9.5 -85.5t33.5 -86.5t59.5 -77.5t93 -55t129.5 -21.5q89 0 155.5 31.5t102 82.5t52 104.5t16.5 107.5v915h258v-928q0 -109 -38 -208t-109.5 -178t-184.5 -126t-252 -47q-112 0 -208 31t-164 84.5t-116 124.5t-71.5 152t-23.5 167v928z" />
    <glyph glyph-name="V" unicode="V" horiz-adv-x="1366" 
d="M-6 1450h297l395 -1096l408 1096h278l-586 -1450h-223z" />
    <glyph glyph-name="W" unicode="W" horiz-adv-x="2009" 
d="M428 0l-428 1450h283l272 -1044h4l326 1044h254l319 -1044h4l285 1044h262l-422 -1450h-246l-335 1104h-5l-335 -1104h-238z" />
    <glyph glyph-name="X" unicode="X" horiz-adv-x="1402" 
d="M311 0h-311l516 758l-483 692h325l342 -537l338 537h314l-475 -692l526 -758h-328l-383 612z" />
    <glyph glyph-name="Y" unicode="Y" horiz-adv-x="1290" 
d="M295 1450l356 -578l361 578h307l-545 -829v-621h-258v621l-545 829h324z" />
    <glyph glyph-name="Z" unicode="Z" horiz-adv-x="1251" 
d="M1167 1450v-233l-780 -984h793v-233h-1108v233l774 984h-762v233h1083z" />
    <glyph glyph-name="bracketleft" unicode="[" horiz-adv-x="569" 
d="M135 -319v1818h393v-160h-184v-1499h184v-159h-393z" />
    <glyph glyph-name="backslash" unicode="\" horiz-adv-x="796" 
d="M176 1552l639 -1589l-170 -61l-639 1585z" />
    <glyph glyph-name="bracketright" unicode="]" horiz-adv-x="569" 
d="M434 -319h-393v159h184v1499h-184v160h393v-1818z" />
    <glyph glyph-name="asciicircum" unicode="^" horiz-adv-x="1363" 
d="M383 702h-242l457 748h168l457 -748h-242l-301 490z" />
    <glyph glyph-name="underscore" unicode="_" horiz-adv-x="1024" 
d="M1024 -154v-102h-1024v102h1024z" />
    <glyph glyph-name="grave" unicode="`" horiz-adv-x="532" 
d="M160 1450l202 -295h-192l-289 295h279z" />
    <glyph glyph-name="a" unicode="a" horiz-adv-x="1099" 
d="M432 -25q-155 0 -256.5 81t-101.5 214q0 173 145.5 257.5t458.5 84.5h76v29q0 85 -61.5 133.5t-164.5 48.5q-148 0 -262 -102l-129 129q154 158 418 158q98 0 172.5 -22t121 -59t75.5 -92t40 -114.5t11 -132.5v-588h-221v135h-6q-101 -160 -316 -160zM668 440
q-349 0 -349 -151q0 -60 51 -94.5t124 -34.5q121 0 183 60t62 159v61h-71z" />
    <glyph glyph-name="b" unicode="b" horiz-adv-x="1290" 
d="M139 1548h246v-690h6q118 150 334 150q141 0 251 -71t167 -188t57 -257q0 -147 -58 -264t-169 -185t-256 -68q-107 0 -196.5 43t-143.5 129h-4v-147h-234v1548zM377 492q0 -125 82 -210t207 -85t206.5 84.5t81.5 210.5q0 130 -82 212t-208 82q-123 0 -205 -84t-82 -210z
" />
    <glyph glyph-name="c" unicode="c" horiz-adv-x="987" 
d="M625 1008q102 0 196 -38.5t160 -111.5l-170 -170q-94 98 -186 98q-130 0 -209.5 -85.5t-79.5 -208.5q0 -127 82 -211t207 -84q56 0 106.5 24t83.5 68l164 -176q-62 -60 -160.5 -99t-193.5 -39q-228 0 -381.5 145.5t-153.5 371.5q0 144 67 261.5t190 186t278 68.5z" />
    <glyph glyph-name="d" unicode="d" horiz-adv-x="1290" 
d="M905 1548h246v-1548h-233v147h-5q-53 -87 -142.5 -129.5t-197.5 -42.5q-220 0 -351.5 145.5t-131.5 371.5q0 140 57 257t167 188t251 71q213 0 334 -150h6v690zM336 492q0 -125 81 -210t208 -85q71 0 127.5 27t90.5 70.5t52 94.5t18 103q0 130 -84 212t-204 82
q-127 0 -208 -85t-81 -209z" />
    <glyph glyph-name="e" unicode="e" horiz-adv-x="1175" 
d="M625 1008q91 0 167 -27t129.5 -75t91 -115t55 -146.5t17.5 -169.5v-69h-749q12 -105 85 -169.5t179 -64.5q156 0 264 133l176 -133q-159 -197 -415 -197q-229 0 -382 145t-153 372q0 226 153.5 371t381.5 145zM336 590h504q-1 112 -70.5 172.5t-181.5 60.5
q-106 0 -172 -63t-80 -170z" />
    <glyph glyph-name="f" unicode="f" horiz-adv-x="720" 
d="M25 983h202v154q0 238 87 337t282 99q88 0 154 -14l-17 -209q-57 14 -102 14q-82 0 -120 -46t-38 -149v-186h227v-209h-227v-774h-246v774h-202v209z" />
    <glyph glyph-name="g" unicode="g" horiz-adv-x="1290" 
d="M573 1008q108 0 197.5 -42.5t142.5 -129.5h5v147h233v-903q0 -271 -141 -421.5t-414 -150.5q-304 0 -487 162l147 201q154 -141 338 -141q167 0 239 84t72 254v63h-4q-56 -70 -139.5 -106.5t-181.5 -36.5q-142 0 -254.5 66.5t-174 181.5t-61.5 256q0 226 131.5 371
t351.5 145zM336 494q0 -122 84.5 -203.5t204.5 -81.5q129 0 211 80t82 209q0 133 -80.5 210.5t-212.5 77.5q-128 0 -208.5 -81t-80.5 -211z" />
    <glyph glyph-name="h" unicode="h" horiz-adv-x="1175" 
d="M385 0h-246v1548h246v-702h4q38 76 115.5 119t173.5 43q174 0 266 -104.5t92 -276.5v-627h-245v510q0 144 -45.5 210t-135.5 66q-107 0 -166 -67.5t-59 -179.5v-539z" />
    <glyph glyph-name="i" unicode="i" horiz-adv-x="532" 
d="M264 1464q68 0 114 -42t46 -105q0 -65 -46.5 -106.5t-113.5 -41.5q-65 0 -110 43.5t-45 104.5t45 104t110 43zM389 983v-983h-246v983h246z" />
    <glyph glyph-name="j" unicode="j" horiz-adv-x="532" 
d="M264 1464q68 0 114 -42t46 -105q0 -65 -46.5 -106.5t-113.5 -41.5q-65 0 -110 43.5t-45 104.5t45 104t110 43zM389 983v-1055q0 -225 -79 -322.5t-253 -97.5q-77 0 -133 19l19 213q48 -10 77 -10q32 0 54.5 11t35.5 28t21 44t10 52.5t2 60.5v1057h246z" />
    <glyph glyph-name="k" unicode="k" horiz-adv-x="1099" 
d="M139 0v1548h246v-973l379 408h315l-422 -446l449 -537h-326l-391 502h-4v-502h-246z" />
    <glyph glyph-name="l" unicode="l" horiz-adv-x="532" 
d="M389 1548v-1548h-246v1548h246z" />
    <glyph glyph-name="m" unicode="m" horiz-adv-x="1781" 
d="M375 0h-246v983h233v-154h5q40 85 117.5 132t183.5 47q231 0 307 -183q105 183 323 183q178 0 266.5 -110.5t88.5 -317.5v-580h-246v563q0 223 -182 223q-97 0 -154 -67.5t-57 -186.5v-532h-246v592q0 84 -39.5 139t-128.5 55q-110 0 -167.5 -69t-57.5 -180v-537z" />
    <glyph glyph-name="n" unicode="n" horiz-adv-x="1175" 
d="M385 0h-246v983h234v-158h4q43 93 121.5 138t179.5 45q84 0 149.5 -25t103.5 -64t63 -91.5t33.5 -100.5t8.5 -98v-629h-245v510q0 144 -45.5 210t-135.5 66q-112 0 -168.5 -69.5t-56.5 -175.5v-541z" />
    <glyph glyph-name="o" unicode="o" horiz-adv-x="1249" 
d="M625 1008q229 0 381.5 -144.5t152.5 -371.5q0 -150 -70.5 -269t-192 -183.5t-271.5 -64.5q-229 0 -382 145t-153 372q0 149 71.5 268t193 183.5t270.5 64.5zM336 492q0 -127 82 -211t207 -84q127 0 207.5 85t80.5 210q0 128 -82 211t-208 83q-123 0 -205 -84t-82 -210z
" />
    <glyph glyph-name="p" unicode="p" horiz-adv-x="1290" 
d="M717 1008q219 0 351 -146t132 -370q0 -140 -57 -257t-167 -188.5t-251 -71.5q-216 0 -334 150h-6v-592h-246v1450h234v-147h4q107 172 340 172zM377 492q0 -130 83.5 -212.5t205.5 -82.5q124 0 206 83.5t82 211.5q0 54 -18.5 105.5t-53.5 94t-91.5 68.5t-126.5 26
q-123 0 -205 -84t-82 -210z" />
    <glyph glyph-name="q" unicode="q" horiz-adv-x="1290" 
d="M573 1008q108 0 197.5 -42.5t142.5 -129.5h5v147h233v-1450h-246v592h-6q-121 -150 -334 -150q-141 0 -251 71.5t-167 188.5t-57 257q0 146 57 262.5t168 185t258 68.5zM336 492q0 -127 82 -211t207 -84q124 0 206 83.5t82 211.5q0 123 -79.5 208.5t-210.5 85.5
q-123 0 -205 -84t-82 -210z" />
    <glyph glyph-name="r" unicode="r" horiz-adv-x="796" 
d="M139 0v983h246v-156h4q40 85 117 133t174 48q26 0 88 -15v-237q-71 18 -119 18q-67 0 -119 -22t-83 -60t-46.5 -83.5t-15.5 -96.5v-512h-246z" />
    <glyph glyph-name="s" unicode="s" horiz-adv-x="909" 
d="M475 1008q115 0 206.5 -39t145.5 -111l-163 -147q-72 100 -193 100q-61 0 -102 -29t-41 -75q0 -13 3.5 -24t12 -20.5t17 -16.5t24.5 -13.5t28 -11.5t33.5 -10.5t35 -8.5t39.5 -9t40 -9q52 -12 90 -24.5t79.5 -35.5t67.5 -52.5t43 -75.5t17 -105q0 -151 -118 -233.5
t-308 -82.5q-246 0 -381 152l164 154q61 -67 115 -94t119 -27q69 0 116 31t47 81q0 40 -34 67.5t-66.5 37.5t-108.5 27q-23 5 -34 8q-49 11 -82 21.5t-75.5 32t-68 49t-43.5 72.5t-18 103q0 69 25 125t65 91t92.5 59t105 33.5t105.5 9.5z" />
    <glyph glyph-name="t" unicode="t" horiz-adv-x="796" 
d="M227 774h-202v209h202v285h246v-285h270v-209h-270v-436q0 -79 33 -116.5t104 -37.5q94 0 133 31v-207q-32 -16 -89 -24.5t-105 -8.5q-174 0 -248 76.5t-74 261.5v461z" />
    <glyph glyph-name="u" unicode="u" horiz-adv-x="1175" 
d="M139 983h246v-508q0 -145 44.5 -211.5t135.5 -66.5q107 0 166.5 67t59.5 182v537h245v-983h-233v158h-4q-85 -183 -301 -183q-83 0 -147.5 24t-103.5 62t-64 90t-34.5 101t-9.5 102v629z" />
    <glyph glyph-name="v" unicode="v" horiz-adv-x="1062" 
d="M6 983h268l263 -688h4l264 688h252l-387 -983h-262z" />
    <glyph glyph-name="w" unicode="w" horiz-adv-x="1630" 
d="M348 0l-342 983h266l213 -688h4l199 688h266l213 -688h4l205 688h248l-334 -983h-243l-234 672h-4l-207 -672h-254z" />
    <glyph glyph-name="x" unicode="x" horiz-adv-x="1099" 
d="M289 0h-291l395 528l-340 455h299l197 -295l213 295h280l-335 -455l395 -528h-299l-256 352z" />
    <glyph glyph-name="y" unicode="y" horiz-adv-x="1062" 
d="M6 983h270l275 -682h4l246 682h256l-449 -1151q-23 -58 -40 -95t-42 -78.5t-52 -65.5t-64 -45.5t-84.5 -30.5t-108.5 -9q-93 0 -188 25l30 221q67 -24 125 -24q48 0 78.5 8t53 30t35 45.5t32.5 71.5l43 107z" />
    <glyph glyph-name="z" unicode="z" horiz-adv-x="987" 
d="M893 983v-223l-533 -563h558v-197h-848v227l526 555v4h-502v197h799z" />
    <glyph glyph-name="braceleft" unicode="{" horiz-adv-x="569" 
d="M0 680q89 3 141 41.5t52 99.5v414q0 111 85.5 187.5t188.5 76.5h174v-172h-123q-53 0 -85 -34t-32 -101v-395q0 -82 -52 -137.5t-148 -67.5v-4q33 -2 63.5 -11.5t63.5 -31.5t53 -67t20 -109v-377q0 -69 30.5 -104t84.5 -35h125v-172h-180q-60 0 -121 32t-104 94.5
t-43 137.5v401q0 65 -52 108t-141 46v180z" />
    <glyph glyph-name="bar" unicode="|" horiz-adv-x="454" 
d="M332 1536v-2048h-209v2048h209z" />
    <glyph glyph-name="braceright" unicode="}" horiz-adv-x="569" 
d="M111 -319h-183v172h117q123 0 123 137v395q0 81 53.5 136t147.5 67v4q-201 17 -201 221v377q0 137 -123 137h-117v172h178q100 0 185.5 -77.5t85.5 -186.5v-401q0 -65 51.5 -108t140.5 -46v-180q-87 -3 -139.5 -41.5t-52.5 -98.5v-415q0 -73 -42 -135.5t-102.5 -95.5
t-121.5 -33z" />
    <glyph glyph-name="asciitilde" unicode="~" horiz-adv-x="1363" 
d="M457 788q94 0 248 -69q6 -3 31.5 -14.5t33 -15t28 -12.5t30 -12t25 -8t26.5 -6.5t22 -1.5q45 0 83.5 27.5t98.5 111.5l74 -172q-66 -97 -125 -136.5t-131 -39.5q-19 0 -36.5 2t-36.5 7.5t-31.5 9.5t-34 13.5t-30 14t-33 17.5t-31.5 16q-114 60 -209 60q-107 0 -178 -140
l-74 172q92 176 250 176z" />
    <glyph glyph-name="uni00A0" unicode="&#xa0;" horiz-adv-x="606" 
 />
    <glyph glyph-name="exclamdown" unicode="&#xa1;" horiz-adv-x="606" 
d="M303 1008q65 0 114.5 -46t49.5 -110q0 -67 -48 -113.5t-116 -46.5t-116 46t-48 110q0 66 49 113t115 47zM426 543v-998h-246v998h246z" />
    <glyph glyph-name="cent" unicode="&#xa2;" horiz-adv-x="1212" 
d="M160 494q0 214 122.5 350t331.5 164v137h111v-137q234 -8 348 -142l-158 -159q-83 86 -190 92v-615q111 0 199 95l149 -162q-120 -133 -348 -142v-147h-111v147q-204 17 -329 162t-125 357zM614 797q-107 -23 -164 -103.5t-57 -201.5q0 -115 59.5 -198.5t161.5 -109.5
v613z" />
    <glyph glyph-name="sterling" unicode="&#xa3;" horiz-adv-x="1212" 
d="M135 645v172h209v213q0 32 6 69t22 81t39.5 84.5t61.5 79.5t85.5 67.5t115 46t145.5 17.5q110 0 213.5 -32.5t177.5 -99.5l-166 -178q-98 88 -217 88q-102 0 -169.5 -70.5t-67.5 -172.5v-193h332v-172h-332v-448h518v-197h-973v197h209v448h-209z" />
    <glyph glyph-name="currency" unicode="&#xa4;" horiz-adv-x="1212" 
d="M197 195l-123 122l100 101q-100 140 -100 309t100 309l-100 101l123 120l100 -98q134 98 309 98q172 0 309 -98l101 98l123 -120l-101 -101q101 -137 101 -309q0 -165 -101 -309l101 -101l-123 -122l-101 100q-140 -100 -309 -100q-177 0 -309 100zM606 416
q139 0 219 84.5t80 226.5q0 138 -80.5 223.5t-220.5 85.5q-138 0 -217.5 -86t-79.5 -223q0 -139 81.5 -225t217.5 -86z" />
    <glyph glyph-name="yen" unicode="&#xa5;" horiz-adv-x="1212" 
d="M25 1450h276l315 -600h5l303 600h264l-332 -600h221v-160h-309l-39 -69v-99h348v-160h-348v-362h-246v362h-348v160h348v99l-39 69h-309v160h221z" />
    <glyph glyph-name="brokenbar" unicode="&#xa6;" horiz-adv-x="454" 
d="M332 666h-209v716h209v-716zM123 358h209v-716h-209v716z" />
    <glyph glyph-name="section" unicode="&#xa7;" horiz-adv-x="1214" 
d="M614 1487q147 0 258.5 -55.5t157.5 -151.5l-215 -121q-22 61 -74.5 96t-119.5 35q-71 0 -118.5 -35t-47.5 -100q0 -57 52 -100t165 -90q40 -17 61 -26t60 -27t61.5 -31t55.5 -35t52.5 -41t42.5 -46t35 -54t20.5 -61t8.5 -71q0 -80 -46.5 -151.5t-127.5 -110.5
q125 -92 125 -243q0 -110 -64 -194t-167.5 -126.5t-227.5 -42.5q-168 0 -283.5 65t-168.5 187l219 106q17 -67 82 -108t151 -41q84 0 136.5 35.5t52.5 97.5q0 55 -52.5 98.5t-154.5 83.5q-54 21 -80 31.5t-77.5 35t-79 43t-65.5 50t-57.5 62t-34 72.5t-14.5 89
q0 195 197 303q-135 85 -135 234q0 152 120.5 245t296.5 93zM369 664q0 -96 114 -148l258 -119q40 22 67.5 64t27.5 82q0 86 -107 145l-59 33l-183 86q-67 -31 -92.5 -63.5t-25.5 -79.5z" />
    <glyph glyph-name="dieresis" unicode="&#xa8;" horiz-adv-x="532" 
d="M53 1450q69 0 114.5 -42.5t45.5 -104.5t-45 -105t-115 -43q-66 0 -110.5 44t-44.5 104q0 59 44 103t111 44zM475 1450q69 0 114.5 -42.5t45.5 -104.5t-46 -105t-114 -43q-65 0 -110.5 43.5t-45.5 104.5t45.5 104t110.5 43z" />
    <glyph glyph-name="copyright" unicode="&#xa9;" horiz-adv-x="1638" 
d="M819 1487q154 0 295 -61t243 -163t163 -243t61 -295q0 -155 -60.5 -296t-162.5 -243t-243 -162.5t-296 -60.5t-296 60.5t-243 162.5t-162.5 243t-60.5 296t61 296.5t163.5 243.5t243.5 162t294 60zM254 725q0 -159 72 -293.5t202.5 -215.5t290.5 -81t290.5 81
t202.5 215.5t72 293.5q0 120 -42.5 228t-116.5 188t-180.5 127t-227.5 47q-159 0 -289 -81t-202 -215.5t-72 -293.5zM836 1161q145 0 246 -78t122 -219h-192q-26 125 -160 125q-113 0 -168 -68.5t-55 -185.5q0 -74 22.5 -133t73 -98t123.5 -39t117 36t47 107h192
q-22 -143 -119.5 -229t-244.5 -86q-187 0 -297.5 124t-110.5 314q0 194 106.5 312t297.5 118z" />
    <glyph glyph-name="ordfeminine" unicode="&#xaa;" horiz-adv-x="714" 
d="M285 870q-31 0 -64.5 7.5t-73 25t-65 56t-25.5 92.5q0 104 95.5 154t302.5 50h43v17q0 35 -41.5 51t-100.5 16q-91 0 -170 -65l-88 108q106 93 283 93q140 0 208 -58t68 -184v-350h-159v80h-4q-25 -42 -82 -67.5t-127 -25.5zM424 1133q-89 0 -142 -19t-53 -57
q0 -26 28 -45t75 -19q157 0 157 127v13h-65z" />
    <glyph glyph-name="guillemotleft" unicode="&#xab;" horiz-adv-x="1062" 
d="M526 862l-235 -354l237 -358l-155 -105l-312 463l312 459zM983 862l-235 -354l237 -358l-156 -105l-311 463l311 459z" />
    <glyph glyph-name="logicalnot" unicode="&#xac;" horiz-adv-x="1363" 
d="M1237 909v-608h-209v399h-901v209h1110z" />
    <glyph glyph-name="uni00AD" unicode="&#xad;" horiz-adv-x="645" 
d="M575 608v-209h-505v209h505z" />
    <glyph glyph-name="registered" unicode="&#xae;" horiz-adv-x="1638" 
d="M57 725q0 155 61 296.5t163.5 243.5t243.5 162t294 60q154 0 295 -61t243 -163t163 -243t61 -295q0 -155 -60.5 -296t-162.5 -243t-243 -162.5t-296 -60.5t-296 60.5t-243 162.5t-162.5 243t-60.5 296zM817 1315q-159 0 -289 -81t-202 -215.5t-72 -293.5t72 -293.5
t202.5 -215.5t290.5 -81t290.5 81t202.5 215.5t72 293.5q0 120 -42.5 228t-116.5 188t-180.5 127t-227.5 47zM723 334h-197v799h260q357 0 357 -236q0 -92 -51 -162.5t-129 -83.5l204 -317h-215l-182 307h-47v-307zM829 973h-108v-172h108q117 0 117 86t-117 86z" />
    <glyph glyph-name="macron" unicode="&#xaf;" horiz-adv-x="532" 
d="M594 1378v-159h-655v159h655z" />
    <glyph glyph-name="degree" unicode="&#xb0;" horiz-adv-x="819" 
d="M410 1475q134 0 230.5 -96t96.5 -232t-96.5 -232t-230.5 -96q-137 0 -232.5 97.5t-95.5 230.5t96.5 230.5t231.5 97.5zM242 1147q0 -70 50 -119t118 -49t118 49.5t50 118.5q0 68 -49 118t-119 50q-69 0 -118.5 -49t-49.5 -119z" />
    <glyph glyph-name="plusminus" unicode="&#xb1;" horiz-adv-x="1363" 
d="M127 674v209h453v293h208v-293h449v-209h-449v-293h-208v293h-453zM127 66v208h1110v-208h-1110z" />
    <glyph glyph-name="twosuperior" unicode="&#xb2;" horiz-adv-x="788" 
d="M412 1475q142 0 227.5 -69.5t85.5 -193.5q0 -78 -32.5 -129.5t-94.5 -99.5l-279 -215v-4h406v-172h-662v194l369 312q84 71 84 112q0 38 -31 59t-84 21t-88.5 -31.5t-38.5 -78.5l-196 12q6 134 94.5 208.5t239.5 74.5z" />
    <glyph glyph-name="threesuperior" unicode="&#xb3;" horiz-adv-x="788" 
d="M399 1475q140 0 229 -63t89 -171q0 -73 -42.5 -125t-119.5 -65v-4q78 -9 128 -68t50 -137q0 -120 -93 -191t-247 -71q-141 0 -226.5 61t-111.5 180l211 45q19 -102 127 -102q131 0 131 98q0 27 -11 46t-25.5 28.5t-41.5 14.5t-45.5 6t-50.5 1h-10h-41v172h57q84 0 118 23
t34 70q0 32 -29.5 49.5t-79.5 17.5q-47 0 -81 -24t-44 -66l-211 41q53 234 336 234z" />
    <glyph glyph-name="acute" unicode="&#xb4;" horiz-adv-x="532" 
d="M651 1450l-289 -295h-192l203 295h278z" />
    <glyph glyph-name="mu" unicode="&#xb5;" horiz-adv-x="1175" 
d="M139 -467v1450h246v-508q0 -145 44.5 -211.5t135.5 -66.5q57 0 100.5 19t66.5 46.5t37 63.5t18 62.5t4 51.5v543h245v-983h-233v158h-4q-85 -183 -301 -183q-51 0 -113 15v-457h-246z" />
    <glyph glyph-name="paragraph" unicode="&#xb6;" horiz-adv-x="1228" 
d="M63 1067q0 188 122.5 285.5t346.5 97.5h560v-1708h-185v1561h-219v-1561h-184v950q-199 1 -320 107t-121 268z" />
    <glyph glyph-name="periodcentered" unicode="&#xb7;" horiz-adv-x="606" 
d="M303 756q68 0 116 -46t48 -110t-47.5 -112t-116.5 -48q-66 0 -115 46t-49 110q0 66 48 113t116 47z" />
    <glyph glyph-name="cedilla" unicode="&#xb8;" horiz-adv-x="532" 
d="M330 0h119l-87 -123h13q126 0 180.5 -40t54.5 -130q0 -94 -80.5 -146.5t-203.5 -52.5q-110 0 -217 58l45 94q75 -41 168 -41q51 0 83.5 23t32.5 63q0 34 -30.5 54t-73.5 20q-25 0 -76 -15l-55 52z" />
    <glyph glyph-name="onesuperior" unicode="&#xb9;" horiz-adv-x="788" 
d="M575 1462v-870h-208v649l-172 -154l-113 136l307 239h186z" />
    <glyph glyph-name="ordmasculine" unicode="&#xba;" horiz-adv-x="813" 
d="M403 1475q142 0 244.5 -83.5t102.5 -220.5q0 -91 -50 -161t-128 -105t-169 -35q-140 0 -240 81.5t-100 217.5q0 137 99 221.5t241 84.5zM231 1171q0 -65 50.5 -109t121.5 -44t123 43t52 110q0 69 -52.5 112.5t-122.5 43.5t-121 -43t-51 -113z" />
    <glyph glyph-name="guillemotright" unicode="&#xbb;" horiz-adv-x="1062" 
d="M233 967l312 -463l-312 -459l-153 105l235 354l-237 358zM690 967l311 -463l-311 -459l-153 105l235 354l-237 358z" />
    <glyph glyph-name="onequarter" unicode="&#xbc;" horiz-adv-x="1820" 
d="M1038 174v160l385 536h230v-524h108v-172h-108v-174h-209v174h-406zM377 12l852 1504l170 -78l-852 -1504zM172 1087l-113 136l308 239h186v-870h-209v649zM1247 346h197v275l-2 4z" />
    <glyph glyph-name="onehalf" unicode="&#xbd;" horiz-adv-x="1820" 
d="M1233 1516l170 -78l-852 -1504l-170 78zM559 1462v-870h-209v649l-172 -154l-112 136l307 239h186zM1442 883q142 0 227.5 -69t85.5 -193q0 -78 -33 -130t-94 -100l-278 -215v-4h405v-172h-661v195l368 311q84 71 84 112q0 38 -30.5 59t-83.5 21t-88.5 -31.5t-38.5 -78.5
l-197 12q6 134 94.5 208.5t239.5 74.5z" />
    <glyph glyph-name="threequarters" unicode="&#xbe;" horiz-adv-x="1820" 
d="M47 821l211 45q19 -102 127 -102q131 0 131 98q0 27 -11 46t-25.5 28.5t-41.5 14.5t-45.5 6t-50.5 1h-10h-41v172h57q84 0 118 23t34 70q0 32 -29.5 49.5t-79.5 17.5q-47 0 -81 -24t-44 -66l-211 41q53 234 336 234q140 0 229 -63t89 -171q0 -73 -42.5 -125t-119.5 -65
v-4q78 -9 128 -68t50 -137q0 -120 -93 -191t-247 -71q-141 0 -226.5 61t-111.5 180zM1053 174v160l385 536h229v-524h107v-172h-107v-174h-209v174h-405zM602 -66l-170 78l852 1504l170 -78zM1219 326v-4h245v364h-4z" />
    <glyph glyph-name="questiondown" unicode="&#xbf;" horiz-adv-x="1062" 
d="M510 1008q65 0 114.5 -46t49.5 -110q0 -67 -48 -113.5t-116 -46.5q-66 0 -115 46t-49 110t46.5 112t117.5 48zM633 567v-104q0 -23 -1.5 -42.5t-3 -34.5t-7 -31t-8 -25.5t-12.5 -24.5t-13.5 -21t-18.5 -22t-19.5 -21t-24.5 -24.5t-27 -26.5l-133 -135q-52 -52 -52 -133
q0 -78 52.5 -129t132.5 -51q79 0 136.5 53.5t67.5 147.5l263 -21q-24 -196 -152.5 -305t-325.5 -109q-195 0 -313.5 108t-118.5 292q0 91 39 166.5t150 177.5q12 12 43.5 40.5t42 40.5t28 36.5t23.5 50.5t6 59v88h246z" />
    <glyph glyph-name="Agrave" unicode="&#xc0;" horiz-adv-x="1478" 
d="M289 0h-289l631 1450h223l625 -1450h-295l-135 332h-629zM735 1143l-227 -590h450zM354 1843h279l203 -295h-193z" />
    <glyph glyph-name="Aacute" unicode="&#xc1;" horiz-adv-x="1478" 
d="M0 0l631 1450h223l625 -1450h-295l-135 332h-629l-131 -332h-289zM735 1143l-227 -590h450zM643 1548l203 295h278l-288 -295h-193z" />
    <glyph glyph-name="Acircumflex" unicode="&#xc2;" horiz-adv-x="1478" 
d="M0 0l631 1450h223l625 -1450h-295l-135 332h-629l-131 -332h-289zM735 1143l-227 -590h450zM367 1548l235 295h277l233 -295h-233l-142 185l-141 -185h-229z" />
    <glyph glyph-name="Atilde" unicode="&#xc3;" horiz-adv-x="1478" 
d="M0 0l631 1450h223l625 -1450h-295l-135 332h-629l-131 -332h-289zM498 1556h-136q22 129 78 195t152 66q67 0 172 -41q89 -35 123 -35q69 0 94 86h135q-43 -260 -229 -260q-61 0 -154 35q-107 43 -141 43q-68 0 -94 -89zM735 1143l-227 -590h450z" />
    <glyph glyph-name="Adieresis" unicode="&#xc4;" horiz-adv-x="1478" 
d="M0 0l631 1450h223l625 -1450h-295l-135 332h-629l-131 -332h-289zM508 553h450l-223 590zM793 1696q0 61 44 104t111 43q70 0 115 -43.5t45 -103.5q0 -62 -46 -105t-114 -43q-66 0 -110.5 42.5t-44.5 105.5zM371 1696q0 60 44 103.5t111 43.5q68 0 114 -42t46 -105
q0 -64 -46.5 -106t-113.5 -42q-65 0 -110 42.5t-45 105.5z" />
    <glyph glyph-name="Aring" unicode="&#xc5;" horiz-adv-x="1478" 
d="M0 0l631 1450h223l625 -1450h-295l-135 332h-629l-131 -332h-289zM524 1712q0 91 61.5 151t153.5 60q94 0 154.5 -59t60.5 -150q0 -92 -61 -150.5t-154 -58.5q-95 0 -155 59t-60 148zM735 1143l-227 -590h450zM623 1714q0 -47 34 -78.5t82 -31.5q50 0 83.5 32t33.5 78
q0 49 -34.5 80t-84.5 31q-46 0 -80 -33t-34 -78z" />
    <glyph glyph-name="AE" unicode="&#xc6;" horiz-adv-x="2048" 
d="M301 0h-313l927 1450h1016v-233h-590v-357h553v-233h-553v-394h615v-233h-873v381h-548zM1053 1217l-383 -615h413v615h-30z" />
    <glyph glyph-name="Ccedilla" unicode="&#xc7;" horiz-adv-x="1402" 
d="M850 1487q159 0 282 -56t226 -174l-201 -147q-133 143 -305 143q-219 0 -358.5 -149t-139.5 -369q0 -152 60 -274t174.5 -193t263.5 -71q187 0 326 176l213 -152q-94 -129 -231.5 -192.5t-301.5 -65.5l-59 -86q44 0 75.5 -3t66 -13t56.5 -27.5t36 -49.5t14 -77
q0 -53 -26 -93t-69 -62t-91 -33t-99 -11q-114 0 -217 58l45 94q72 -41 168 -41q43 0 79.5 20t36.5 66q0 36 -33 55t-71 19q-29 0 -76 -15l-55 52l104 153q-301 35 -480 239.5t-179 510.5q0 169 56 312.5t155.5 243.5t242.5 156t312 56z" />
    <glyph glyph-name="Egrave" unicode="&#xc8;" horiz-adv-x="1251" 
d="M162 0v1450h960v-233h-702v-357h665v-233h-665v-394h739v-233h-997zM242 1843h278l203 -295h-193z" />
    <glyph glyph-name="Eacute" unicode="&#xc9;" horiz-adv-x="1251" 
d="M1159 0h-997v1450h960v-233h-702v-357h665v-233h-665v-394h739v-233zM530 1548l203 295h279l-289 -295h-193z" />
    <glyph glyph-name="Ecircumflex" unicode="&#xca;" horiz-adv-x="1251" 
d="M162 0v1450h960v-233h-702v-357h665v-233h-665v-394h739v-233h-997zM254 1548l235 295h277l233 -295h-233l-141 185l-142 -185h-229z" />
    <glyph glyph-name="Edieresis" unicode="&#xcb;" horiz-adv-x="1251" 
d="M1159 0h-997v1450h960v-233h-702v-357h665v-233h-665v-394h739v-233zM680 1696q0 61 44.5 104t111.5 43q70 0 114.5 -43.5t44.5 -103.5q0 -62 -45.5 -105t-113.5 -43q-66 0 -111 42.5t-45 105.5zM258 1696q0 60 44.5 103.5t111.5 43.5q68 0 113.5 -42t45.5 -105
q0 -64 -46 -106t-113 -42q-65 0 -110.5 42.5t-45.5 105.5z" />
    <glyph glyph-name="Igrave" unicode="&#xcc;" horiz-adv-x="569" 
d="M178 1843l203 -295h-193l-288 295h278zM414 1450v-1450h-258v1450h258z" />
    <glyph glyph-name="Iacute" unicode="&#xcd;" horiz-adv-x="569" 
d="M670 1843l-289 -295h-193l203 295h279zM414 1450v-1450h-258v1450h258z" />
    <glyph glyph-name="Icircumflex" unicode="&#xce;" horiz-adv-x="569" 
d="M156 0v1450h258v-1450h-258zM141 1548h-229l235 295h277l233 -295h-233l-141 185z" />
    <glyph glyph-name="Idieresis" unicode="&#xcf;" horiz-adv-x="569" 
d="M72 1843q68 0 113.5 -42t45.5 -105q0 -64 -46 -106t-113 -42q-65 0 -110.5 42.5t-45.5 105.5q0 60 44.5 103.5t111.5 43.5zM494 1843q70 0 114.5 -43.5t44.5 -103.5q0 -62 -45.5 -105t-113.5 -43q-66 0 -111 42.5t-45 105.5q0 61 44.5 104t111.5 43zM414 1450v-1450h-258
v1450h258z" />
    <glyph glyph-name="Eth" unicode="&#xd0;" horiz-adv-x="1554" 
d="M162 664h-135v172h135v614h577q114 0 220 -28t199.5 -87.5t162.5 -143.5t109 -204t40 -262q0 -148 -49 -272t-128 -206t-180.5 -139t-203.5 -82.5t-200 -25.5h-547v664zM420 1217v-381h442v-172h-442v-431h203q95 0 179 17t157.5 55t126.5 94.5t83.5 139.5t30.5 186
q0 129 -40 225t-114 153.5t-171 85.5t-218 28h-237z" />
    <glyph glyph-name="Ntilde" unicode="&#xd1;" horiz-adv-x="1630" 
d="M162 0v1450h342l702 -1077h4v1077h258v-1450h-327l-717 1112h-4v-1112h-258zM573 1556h-135q22 129 78 195t152 66q67 0 172 -41q89 -35 123 -35q69 0 94 86h135q-43 -260 -229 -260q-61 0 -154 35q-107 43 -141 43q-69 0 -95 -89z" />
    <glyph glyph-name="Ograve" unicode="&#xd2;" horiz-adv-x="1705" 
d="M748 1843l202 -295h-192l-289 295h279zM1622 727q0 -168 -59 -311t-161.5 -242t-246 -155t-309.5 -56q-165 0 -306.5 55.5t-242 154t-157 239.5t-56.5 307q0 158 51 296.5t146.5 244t244.5 166.5t334 61q170 0 312.5 -55.5t241 -154.5t153.5 -240.5t55 -309.5zM354 735
q0 -150 58.5 -271t173.5 -194t266 -73q152 0 267.5 73.5t174 194.5t58.5 270q0 224 -140.5 371t-361.5 147q-144 0 -258.5 -69.5t-176 -187.5t-61.5 -261z" />
    <glyph glyph-name="Oacute" unicode="&#xd3;" horiz-adv-x="1705" 
d="M1239 1843l-289 -295h-192l203 295h278zM1622 727q0 -168 -59 -311t-161.5 -242t-246 -155t-309.5 -56q-165 0 -306.5 55.5t-242 154t-157 239.5t-56.5 307q0 158 51 296.5t146.5 244t244.5 166.5t334 61q170 0 312.5 -55.5t241 -154.5t153.5 -240.5t55 -309.5zM354 735
q0 -150 58.5 -271t173.5 -194t266 -73q152 0 267.5 73.5t174 194.5t58.5 270q0 224 -140.5 371t-361.5 147q-144 0 -258.5 -69.5t-176 -187.5t-61.5 -261z" />
    <glyph glyph-name="Ocircumflex" unicode="&#xd4;" horiz-adv-x="1705" 
d="M846 -37q-165 0 -306.5 55.5t-242 154t-157 239.5t-56.5 307q0 158 51 296.5t146.5 244t244.5 166.5t334 61q170 0 312.5 -55.5t241 -154.5t153.5 -240.5t55 -309.5t-59 -311t-161.5 -242t-246 -155t-309.5 -56zM850 1253q-144 0 -258.5 -69.5t-176 -187.5t-61.5 -261
q0 -150 58.5 -271t173.5 -194t266 -73q152 0 267.5 73.5t174 194.5t58.5 270q0 224 -140.5 371t-361.5 147zM481 1548l236 295h276l234 -295h-234l-141 185l-141 -185h-230z" />
    <glyph glyph-name="Otilde" unicode="&#xd5;" horiz-adv-x="1705" 
d="M1231 1827q-43 -260 -230 -260q-60 0 -153 35q-107 43 -141 43q-69 0 -95 -89h-135q22 129 78 195t152 66q67 0 172 -41q89 -35 122 -35q70 0 95 86h135zM1622 727q0 -168 -59 -311t-161.5 -242t-246 -155t-309.5 -56q-165 0 -306.5 55.5t-242 154t-157 239.5t-56.5 307
q0 158 51 296.5t146.5 244t244.5 166.5t334 61q170 0 312.5 -55.5t241 -154.5t153.5 -240.5t55 -309.5zM354 735q0 -150 58.5 -271t173.5 -194t266 -73q152 0 267.5 73.5t174 194.5t58.5 270q0 224 -140.5 371t-361.5 147q-144 0 -258.5 -69.5t-176 -187.5t-61.5 -261z" />
    <glyph glyph-name="Odieresis" unicode="&#xd6;" horiz-adv-x="1705" 
d="M641 1843q68 0 114 -42t46 -105q0 -64 -46.5 -106t-113.5 -42q-65 0 -110.5 42.5t-45.5 105.5q0 60 44.5 103.5t111.5 43.5zM1063 1843q70 0 115 -43.5t45 -103.5q0 -62 -46 -105t-114 -43q-66 0 -111 42.5t-45 105.5q0 61 44.5 104t111.5 43zM1622 727q0 -168 -59 -311
t-161.5 -242t-246 -155t-309.5 -56q-165 0 -306.5 55.5t-242 154t-157 239.5t-56.5 307q0 158 51 296.5t146.5 244t244.5 166.5t334 61q170 0 312.5 -55.5t241 -154.5t153.5 -240.5t55 -309.5zM354 735q0 -150 58.5 -271t173.5 -194t266 -73q152 0 267.5 73.5t174 194.5
t58.5 270q0 224 -140.5 371t-361.5 147q-144 0 -258.5 -69.5t-176 -187.5t-61.5 -261z" />
    <glyph glyph-name="multiply" unicode="&#xd7;" horiz-adv-x="1363" 
d="M307 1141l375 -375l373 373l143 -144l-371 -370l379 -381l-151 -152l-375 371l-371 -371l-151 150l379 372l-377 381z" />
    <glyph glyph-name="Oslash" unicode="&#xd8;" horiz-adv-x="1705" 
d="M1499 1546l100 -88l-176 -192q199 -210 199 -539q0 -224 -101 -399t-277.5 -270t-397.5 -95q-275 0 -479 152l-174 -189l-103 88l178 193q-184 207 -184 512q0 155 49.5 292t144 244t245.5 169.5t341 62.5q263 0 457 -133zM354 735q0 -181 95 -332l696 758
q-129 92 -295 92q-108 0 -201.5 -40.5t-157.5 -110t-100.5 -165t-36.5 -202.5zM1241 1067l-700 -764q132 -106 311 -106q226 0 363 152t137 386q0 198 -111 332z" />
    <glyph glyph-name="Ugrave" unicode="&#xd9;" horiz-adv-x="1478" 
d="M156 1450h258v-915q0 -43 9.5 -85.5t33.5 -86.5t59.5 -77.5t93 -55t129.5 -21.5q89 0 155.5 31.5t102 82.5t52 104.5t16.5 107.5v915h258v-928q0 -109 -38 -208t-109.5 -178t-184.5 -126t-252 -47q-112 0 -208 31t-164 84.5t-116 124.5t-71.5 152t-23.5 167v928z
M354 1843h279l203 -295h-193z" />
    <glyph glyph-name="Uacute" unicode="&#xda;" horiz-adv-x="1478" 
d="M156 1450h258v-915q0 -43 9.5 -85.5t33.5 -86.5t59.5 -77.5t93 -55t129.5 -21.5q89 0 155.5 31.5t102 82.5t52 104.5t16.5 107.5v915h258v-928q0 -109 -38 -208t-109.5 -178t-184.5 -126t-252 -47q-112 0 -208 31t-164 84.5t-116 124.5t-71.5 152t-23.5 167v928z
M643 1548l203 295h278l-288 -295h-193z" />
    <glyph glyph-name="Ucircumflex" unicode="&#xdb;" horiz-adv-x="1478" 
d="M156 1450h258v-915q0 -43 9.5 -85.5t33.5 -86.5t59.5 -77.5t93 -55t129.5 -21.5q89 0 155.5 31.5t102 82.5t52 104.5t16.5 107.5v915h258v-928q0 -109 -38 -208t-109.5 -178t-184.5 -126t-252 -47q-112 0 -208 31t-164 84.5t-116 124.5t-71.5 152t-23.5 167v928z
M596 1548h-229l235 295h277l233 -295h-233l-142 185z" />
    <glyph glyph-name="Udieresis" unicode="&#xdc;" horiz-adv-x="1478" 
d="M739 -37q-112 0 -208 31t-164 84.5t-116 124.5t-71.5 152t-23.5 167v928h258v-915q0 -43 9.5 -85.5t33.5 -86.5t59.5 -77.5t93 -55t129.5 -21.5q89 0 155.5 31.5t102 82.5t52 104.5t16.5 107.5v915h258v-928q0 -109 -38 -208t-109.5 -178t-184.5 -126t-252 -47zM793 1696
q0 61 44 104t111 43q70 0 115 -43.5t45 -103.5q0 -62 -46 -105t-114 -43q-66 0 -110.5 42.5t-44.5 105.5zM371 1696q0 60 44 103.5t111 43.5q68 0 114 -42t46 -105q0 -64 -46.5 -106t-113.5 -42q-65 0 -110 42.5t-45 105.5z" />
    <glyph glyph-name="Yacute" unicode="&#xdd;" horiz-adv-x="1290" 
d="M1030 1843l-289 -295h-192l203 295h278zM295 1450l356 -578l361 578h307l-545 -829v-621h-258v621l-545 829h324z" />
    <glyph glyph-name="Thorn" unicode="&#xde;" horiz-adv-x="1251" 
d="M162 0v1450h258v-281h221q268 0 405.5 -106.5t137.5 -312.5q0 -221 -136 -326t-432 -105h-196v-319h-258zM420 541h168q37 0 63.5 1t63 5.5t62 13t53 23.5t44.5 36t28 53t11 72q0 203 -301 203h-192v-407z" />
    <glyph glyph-name="germandbls" unicode="&#xdf;" horiz-adv-x="1251" 
d="M604 1573q198 0 322.5 -102t124.5 -277q0 -114 -55.5 -197t-161.5 -127v-4q154 -20 240.5 -135.5t86.5 -284.5q0 -210 -134.5 -340.5t-346.5 -130.5q-87 0 -172 23v207q51 -21 113 -21q133 0 213.5 77.5t80.5 205.5q0 138 -83.5 215.5t-233.5 77.5h-23v209h13
q101 0 159 53t58 139q0 82 -60 136.5t-147 54.5q-112 0 -175 -65.5t-63 -178.5v-1108h-245v1055q0 261 118.5 389.5t370.5 128.5z" />
    <glyph glyph-name="agrave" unicode="&#xe0;" horiz-adv-x="1099" 
d="M432 -25q-155 0 -256.5 81t-101.5 214q0 173 145.5 257.5t458.5 84.5h76v29q0 85 -61.5 133.5t-164.5 48.5q-148 0 -262 -102l-129 129q154 158 418 158q98 0 172.5 -22t121 -59t75.5 -92t40 -114.5t11 -132.5v-588h-221v135h-6q-101 -160 -316 -160zM668 440
q-349 0 -349 -151q0 -60 51 -94.5t124 -34.5q121 0 183 60t62 159v61h-71zM455 1155l-289 295h278l203 -295h-192z" />
    <glyph glyph-name="aacute" unicode="&#xe1;" horiz-adv-x="1099" 
d="M432 -25q-155 0 -256.5 81t-101.5 214q0 173 145.5 257.5t458.5 84.5h76v29q0 85 -61.5 133.5t-164.5 48.5q-148 0 -262 -102l-129 129q154 158 418 158q98 0 172.5 -22t121 -59t75.5 -92t40 -114.5t11 -132.5v-588h-221v135h-6q-101 -160 -316 -160zM668 440
q-349 0 -349 -151q0 -60 51 -94.5t124 -34.5q121 0 183 60t62 159v61h-71zM455 1155l202 295h279l-289 -295h-192z" />
    <glyph glyph-name="acircumflex" unicode="&#xe2;" horiz-adv-x="1099" 
d="M432 -25q-155 0 -256.5 81t-101.5 214q0 173 145.5 257.5t458.5 84.5h76v29q0 85 -61.5 133.5t-164.5 48.5q-148 0 -262 -102l-129 129q154 158 418 158q98 0 172.5 -22t121 -59t75.5 -92t40 -114.5t11 -132.5v-588h-221v135h-6q-101 -160 -316 -160zM178 1155l236 295
h276l234 -295h-234l-141 184l-141 -184h-230zM668 440q-349 0 -349 -151q0 -60 51 -94.5t124 -34.5q121 0 183 60t62 159v61h-71z" />
    <glyph glyph-name="atilde" unicode="&#xe3;" horiz-adv-x="1099" 
d="M74 270q0 173 145.5 257.5t458.5 84.5h76v29q0 85 -61.5 133.5t-164.5 48.5q-148 0 -262 -102l-129 129q154 158 418 158q98 0 172.5 -22t121 -59t75.5 -92t40 -114.5t11 -132.5v-588h-221v135h-6q-101 -160 -316 -160q-155 0 -256.5 81t-101.5 214zM309 1163h-135
q22 129 77.5 194.5t151.5 65.5q67 0 172 -41q87 -34 123 -34q70 0 95 86h135q-43 -260 -230 -260q-63 0 -153 34q-107 43 -142 43q-68 0 -94 -88zM319 289q0 -60 51 -94.5t124 -34.5q121 0 183 60t62 159v61h-71q-349 0 -349 -151z" />
    <glyph glyph-name="adieresis" unicode="&#xe4;" horiz-adv-x="1099" 
d="M74 270q0 173 145.5 257.5t458.5 84.5h76v29q0 85 -61.5 133.5t-164.5 48.5q-148 0 -262 -102l-129 129q154 158 418 158q98 0 172.5 -22t121 -59t75.5 -92t40 -114.5t11 -132.5v-588h-221v135h-6q-101 -160 -316 -160q-155 0 -256.5 81t-101.5 214zM668 440
q-349 0 -349 -151q0 -60 51 -94.5t124 -34.5q121 0 183 60t62 159v61h-71zM338 1155q-66 0 -111 44t-45 104q0 59 44.5 103t111.5 44q69 0 114.5 -42.5t45.5 -104.5t-45 -105t-115 -43zM604 1303q0 61 45.5 104t110.5 43q69 0 114.5 -42.5t45.5 -104.5t-46 -105t-114 -43
q-65 0 -110.5 43.5t-45.5 104.5z" />
    <glyph glyph-name="aring" unicode="&#xe5;" horiz-adv-x="1099" 
d="M432 -25q-155 0 -256.5 81t-101.5 214q0 173 145.5 257.5t458.5 84.5h76v29q0 85 -61.5 133.5t-164.5 48.5q-148 0 -262 -102l-129 129q154 158 418 158q98 0 172.5 -22t121 -59t75.5 -92t40 -114.5t11 -132.5v-588h-221v135h-6q-101 -160 -316 -160zM336 1339
q0 88 60 149.5t155 61.5q91 0 153 -58t62 -151t-62 -150.5t-153 -57.5q-93 0 -154 58t-61 148zM668 440q-349 0 -349 -151q0 -60 51 -94.5t124 -34.5q121 0 183 60t62 159v61h-71zM434 1341q0 -47 34.5 -78.5t82.5 -31.5q50 0 83.5 32t33.5 78q0 49 -34.5 80t-84.5 31
q-46 0 -80.5 -33t-34.5 -78z" />
    <glyph glyph-name="ae" unicode="&#xe6;" horiz-adv-x="1744" 
d="M74 272q0 161 113 239.5t354 78.5h209q0 111 -58.5 173t-163.5 62q-148 0 -262 -102l-129 129q71 74 179.5 116t244.5 42q99 0 183.5 -39.5t136.5 -106.5q132 144 315 144q223 0 349 -141.5t126 -387.5v-61h-717v-8q0 -102 74 -176t166 -74q156 0 262 133l170 -121
q-154 -197 -432 -197q-115 0 -211 46.5t-156 130.5q-113 -175 -395 -175q-152 0 -255 79t-103 216zM319 289q0 -57 50 -92t120 -35q112 0 186.5 66t74.5 169v21h-134q-137 0 -217 -32t-80 -97zM1198 823q-59 0 -106 -21.5t-74.5 -56.5t-42.5 -74.5t-17 -80.5h476
q-6 108 -70 170.5t-166 62.5z" />
    <glyph glyph-name="ccedilla" unicode="&#xe7;" horiz-adv-x="987" 
d="M625 1008q101 0 195.5 -38.5t160.5 -111.5l-170 -170q-94 98 -186 98q-125 0 -207 -83.5t-82 -210.5t82 -211t207 -84q56 0 106.5 24t83.5 68l164 -176q-60 -60 -158.5 -98t-191.5 -40l-70 -98q44 0 75.5 -3t66 -13t56.5 -27.5t36 -49.5t14 -77q0 -53 -27 -93.5
t-71 -62.5t-91 -32.5t-96 -10.5q-114 0 -217 58l45 94q72 -41 168 -41q46 0 81.5 21.5t35.5 64.5q0 36 -33 55t-72 19q-28 0 -75 -15l-56 52l117 170q-196 37 -311 174.5t-115 331.5q0 149 71.5 268t193 183.5t270.5 64.5z" />
    <glyph glyph-name="egrave" unicode="&#xe8;" horiz-adv-x="1175" 
d="M481 1450l203 -295h-192l-289 295h278zM625 1008q91 0 167 -27t129.5 -75t91 -115t55 -146.5t17.5 -169.5v-69h-749q12 -105 85 -169.5t179 -64.5q156 0 264 133l176 -133q-159 -197 -415 -197q-229 0 -382 145t-153 372q0 226 153.5 371t381.5 145zM336 590h504
q-1 112 -70.5 172.5t-181.5 60.5q-106 0 -172 -63t-80 -170z" />
    <glyph glyph-name="eacute" unicode="&#xe9;" horiz-adv-x="1175" 
d="M973 1450l-289 -295h-192l202 295h279zM625 1008q91 0 167 -27t129.5 -75t91 -115t55 -146.5t17.5 -169.5v-69h-749q12 -105 85 -169.5t179 -64.5q156 0 264 133l176 -133q-159 -197 -415 -197q-229 0 -382 145t-153 372q0 226 153.5 371t381.5 145zM336 590h504
q-1 112 -70.5 172.5t-181.5 60.5q-106 0 -172 -63t-80 -170z" />
    <glyph glyph-name="ecircumflex" unicode="&#xea;" horiz-adv-x="1175" 
d="M90 492q0 226 153.5 371t381.5 145q91 0 167 -27t129.5 -75t91 -115t55 -146.5t17.5 -169.5v-69h-749q12 -105 85 -169.5t179 -64.5q156 0 264 133l176 -133q-159 -197 -415 -197q-229 0 -382 145t-153 372zM215 1155l236 295h276l234 -295h-234l-141 184l-142 -184h-229
zM336 590h504q-1 112 -70.5 172.5t-181.5 60.5q-106 0 -172 -63t-80 -170z" />
    <glyph glyph-name="edieresis" unicode="&#xeb;" horiz-adv-x="1175" 
d="M375 1450q69 0 114.5 -42.5t45.5 -104.5t-45 -105t-115 -43q-66 0 -111 44t-45 104q0 59 44.5 103t111.5 44zM797 1450q68 0 113.5 -42.5t45.5 -104.5t-45.5 -105t-113.5 -43q-65 0 -110.5 43.5t-45.5 104.5t45.5 104t110.5 43zM625 1008q91 0 167 -27t129.5 -75t91 -115
t55 -146.5t17.5 -169.5v-69h-749q12 -105 85 -169.5t179 -64.5q156 0 264 133l176 -133q-159 -197 -415 -197q-229 0 -382 145t-153 372q0 226 153.5 371t381.5 145zM336 590h504q-1 112 -70.5 172.5t-181.5 60.5q-106 0 -172 -63t-80 -170z" />
    <glyph glyph-name="igrave" unicode="&#xec;" horiz-adv-x="532" 
d="M184 1450l203 -295h-192l-289 295h278zM389 983v-983h-246v983h246z" />
    <glyph glyph-name="iacute" unicode="&#xed;" horiz-adv-x="532" 
d="M629 1450l-289 -295h-193l203 295h279zM389 983v-983h-246v983h246z" />
    <glyph glyph-name="icircumflex" unicode="&#xee;" horiz-adv-x="532" 
d="M143 0v983h246v-983h-246zM123 1155h-229l235 295h277l233 -295h-233l-142 184z" />
    <glyph glyph-name="idieresis" unicode="&#xef;" horiz-adv-x="532" 
d="M53 1450q69 0 114.5 -42.5t45.5 -104.5t-45 -105t-115 -43q-66 0 -110.5 44t-44.5 104q0 59 44 103t111 44zM475 1450q69 0 114.5 -42.5t45.5 -104.5t-46 -105t-114 -43q-65 0 -110.5 43.5t-45.5 104.5t45.5 104t110.5 43zM389 983v-983h-246v983h246z" />
    <glyph glyph-name="eth" unicode="&#xf0;" horiz-adv-x="1249" 
d="M299 1503l205 119q61 -45 174 -154l227 105l131 -115l-239 -110q168 -185 265 -377t97 -404q0 -173 -58 -304.5t-180 -209.5t-294 -78q-150 0 -272 64.5t-193.5 183.5t-71.5 269q0 144 67 262.5t185 186t262 67.5q153 0 234 -78l4 4q-85 134 -264 317l-218 -100l-122 117
l219 102q-33 31 -158 133zM336 492q0 -127 82 -211t207 -84q127 0 207.5 85t80.5 210q0 128 -82.5 211t-207.5 83q-123 0 -205 -84t-82 -210z" />
    <glyph glyph-name="ntilde" unicode="&#xf1;" horiz-adv-x="1175" 
d="M139 0v983h234v-158h4q43 93 121.5 138t179.5 45q84 0 149.5 -25t103.5 -64t63 -91.5t33.5 -100.5t8.5 -98v-629h-245v510q0 144 -45.5 210t-135.5 66q-112 0 -168.5 -69.5t-56.5 -175.5v-541h-246zM346 1163h-135q22 129 77.5 194.5t151.5 65.5q67 0 172 -41
q87 -34 123 -34q69 0 94 86h136q-43 -260 -230 -260q-63 0 -153 34q-107 43 -142 43q-68 0 -94 -88z" />
    <glyph glyph-name="ograve" unicode="&#xf2;" horiz-adv-x="1249" 
d="M518 1450l203 -295h-193l-288 295h278zM625 1008q229 0 381.5 -144.5t152.5 -371.5q0 -150 -70.5 -269t-192 -183.5t-271.5 -64.5q-229 0 -382 145t-153 372q0 149 71.5 268t193 183.5t270.5 64.5zM336 492q0 -127 82 -211t207 -84q127 0 207.5 85t80.5 210
q0 128 -82 211t-208 83q-123 0 -205 -84t-82 -210z" />
    <glyph glyph-name="oacute" unicode="&#xf3;" horiz-adv-x="1249" 
d="M1010 1450l-289 -295h-193l203 295h279zM625 1008q229 0 381.5 -144.5t152.5 -371.5q0 -150 -70.5 -269t-192 -183.5t-271.5 -64.5q-229 0 -382 145t-153 372q0 149 71.5 268t193 183.5t270.5 64.5zM336 492q0 -127 82 -211t207 -84q127 0 207.5 85t80.5 210
q0 128 -82 211t-208 83q-123 0 -205 -84t-82 -210z" />
    <glyph glyph-name="ocircumflex" unicode="&#xf4;" horiz-adv-x="1249" 
d="M90 492q0 149 71.5 268t193 183.5t270.5 64.5q229 0 381.5 -144.5t152.5 -371.5q0 -150 -70.5 -269t-192 -183.5t-271.5 -64.5q-229 0 -382 145t-153 372zM623 786q-123 0 -205 -84t-82 -210q0 -127 82 -211t207 -84q127 0 207.5 85t80.5 210q0 128 -82 211t-208 83z
M252 1155l235 295h277l233 -295h-233l-141 184l-142 -184h-229z" />
    <glyph glyph-name="otilde" unicode="&#xf5;" horiz-adv-x="1249" 
d="M1001 1434q-43 -260 -229 -260q-64 0 -154 34q-107 43 -141 43q-68 0 -94 -88h-135q22 129 77.5 194.5t151.5 65.5q67 0 172 -41q87 -34 123 -34q69 0 94 86h135zM625 1008q229 0 381.5 -144.5t152.5 -371.5q0 -150 -70.5 -269t-192 -183.5t-271.5 -64.5q-229 0 -382 145
t-153 372q0 149 71.5 268t193 183.5t270.5 64.5zM336 492q0 -127 82 -211t207 -84q127 0 207.5 85t80.5 210q0 128 -82 211t-208 83q-123 0 -205 -84t-82 -210z" />
    <glyph glyph-name="odieresis" unicode="&#xf6;" horiz-adv-x="1249" 
d="M412 1450q68 0 113.5 -42.5t45.5 -104.5t-45 -105t-114 -43q-66 0 -111 44t-45 104q0 59 44.5 103t111.5 44zM834 1450q68 0 113.5 -42.5t45.5 -104.5t-45.5 -105t-113.5 -43q-65 0 -110.5 43.5t-45.5 104.5t45.5 104t110.5 43zM625 1008q229 0 381.5 -144.5
t152.5 -371.5q0 -150 -70.5 -269t-192 -183.5t-271.5 -64.5q-229 0 -382 145t-153 372q0 149 71.5 268t193 183.5t270.5 64.5zM336 492q0 -127 82 -211t207 -84q127 0 207.5 85t80.5 210q0 128 -82 211t-208 83q-123 0 -205 -84t-82 -210z" />
    <glyph glyph-name="divide" unicode="&#xf7;" horiz-adv-x="1363" 
d="M682 1143q62 0 108 -45t46 -109q0 -65 -45.5 -109t-108.5 -44q-64 0 -109 45.5t-45 107.5t45.5 108t108.5 46zM1237 725v-209h-1110v209h1110zM682 406q61 0 107.5 -44.5t46.5 -109.5q0 -63 -45.5 -108.5t-108.5 -45.5t-108.5 45.5t-45.5 108.5t45.5 108.5t108.5 45.5z
" />
    <glyph glyph-name="oslash" unicode="&#xf8;" horiz-adv-x="1249" 
d="M954 905l146 148l86 -82l-144 -146q117 -141 117 -333q0 -150 -70.5 -269t-192 -183.5t-271.5 -64.5q-190 0 -326 101l-143 -146l-82 84l137 140q-121 136 -121 338q0 226 153.5 371t381.5 145q188 0 329 -103zM336 492q0 -90 47 -164l403 409q-64 49 -163 49
q-123 0 -205 -84.5t-82 -209.5zM870 651l-405 -407q67 -47 160 -47q127 0 207.5 85t80.5 210q0 89 -43 159z" />
    <glyph glyph-name="ugrave" unicode="&#xf9;" horiz-adv-x="1175" 
d="M139 354v629h246v-508q0 -145 44.5 -211.5t135.5 -66.5q107 0 166.5 67t59.5 182v537h245v-983h-233v158h-4q-85 -183 -301 -183q-83 0 -147.5 24t-103.5 62t-64 90t-34.5 101t-9.5 102zM203 1450h278l203 -295h-192z" />
    <glyph glyph-name="uacute" unicode="&#xfa;" horiz-adv-x="1175" 
d="M139 354v629h246v-508q0 -145 44.5 -211.5t135.5 -66.5q107 0 166.5 67t59.5 182v537h245v-983h-233v158h-4q-85 -183 -301 -183q-83 0 -147.5 24t-103.5 62t-64 90t-34.5 101t-9.5 102zM684 1155h-192l202 295h279z" />
    <glyph glyph-name="ucircumflex" unicode="&#xfb;" horiz-adv-x="1175" 
d="M139 354v629h246v-508q0 -145 44.5 -211.5t135.5 -66.5q107 0 166.5 67t59.5 182v537h245v-983h-233v158h-4q-85 -183 -301 -183q-83 0 -147.5 24t-103.5 62t-64 90t-34.5 101t-9.5 102zM444 1155h-229l236 295h276l234 -295h-234l-141 184z" />
    <glyph glyph-name="udieresis" unicode="&#xfc;" horiz-adv-x="1175" 
d="M139 983h246v-508q0 -145 44.5 -211.5t135.5 -66.5q107 0 166.5 67t59.5 182v537h245v-983h-233v158h-4q-85 -183 -301 -183q-83 0 -147.5 24t-103.5 62t-64 90t-34.5 101t-9.5 102v629zM219 1303q0 59 44.5 103t111.5 44q69 0 114.5 -42.5t45.5 -104.5t-45 -105
t-115 -43q-66 0 -111 44t-45 104zM797 1155q-65 0 -110.5 43.5t-45.5 104.5t45.5 104t110.5 43q68 0 113.5 -42.5t45.5 -104.5t-45.5 -105t-113.5 -43z" />
    <glyph glyph-name="yacute" unicode="&#xfd;" horiz-adv-x="1062" 
d="M6 983h270l275 -682h4l246 682h256l-449 -1151q-23 -58 -40 -95t-42 -78.5t-52 -65.5t-64 -45.5t-84.5 -30.5t-108.5 -9q-93 0 -188 25l30 221q67 -24 125 -24q48 0 78.5 8t53 30t35 45.5t32.5 71.5l43 107zM436 1155l203 295h279l-289 -295h-193z" />
    <glyph glyph-name="thorn" unicode="&#xfe;" horiz-adv-x="1290" 
d="M385 -467h-246v2015h246v-692h4q47 75 137.5 113.5t190.5 38.5q147 0 258.5 -69.5t168 -185.5t56.5 -261q0 -140 -57 -257t-167 -188.5t-251 -71.5q-216 0 -334 150h-6v-592zM377 492q0 -125 81.5 -210t207.5 -85t207 83.5t81 211.5t-82 211t-208 83q-124 0 -205.5 -85.5
t-81.5 -208.5z" />
    <glyph glyph-name="ydieresis" unicode="&#xff;" horiz-adv-x="1062" 
d="M6 983h270l275 -682h4l246 682h256l-449 -1151q-23 -58 -40 -95t-42 -78.5t-52 -65.5t-64 -45.5t-84.5 -30.5t-108.5 -9q-93 0 -188 25l30 221q67 -24 125 -24q48 0 78.5 8t53 30t35 45.5t32.5 71.5l43 107zM164 1303q0 59 44 103t111 44q69 0 114.5 -42.5t45.5 -104.5
t-45 -105t-115 -43q-66 0 -110.5 44t-44.5 104zM586 1303q0 61 45 104t110 43q69 0 114.5 -42.5t45.5 -104.5t-46 -105t-114 -43q-65 0 -110 43.5t-45 104.5z" />
    <glyph glyph-name="dotlessi" unicode="&#x131;" horiz-adv-x="532" 
d="M389 983v-983h-246v983h246z" />
    <glyph glyph-name="Lslash" unicode="&#x141;" horiz-adv-x="1062" 
d="M18 481l144 127v842h258v-614l422 370v-223l-422 -373v-377h616v-233h-874v383l-144 -127v225z" />
    <glyph glyph-name="lslash" unicode="&#x142;" horiz-adv-x="532" 
d="M143 559l-141 -141v223l141 141v766h246v-522l141 141v-219l-141 -139v-809h-246v559z" />
    <glyph glyph-name="OE" unicode="&#x152;" horiz-adv-x="2048" 
d="M102 725q0 139 43 257t118.5 203t178.5 145.5t225 90t255 29.5h989v-233h-590v-357h553v-233h-553v-394h625v-233h-1031q-132 0 -252.5 30t-223 91t-177.5 146.5t-117.5 203t-42.5 254.5zM385 725q0 -118 43 -209.5t104.5 -143t140.5 -85t140.5 -44t114.5 -10.5h135v984
h-131q-43 0 -89 -6.5t-100.5 -22.5t-104 -40t-96.5 -63.5t-81.5 -89t-55 -119t-20.5 -151.5z" />
    <glyph glyph-name="oe" unicode="&#x153;" horiz-adv-x="1896" 
d="M608 1008q233 0 377 -160q130 160 365 160q155 0 263.5 -71t159 -188.5t50.5 -271.5v-59h-717v-8q0 -98 76 -168t166 -70q156 0 260 133l170 -121q-148 -209 -432 -209q-111 0 -206.5 38.5t-158.5 119.5q-145 -158 -373 -158q-150 0 -271.5 64.5t-192 183.5t-70.5 269
q0 226 153 371t381 145zM1098 590h479q0 102 -63 167.5t-164 65.5t-176 -65.5t-76 -167.5zM319 492q0 -131 80.5 -219.5t208.5 -88.5q129 0 211 87.5t82 220.5q0 136 -82 221.5t-213 85.5q-127 0 -207 -88t-80 -219z" />
    <glyph glyph-name="Scaron" unicode="&#x160;" horiz-adv-x="1175" 
d="M549 -37q-321 0 -486 197l195 188q47 -72 123 -111.5t164 -39.5q106 0 180 56t74 142q0 80 -59 130t-201 93q-86 26 -145.5 50.5t-116.5 60t-91 78.5t-54.5 104t-20.5 138q0 196 148.5 317t385.5 121q124 0 231.5 -39t184.5 -111l-189 -198q-41 58 -108 86t-146 28
q-109 0 -173 -50.5t-64 -135.5q0 -70 55.5 -115.5t169.5 -81.5q51 -16 77.5 -24.5t73.5 -26t72.5 -30.5t63.5 -35t59.5 -43.5t47 -52t38.5 -64t22 -76.5t9 -92q0 -145 -71 -251.5t-187.5 -159t-261.5 -52.5zM217 1843h234l141 -184l141 184h225l-235 -295h-272z" />
    <glyph glyph-name="scaron" unicode="&#x161;" horiz-adv-x="909" 
d="M432 -25q-246 0 -381 152l164 154q61 -67 115 -94t119 -27q69 0 116 31t47 81q0 40 -34 67.5t-66.5 37.5t-108.5 27q-23 5 -34 8q-49 11 -82 21.5t-75.5 32t-68 49t-43.5 72.5t-18 103q0 69 25 125t65 91t92.5 59t105 33.5t105.5 9.5q115 0 206.5 -39t145.5 -111
l-163 -147q-72 100 -193 100q-61 0 -102 -29t-41 -75q0 -13 3.5 -24t12 -20.5t17 -16.5t24.5 -13.5t28 -11.5t33.5 -10.5t35 -8.5t39.5 -9t40 -9q52 -12 90 -24.5t79.5 -35.5t67.5 -52.5t43 -75.5t17 -105q0 -151 -118 -233.5t-308 -82.5zM84 1450h233l142 -184l141 184h225
l-235 -295h-273z" />
    <glyph glyph-name="Ydieresis" unicode="&#x178;" horiz-adv-x="1290" 
d="M432 1843q68 0 114 -42t46 -105q0 -64 -46.5 -106t-113.5 -42q-65 0 -110.5 42.5t-45.5 105.5q0 60 44.5 103.5t111.5 43.5zM854 1843q70 0 115 -43.5t45 -103.5q0 -62 -46 -105t-114 -43q-66 0 -111 42.5t-45 105.5q0 61 44.5 104t111.5 43zM295 1450l356 -578l361 578
h307l-545 -829v-621h-258v621l-545 829h324z" />
    <glyph glyph-name="Zcaron" unicode="&#x17d;" horiz-adv-x="1251" 
d="M1180 0h-1108v233l774 984h-762v233h1083v-233l-780 -984h793v-233zM489 1548l-233 295h233l142 -184l141 184h225l-235 -295h-273z" />
    <glyph glyph-name="zcaron" unicode="&#x17e;" horiz-adv-x="987" 
d="M70 0v227l526 555v4h-502v197h799v-223l-533 -563h558v-197h-848zM123 1450h233l142 -184l141 184h225l-235 -295h-273z" />
    <glyph glyph-name="florin" unicode="&#x192;" horiz-adv-x="1212" 
d="M201 -285q-111 0 -209 49l92 189q47 -29 96 -29q29 0 52 8.5t39 25.5t27.5 34t20 44.5t13 45.5t10.5 47l111 559h-232v184h268l39 199q14 72 31 126t46 109t67.5 90t97.5 57t133 22q121 0 240 -64l-94 -190q-56 32 -113 32q-122 0 -156 -161l-47 -220h250v-184h-283
l-114 -579q-17 -87 -43 -153.5t-69.5 -123t-112.5 -87t-160 -30.5z" />
    <glyph glyph-name="circumflex" unicode="&#x2c6;" horiz-adv-x="532" 
d="M123 1155h-229l235 295h277l233 -295h-233l-142 184z" />
    <glyph glyph-name="caron" unicode="&#x2c7;" horiz-adv-x="532" 
d="M129 1155l-233 295h233l141 -184l142 184h225l-236 -295h-272z" />
    <glyph glyph-name="uni02C9" unicode="&#x2c9;" horiz-adv-x="532" 
d="M594 1378v-159h-655v159h655z" />
    <glyph glyph-name="breve" unicode="&#x2d8;" horiz-adv-x="532" 
d="M-82 1450h137q22 -135 211 -135q98 0 145 28t68 107h135q-15 -143 -104 -219t-246 -76q-156 0 -246.5 75.5t-99.5 219.5z" />
    <glyph glyph-name="dotaccent" unicode="&#x2d9;" horiz-adv-x="532" 
d="M264 1450q69 0 114.5 -42.5t45.5 -104.5q0 -64 -46.5 -106t-113.5 -42q-65 0 -110 42.5t-45 105.5q0 62 44.5 104.5t110.5 42.5z" />
    <glyph glyph-name="ring" unicode="&#x2da;" horiz-adv-x="532" 
d="M266 1550q91 0 153 -58t62 -151t-62 -150.5t-153 -57.5q-93 0 -154 58t-61 148q0 88 60 149.5t155 61.5zM150 1341q0 -47 34 -78.5t82 -31.5q50 0 83.5 32t33.5 78q0 49 -34.5 80t-84.5 31q-46 0 -80 -33t-34 -78z" />
    <glyph glyph-name="ogonek" unicode="&#x2db;" horiz-adv-x="532" 
d="M328 12q-72 -63 -121 -137t-49 -125q0 -38 28 -66t68 -28q55 0 108 43l52 -100q-95 -78 -205 -78q-91 0 -151 49t-60 133q0 71 58.5 157.5t146.5 151.5h125z" />
    <glyph glyph-name="tilde" unicode="&#x2dc;" horiz-adv-x="532" 
d="M643 1434q-43 -260 -229 -260q-64 0 -154 34q-107 43 -141 43q-68 0 -94 -88h-136q22 129 78 194.5t152 65.5q67 0 172 -41q87 -34 123 -34q69 0 94 86h135z" />
    <glyph glyph-name="hungarumlaut" unicode="&#x2dd;" horiz-adv-x="532" 
d="M571 1155h-192l203 295h278zM152 1155h-193l203 295h278z" />
    <glyph glyph-name="uni0394" unicode="&#x394;" horiz-adv-x="1402" 
d="M805 1458l581 -1458h-1370l553 1458h236zM330 213h733l-379 977z" />
    <glyph glyph-name="uni0394" unicode="&#x3b4;" horiz-adv-x="1402" 
d="M805 1458l581 -1458h-1370l553 1458h236zM330 213h733l-379 977z" />
    <glyph glyph-name="uni03A9" unicode="&#x3a9;" horiz-adv-x="1554" 
d="M94 217h352v66q-121 38 -201.5 121t-115.5 188.5t-35 234.5q0 186 89.5 335.5t242.5 232t338 82.5q187 0 340 -80t242.5 -228t89.5 -335q0 -131 -34.5 -238t-115.5 -191t-205 -122v-66h355v-217h-566v387q152 30 237 148.5t85 277.5q0 187 -119.5 318t-304.5 131
q-188 0 -308 -130.5t-120 -320.5q0 -164 79.5 -273.5t235.5 -150.5v-387h-561v217z" />
    <glyph glyph-name="uni03A9" unicode="&#x3c9;" horiz-adv-x="1554" 
d="M94 217h352v66q-121 38 -201.5 121t-115.5 188.5t-35 234.5q0 186 89.5 335.5t242.5 232t338 82.5q187 0 340 -80t242.5 -228t89.5 -335q0 -131 -34.5 -238t-115.5 -191t-205 -122v-66h355v-217h-566v387q152 30 237 148.5t85 277.5q0 187 -119.5 318t-304.5 131
q-188 0 -308 -130.5t-120 -320.5q0 -164 79.5 -273.5t235.5 -150.5v-387h-561v217z" />
    <glyph glyph-name="uni03BC" unicode="&#x3bc;" horiz-adv-x="1175" 
d="M139 -467v1450h246v-508q0 -145 44.5 -211.5t135.5 -66.5q57 0 100.5 19t66.5 46.5t37 63.5t18 62.5t4 51.5v543h245v-983h-233v158h-4q-85 -183 -301 -183q-51 0 -113 15v-457h-246z" />
    <glyph glyph-name="pi" unicode="&#x3c0;" horiz-adv-x="1214" 
d="M166 774h-143v209h1159v-209h-162v-493q0 -61 18.5 -86t59.5 -25q51 0 90 20v-163q-90 -41 -195 -41q-117 0 -165 62.5t-48 197.5v528h-374v-774h-240v774z" />
    <glyph glyph-name="uni060C" unicode="&#x60c;" horiz-adv-x="604" 
d="M104 0l175 539h215l-144 -539h-246z" />
    <glyph glyph-name="uni0615" unicode="&#x615;" 
d="M-295 1128v121h94v350h117v-198q75 94 180 94q89 0 144 -59t55 -158q0 -61 -29 -150h-561zM82 1374q-46 0 -91.5 -32.5t-78.5 -92.5h258q2 10 2 29q0 44 -24.5 70t-65.5 26z" />
    <glyph glyph-name="uni061B" unicode="&#x61b;" horiz-adv-x="604" 
d="M121 426l174 539h217l-143 -539h-248zM246 -12q-65 0 -113.5 44.5t-48.5 108.5q0 66 48 113t114 47t114 -46t48 -110q0 -65 -47.5 -111t-114.5 -46z" />
    <glyph glyph-name="uni061F" unicode="&#x61f;" horiz-adv-x="1060" 
d="M430 426v80q0 51 -13 85.5t-31.5 56t-66.5 65.5q-104 101 -138 144q-83 106 -83 233q0 184 120 290.5t310 106.5q197 0 324 -109t152 -303l-259 -20q-8 88 -64 145t-142 57q-80 0 -133.5 -51.5t-53.5 -130.5q0 -19 2.5 -35t5 -28.5t13.5 -28.5t18 -26.5t28.5 -33
t35 -36.5t47.5 -48l57 -57q33 -35 45.5 -49t30.5 -38t23 -42.5t9.5 -46t4.5 -65.5v-115h-242zM551 -12q-66 0 -114 46.5t-48 110.5t48.5 110t113.5 46q67 0 114.5 -47t47.5 -113q0 -63 -48 -108t-114 -45z" />
    <glyph glyph-name="uni0621" unicode="&#x621;" horiz-adv-x="966" 
d="M115 197h149q-57 92 -57 202q0 161 111.5 264t291.5 103q116 0 215 -31l-45 -198q-98 20 -147 20q-94 0 -149.5 -50.5t-55.5 -135.5q0 -97 64 -174h372v-197h-749v197z" />
    <glyph glyph-name="uni0622" unicode="&#x622;" horiz-adv-x="512" 
d="M395 1653q-58 0 -173 26.5t-144 26.5q-44 0 -94 -35l-72 96q83 80 170 80q38 0 149.5 -28.5t155.5 -28.5q30 0 52.5 10t54.5 37l81 -84q-72 -100 -180 -100zM135 0v1548h242v-1548h-242z" />
    <glyph glyph-name="uni0623" unicode="&#x623;" horiz-adv-x="512" 
d="M377 0h-242v1548h242v-1548zM82 1645v112h68q-25 45 -25 92q0 71 49.5 114.5t132.5 43.5q47 0 105 -12l-21 -109q-32 8 -65 8q-84 0 -84 -69q0 -30 20 -68h168v-112h-348z" />
    <glyph glyph-name="uni0624" unicode="&#x624;" horiz-adv-x="1081" 
d="M106 430q0 90 31.5 171.5t88.5 143t144 98t191 36.5q107 0 189.5 -33.5t132 -91.5t74 -132t24.5 -161v-395q0 -445 -575 -445q-85 0 -130 4l-14 217q78 -4 109 -4q177 0 272 53t94 160q-83 -28 -198 -28q-199 0 -316 108t-117 299zM350 444q0 -97 58.5 -147.5
t166.5 -50.5q78 0 164 20v142q0 247 -190 247q-86 0 -142.5 -58t-56.5 -153zM324 1122v144h86q-31 57 -31 116q0 91 64.5 147t170.5 56q58 0 136 -16l-27 -139q-38 10 -84 10q-47 0 -79 -22t-32 -66q0 -39 29 -86h217v-144h-450z" />
    <glyph glyph-name="uni0625" unicode="&#x625;" horiz-adv-x="512" 
d="M135 0v1548h242v-1548h-242zM80 -410h67q-24 44 -24 93q0 71 49.5 114t132.5 43q47 0 105 -12l-21 -109q-36 9 -65 9q-84 0 -84 -70q0 -30 20 -68h168v-112h-348v112z" />
    <glyph glyph-name="uni0626" unicode="&#x626;" horiz-adv-x="1570" 
d="M768 -371q-166 0 -297 29t-227.5 88t-147.5 154.5t-51 222.5q0 118 53 280l224 -57q-29 -125 -29 -180q0 -156 119 -228.5t356 -72.5q218 0 336.5 42.5t118.5 110.5q0 27 -27.5 53.5t-71.5 51t-97.5 52t-107 62t-97.5 74.5t-71.5 97t-27.5 122q0 146 123 247.5t340 101.5
q105 0 233 -31l-43 -230q-94 25 -186 25q-104 0 -159.5 -33t-55.5 -86q0 -34 27.5 -64.5t71 -54.5t96 -49.5t105.5 -55.5t96.5 -65t71 -86t27.5 -112q0 -60 -23.5 -116.5t-78 -110t-133.5 -93.5t-199.5 -64t-267.5 -24zM119 721h86q-31 57 -31 117q0 91 65 146.5t171 55.5
q57 0 135 -16l-27 -139q-38 10 -84 10q-47 0 -78.5 -22t-31.5 -66q0 -41 28 -86h217v-143h-450v143z" />
    <glyph glyph-name="uni0627" unicode="&#x627;" horiz-adv-x="512" 
d="M135 0v1548h242v-1548h-242z" />
    <glyph glyph-name="uni0628" unicode="&#x628;" horiz-adv-x="1947" 
d="M1606 856h241v-512q0 -159 -94.5 -251.5t-273.5 -92.5h-918q-233 0 -368.5 113.5t-135.5 298.5q0 152 66 327l213 -55q-39 -147 -39 -223q0 -119 79 -181.5t222 -62.5h809q107 0 153 48t46 165v426zM942 -166q58 0 92.5 -37.5t34.5 -95.5q0 -56 -34.5 -92.5t-92.5 -36.5
t-94.5 36.5t-36.5 92.5q0 58 36.5 95.5t94.5 37.5z" />
    <glyph glyph-name="uni0629" unicode="&#x629;" horiz-adv-x="1071" 
d="M348 1116q-56 0 -93.5 38t-37.5 93q0 56 37.5 92.5t93.5 36.5q57 0 93 -36t36 -93q0 -56 -36.5 -93.5t-92.5 -37.5zM684 1116q-58 0 -95.5 37.5t-37.5 93.5q0 57 37 93t96 36q54 0 90.5 -36t36.5 -93q0 -56 -36.5 -93.5t-90.5 -37.5zM518 -10q-213 0 -336 113.5
t-123 304.5q0 205 124.5 338t334.5 133q140 0 245 -63.5t158.5 -169.5t53.5 -238q0 -193 -121.5 -305.5t-335.5 -112.5zM522 213q94 0 149.5 53t55.5 156q0 106 -55.5 169.5t-153.5 63.5q-101 0 -156 -63t-55 -168t57 -158t158 -53z" />
    <glyph glyph-name="uni062A" unicode="&#x62a;" horiz-adv-x="1947" 
d="M793 879q-55 0 -93 37.5t-38 93.5t37.5 92.5t93.5 36.5q57 0 93 -36t36 -93q0 -56 -36.5 -93.5t-92.5 -37.5zM1128 879q-58 0 -95.5 37.5t-37.5 93.5q0 57 37 93t96 36q54 0 90.5 -36.5t36.5 -92.5t-36.5 -93.5t-90.5 -37.5zM1606 856h241v-512q0 -159 -94.5 -251.5
t-273.5 -92.5h-918q-233 0 -368.5 113.5t-135.5 298.5q0 152 66 327l213 -55q-39 -147 -39 -223q0 -119 79 -181.5t222 -62.5h809q107 0 153 48t46 165v426z" />
    <glyph glyph-name="uni062B" unicode="&#x62b;" horiz-adv-x="1947" 
d="M967 1143q-55 0 -92 38t-37 95q0 55 37 93t92 38q56 0 92.5 -38t36.5 -93q0 -57 -36 -95t-93 -38zM793 864q-56 0 -93.5 38t-37.5 95q0 56 37.5 92.5t93.5 36.5q57 0 93 -36t36 -93t-36 -95t-93 -38zM995 997q0 57 37 93t96 36q54 0 90.5 -36t36.5 -93t-36.5 -95
t-90.5 -38q-58 0 -95.5 38t-37.5 95zM1606 856h241v-512q0 -159 -94.5 -251.5t-273.5 -92.5h-918q-233 0 -368.5 113.5t-135.5 298.5q0 152 66 327l213 -55q-39 -147 -39 -223q0 -119 79 -181.5t222 -62.5h809q107 0 153 48t46 165v426z" />
    <glyph glyph-name="uni062C" unicode="&#x62c;" horiz-adv-x="1243" 
d="M592 879q144 0 251.5 -41.5t172 -118.5t96 -179.5t31.5 -232.5q0 -146 -37 -307h-619q-86 0 -133 -42t-47 -116q0 -77 56 -119t145 -42q17 0 45 4l18 -213q-36 -4 -67 -4q-196 0 -320.5 98.5t-124.5 269.5q0 177 112 279t304 102h434q4 40 4 62q0 188 -83.5 282
t-258.5 94q-89 0 -204 -28l-54 204q136 48 279 48zM690 -70q52 0 83.5 -33t31.5 -85t-31.5 -84.5t-83.5 -32.5t-85.5 33t-33.5 84t33.5 84.5t85.5 33.5z" />
    <glyph glyph-name="uni062D" unicode="&#x62d;" horiz-adv-x="1253" 
d="M487 0q-86 0 -135 -40t-49 -112q0 -157 225 -157q74 0 162 20l41 -207q-113 -36 -227 -36q-197 0 -321 100.5t-124 281.5q0 166 111.5 266.5t298.5 100.5h440q4 40 4 62q0 188 -83.5 282t-258.5 94q-89 0 -204 -28l-54 204q136 48 279 48q144 0 253 -41.5t175.5 -118
t99.5 -180t33 -232.5q0 -141 -35 -307h-631z" />
    <glyph glyph-name="uni062E" unicode="&#x62e;" horiz-adv-x="1253" 
d="M592 1116q-58 0 -94.5 37.5t-36.5 93.5q0 57 36.5 93t94.5 36t92.5 -35.5t34.5 -93.5q0 -57 -35 -94t-92 -37zM487 0q-86 0 -135 -40t-49 -112q0 -157 225 -157q74 0 162 20l41 -207q-113 -36 -227 -36q-197 0 -321 100.5t-124 281.5q0 166 111.5 266.5t298.5 100.5h440
q4 40 4 62q0 188 -83.5 282t-258.5 94q-89 0 -204 -28l-54 204q136 48 279 48q144 0 253 -41.5t175.5 -118t99.5 -180t33 -232.5q0 -141 -35 -307h-631z" />
    <glyph glyph-name="uni062F" unicode="&#x62f;" horiz-adv-x="1032" 
d="M70 0v217h620v4q0 74 -33.5 151t-89 142.5t-117.5 118.5t-128 94l145 195q141 -92 235 -186.5t143 -194t68 -193.5t19 -211v-137h-862z" />
    <glyph glyph-name="uni0630" unicode="&#x630;" horiz-adv-x="1032" 
d="M381 1071q-58 0 -94.5 37.5t-36.5 93.5q0 57 36.5 93t94.5 36t92.5 -35.5t34.5 -93.5q0 -57 -35 -94t-92 -37zM70 0v217h620v4q0 74 -33.5 151t-89 142.5t-117.5 118.5t-128 94l145 195q141 -92 235 -186.5t143 -194t68 -193.5t19 -211v-137h-862z" />
    <glyph glyph-name="uni0631" unicode="&#x631;" horiz-adv-x="628" 
d="M27 -375l-37 209q143 21 202.5 77t59.5 183v762h242v-713q0 -249 -112.5 -375t-354.5 -143z" />
    <glyph glyph-name="uni0632" unicode="&#x632;" horiz-adv-x="628" 
d="M373 1094q-58 0 -94.5 37.5t-36.5 93.5q0 57 36.5 93t94.5 36t92.5 -35.5t34.5 -93.5q0 -57 -35 -94t-92 -37zM27 -375l-37 209q143 21 202.5 77t59.5 183v762h242v-713q0 -249 -112.5 -375t-354.5 -143z" />
    <glyph glyph-name="uni0633" unicode="&#x633;" horiz-adv-x="2426" 
d="M608 -358q-113 0 -207.5 28t-159 75t-109.5 111t-66 135t-21 148q0 177 92 379l211 -74q-59 -152 -59 -272q0 -150 86 -228.5t239 -78.5q159 0 242.5 80.5t83.5 265.5v496h242v-353q0 -137 159 -137q95 0 132.5 45t37.5 158v287h242v-353q0 -137 166 -137q96 0 131 48.5
t35 160.5v430h242v-502q0 -164 -104 -259t-279 -95q-173 0 -277 94q-102 -96 -295 -96q-123 0 -198 45q-33 -199 -183.5 -300t-382.5 -101z" />
    <glyph glyph-name="uni0634" unicode="&#x634;" horiz-adv-x="2426" 
d="M608 -358q-113 0 -207.5 28t-159 75t-109.5 111t-66 135t-21 148q0 177 92 379l211 -74q-59 -152 -59 -272q0 -150 86 -228.5t239 -78.5q159 0 242.5 80.5t83.5 265.5v496h242v-353q0 -137 159 -137q95 0 132.5 45t37.5 158v287h242v-353q0 -137 166 -137q96 0 131 48.5
t35 160.5v430h242v-502q0 -164 -104 -259t-279 -95q-173 0 -277 94q-102 -96 -295 -96q-123 0 -198 45q-33 -199 -183.5 -300t-382.5 -101zM1462 930q-56 0 -93.5 38t-37.5 95q0 56 37.5 92.5t93.5 36.5q57 0 93 -36t36 -93t-36 -95t-93 -38zM1665 1063q0 57 37 93t96 36
q54 0 90.5 -36t36.5 -93t-36.5 -95t-90.5 -38q-58 0 -95.5 38t-37.5 95zM1507 1341q0 55 37 93.5t92 38.5q56 0 92.5 -38.5t36.5 -93.5q0 -57 -36 -95t-93 -38q-55 0 -92 38t-37 95z" />
    <glyph glyph-name="uni0635" unicode="&#x635;" horiz-adv-x="2721" 
d="M2144 879q230 0 353.5 -141.5t123.5 -385.5q0 -173 -55 -352h-1171q-143 0 -219 53q-30 -204 -181 -307.5t-387 -103.5q-113 0 -207.5 28t-159 75t-109.5 111t-66 135t-21 148q0 177 92 379l211 -74q-59 -152 -59 -272q0 -150 86 -228.5t239 -78.5q159 0 242.5 80.5
t83.5 265.5v496h242v-351q0 -58 37.5 -92.5t97.5 -42.5q84 163 181.5 286t182.5 192t176 111.5t156.5 55.5t130.5 13zM2370 217q14 72 14 117q0 147 -70.5 234t-202.5 87q-133 0 -269.5 -112t-252.5 -326h781z" />
    <glyph glyph-name="uni0636" unicode="&#x636;" horiz-adv-x="2721" 
d="M1966 1116q-58 0 -94.5 37.5t-36.5 93.5q0 57 36.5 93t94.5 36t92.5 -35.5t34.5 -93.5q0 -57 -35 -94t-92 -37zM2144 879q230 0 353.5 -141.5t123.5 -385.5q0 -173 -55 -352h-1171q-143 0 -219 53q-30 -204 -181 -307.5t-387 -103.5q-113 0 -207.5 28t-159 75t-109.5 111
t-66 135t-21 148q0 177 92 379l211 -74q-59 -152 -59 -272q0 -150 86 -228.5t239 -78.5q159 0 242.5 80.5t83.5 265.5v496h242v-351q0 -58 37.5 -92.5t97.5 -42.5q84 163 181.5 286t182.5 192t176 111.5t156.5 55.5t130.5 13zM2370 217q14 72 14 117q0 147 -70.5 234
t-202.5 87q-133 0 -269.5 -112t-252.5 -326h781z" />
    <glyph glyph-name="uni0637" unicode="&#x637;" horiz-adv-x="1710" 
d="M57 0v217h191v1331h241v-1042q136 187 305 280t332 93q233 0 358.5 -144t125.5 -383q0 -157 -56 -352h-1497zM492 217h866q12 61 12 119q0 145 -69 232t-203 87q-146 0 -309 -117t-297 -321z" />
    <glyph glyph-name="uni0638" unicode="&#x638;" horiz-adv-x="1710" 
d="M57 0v217h191v1331h241v-1042q136 187 305 280t332 93q233 0 358.5 -144t125.5 -383q0 -157 -56 -352h-1497zM492 217h866q12 61 12 119q0 145 -69 232t-203 87q-146 0 -309 -117t-297 -321zM895 1247q0 57 36.5 93t94.5 36t92.5 -35.5t34.5 -93.5q0 -57 -35 -94t-92 -37
q-58 0 -94.5 37.5t-36.5 93.5z" />
    <glyph glyph-name="uni0639" unicode="&#x639;" horiz-adv-x="1079" 
d="M514 0q-99 0 -153 -39.5t-54 -114.5q0 -155 217 -155q92 0 164 16l41 -207q-101 -32 -215 -32q-210 0 -332.5 95.5t-122.5 274.5q0 132 68.5 225t189.5 130q-81 126 -81 274q0 185 128 298.5t361 113.5q117 0 246 -33l-45 -215q-110 24 -185 24q-127 0 -193.5 -55.5
t-66.5 -155.5q0 -120 90 -227h449v-217h-506z" />
    <glyph glyph-name="uni063A" unicode="&#x63a;" horiz-adv-x="1079" 
d="M725 1116q-58 0 -94.5 37.5t-36.5 93.5q0 57 36.5 93t94.5 36t92.5 -35.5t34.5 -93.5q0 -57 -35 -94t-92 -37zM514 0q-99 0 -153 -39.5t-54 -114.5q0 -155 217 -155q92 0 164 16l41 -207q-101 -32 -215 -32q-210 0 -332.5 95.5t-122.5 274.5q0 132 68.5 225t189.5 130
q-81 126 -81 274q0 185 128 298.5t361 113.5q117 0 246 -33l-45 -215q-110 24 -185 24q-127 0 -193.5 -55.5t-66.5 -155.5q0 -120 90 -227h449v-217h-506z" />
    <glyph glyph-name="uni0640" unicode="&#x640;" horiz-adv-x="106" 
d="M0 0v217h106q41 0 41 -115q0 -102 -41 -102h-106z" />
    <glyph glyph-name="uni0641" unicode="&#x641;" horiz-adv-x="2191" 
d="M573 0q-233 0 -368 113t-135 299q0 155 65 327l213 -55q-39 -147 -39 -223q0 -119 79 -181.5t222 -62.5h602q-49 86 -49 205q0 198 131.5 327.5t352.5 129.5q98 0 176.5 -28.5t127.5 -74.5t81.5 -107t45.5 -121.5t13 -123.5q0 -203 -82 -424h-1436zM1407 424
q0 -102 59 -207h359q24 99 24 184q0 112 -52.5 183t-160.5 71q-109 0 -169 -64t-60 -167zM1516 1247q0 57 36.5 93t94.5 36t92.5 -35.5t34.5 -93.5q0 -57 -35 -94t-92 -37q-58 0 -94.5 37.5t-36.5 93.5z" />
    <glyph glyph-name="uni0642" unicode="&#x642;" horiz-adv-x="1619" 
d="M924 1116q-56 0 -93.5 38t-37.5 93q0 56 37.5 92.5t93.5 36.5q57 0 93 -36t36 -93q0 -56 -36.5 -93.5t-92.5 -37.5zM1260 1116q-58 0 -96 37.5t-38 93.5q0 57 37.5 93t96.5 36q54 0 90 -36t36 -93q0 -56 -36 -93.5t-90 -37.5zM797 -358q-752 0 -752 497q0 130 53 281
l217 -58q-26 -101 -26 -186q0 -73 23.5 -127t80 -97t159.5 -65t253 -22q228 0 346.5 49.5t124.5 136.5q-83 -28 -199 -28q-205 0 -323.5 107.5t-118.5 299.5q0 121 53.5 222t159.5 164t246 63q107 0 190.5 -36.5t134 -99t76 -141t25.5 -168.5v-272q0 -170 -71.5 -283
t-233.5 -175t-418 -62zM1116 246q94 0 162 20v115q0 274 -199 274q-88 0 -144 -55.5t-56 -150.5q0 -203 237 -203z" />
    <glyph glyph-name="uni0643" unicode="&#x643;" horiz-adv-x="1744" 
d="M561 0q-233 0 -368.5 113.5t-135.5 298.5q0 152 66 327l213 -55q-39 -147 -39 -223q0 -119 79 -181.5t222 -62.5h569q120 0 160.5 51t40.5 189v1091h242v-1142q0 -222 -107 -314t-336 -92h-606zM1059 653h-416v129h88q-24 46 -24 97q0 79 60 135.5t163 56.5q48 0 106 -16
l-18 -127q-38 10 -74 10q-40 0 -64 -19t-24 -57q0 -49 31 -80h172v-129z" />
    <glyph glyph-name="uni0644" unicode="&#x644;" horiz-adv-x="1318" 
d="M606 -358q-135 0 -244 41t-177 111t-104 158.5t-36 186.5q0 167 92 379l211 -74q-59 -171 -59 -274q0 -148 84.5 -226.5t240.5 -78.5q163 0 245.5 82t82.5 264v1337h242v-1398q0 -248 -156.5 -378t-421.5 -130z" />
    <glyph glyph-name="uni0645" unicode="&#x645;" horiz-adv-x="1361" 
d="M823 879q106 0 192 -36t140 -97t82.5 -138t28.5 -162q0 -47 -7 -90.5t-23.5 -89t-42 -84t-66 -72.5t-92.5 -58t-123 -38t-156 -14h-293q-83 0 -125.5 -39t-42.5 -127v-366h-236v397q0 160 90.5 252t253.5 100q-57 99 -57 229q0 191 134.5 312t342.5 121zM788 217
q234 0 234 221q0 98 -58 157.5t-153 59.5q-93 0 -157 -58.5t-64 -172.5q0 -107 65 -207h133z" />
    <glyph glyph-name="uni0646" unicode="&#x646;" horiz-adv-x="1329" 
d="M645 838q-58 0 -94.5 37.5t-36.5 93.5q0 57 36.5 93t94.5 36t92.5 -35.5t34.5 -93.5q0 -57 -35 -94t-92 -37zM621 -358q-141 0 -251.5 42t-177 113t-101 158.5t-34.5 183.5q0 175 93 379l210 -74q-59 -152 -59 -272q0 -150 86.5 -228.5t239.5 -78.5q159 0 242 80t83 266
v496h242v-557q0 -128 -42 -226t-119 -159t-180.5 -92t-231.5 -31z" />
    <glyph glyph-name="uni0647" unicode="&#x647;" horiz-adv-x="1071" 
d="M518 -10q-213 0 -336 113.5t-123 304.5q0 205 124.5 338t334.5 133q140 0 245 -63.5t158.5 -169.5t53.5 -238q0 -193 -121.5 -305.5t-335.5 -112.5zM522 213q94 0 149.5 53t55.5 156q0 106 -55.5 169.5t-153.5 63.5q-101 0 -156 -63t-55 -168t57 -158t158 -53z" />
    <glyph glyph-name="uni0648" unicode="&#x648;" horiz-adv-x="1081" 
d="M276 -375l-14 217q78 -4 109 -4q177 0 272 53t94 160q-83 -28 -198 -28q-199 0 -316 108t-117 299q0 90 31.5 171.5t88.5 143t144 98t191 36.5q107 0 189.5 -33.5t132 -91.5t74 -132t24.5 -161v-395q0 -445 -575 -445q-85 0 -130 4zM575 246q78 0 164 20v142
q0 247 -190 247q-86 0 -142.5 -58t-56.5 -153q0 -97 58.5 -147.5t166.5 -50.5z" />
    <glyph glyph-name="uni0649" unicode="&#x649;" horiz-adv-x="1570" 
d="M768 -371q-166 0 -297 29t-227.5 88t-147.5 154.5t-51 222.5q0 118 53 280l224 -57q-29 -125 -29 -180q0 -156 119 -228.5t356 -72.5q218 0 336.5 42.5t118.5 110.5q0 27 -27.5 53.5t-71.5 51t-97.5 52t-107 62t-97.5 74.5t-71.5 97t-27.5 122q0 146 123 247.5t340 101.5
q105 0 233 -31l-43 -230q-94 25 -186 25q-104 0 -159.5 -33t-55.5 -86q0 -34 27.5 -64.5t71 -54.5t96 -49.5t105.5 -55.5t96.5 -65t71 -86t27.5 -112q0 -60 -23.5 -116.5t-78 -110t-133.5 -93.5t-199.5 -64t-267.5 -24z" />
    <glyph glyph-name="uni064A" unicode="&#x64a;" horiz-adv-x="1570" 
d="M768 -371q-166 0 -297 29t-227.5 88t-147.5 154.5t-51 222.5q0 118 53 280l224 -57q-29 -125 -29 -180q0 -156 119 -228.5t356 -72.5q218 0 336.5 42.5t118.5 110.5q0 27 -27.5 53.5t-71.5 51t-97.5 52t-107 62t-97.5 74.5t-71.5 97t-27.5 122q0 146 123 247.5t340 101.5
q105 0 233 -31l-43 -230q-94 25 -186 25q-104 0 -159.5 -33t-55.5 -86q0 -34 27.5 -64.5t71 -54.5t96 -49.5t105.5 -55.5t96.5 -65t71 -86t27.5 -112q0 -60 -23.5 -116.5t-78 -110t-133.5 -93.5t-199.5 -64t-267.5 -24zM592 -799q-56 0 -93.5 37t-37.5 92q0 57 37.5 95
t93.5 38q57 0 93 -38t36 -95q0 -56 -36 -92.5t-93 -36.5zM928 -799q-58 0 -95.5 36.5t-37.5 92.5q0 57 37.5 95t95.5 38q54 0 90.5 -38t36.5 -95q0 -55 -36.5 -92t-90.5 -37z" />
    <glyph glyph-name="uni064B" unicode="&#x64b;" 
d="M-236 1319l-6 2l19 109l459 69l6 -2l-19 -108zM-236 1102l-6 2l19 108l459 70l6 -2l-19 -109z" />
    <glyph glyph-name="uni064C" unicode="&#x64c;" 
d="M150 1595q65 0 105 -54t40 -142q0 -136 -68 -210.5t-161 -74.5q-44 0 -81.5 20.5t-57.5 45t-42.5 45t-40.5 20.5q-28 0 -71 -55l-68 57q33 52 72 80.5t73 28.5t65.5 -21t52.5 -45.5t49 -45.5t55 -21q67 0 100 65h-20q-68 0 -114 33t-46 100q0 68 45.5 121t112.5 53z
M162 1380q25 0 35 2v13q0 42 -14.5 67t-41.5 25q-24 0 -37.5 -17t-13.5 -40q0 -50 72 -50z" />
    <glyph glyph-name="uni064D" unicode="&#x64d;" 
d="M-238 -354l-6 2l19 106l458 70l7 -2l-19 -107zM-238 -549l-6 2l19 107l458 69l7 -2l-19 -106z" />
    <glyph glyph-name="uni064E" unicode="&#x64e;" 
d="M-236 1102l-6 2l19 108l459 70l6 -2l-19 -109z" />
    <glyph glyph-name="uni064F" unicode="&#x64f;" 
d="M33 1595q66 0 106.5 -54t40.5 -142q0 -140 -67.5 -212.5t-163.5 -72.5q-73 0 -129 35l43 94q44 -20 86 -20q73 0 106 65h-12q-75 0 -121.5 32.5t-46.5 100.5t45.5 121t112.5 53zM53 1380h27q0 107 -55 107q-25 0 -39.5 -16.5t-14.5 -38.5q0 -25 22 -38.5t60 -13.5z" />
    <glyph glyph-name="uni0650" unicode="&#x650;" 
d="M-236 -354l-6 2l19 106l459 70l6 -2l-19 -107z" />
    <glyph glyph-name="uni0651" unicode="&#x651;" 
d="M211 1411q35 -71 35 -135q0 -65 -35.5 -104t-93.5 -39q-55 0 -105 36q-38 -55 -112 -55q-68 0 -107 38t-39 103q0 53 23 109l71 -16q-8 -27 -8 -54q0 -67 62 -67q53 0 53 69q0 21 -2 33l74 17q10 -45 10 -78v-4q28 -21 59 -21q51 0 51 57q0 37 -14 80z" />
    <glyph glyph-name="uni0652" unicode="&#x652;" 
d="M-2 1112q-75 0 -116.5 42t-41.5 114q0 70 43.5 127t114.5 57q73 0 117.5 -57t44.5 -127q0 -72 -42 -114t-120 -42zM-2 1223q55 0 55 51q0 28 -14.5 48.5t-40.5 20.5q-24 0 -37.5 -20.5t-13.5 -48.5q0 -51 51 -51z" />
    <glyph glyph-name="uni0653" unicode="&#x653;" 
d="M152 1106q-58 0 -173.5 26.5t-144.5 26.5q-44 0 -94 -35l-72 97q82 79 170 79q38 0 149.5 -28.5t155.5 -28.5q30 0 52.5 10t54.5 37l82 -84q-72 -100 -180 -100z" />
    <glyph glyph-name="uni0654" unicode="&#x654;" 
d="M-174 1210h68q-25 45 -25 93q0 71 49.5 114t132.5 43q47 0 105 -12l-21 -109q-36 9 -65 9q-84 0 -84 -70q0 -30 20 -68h168v-112h-348v112z" />
    <glyph glyph-name="uni0655" unicode="&#x655;" 
d="M-174 -410h68q-25 45 -25 93q0 71 49.5 114t132.5 43q47 0 105 -12l-21 -109q-36 9 -65 9q-84 0 -84 -70q0 -30 20 -68h168v-112h-348v112z" />
    <glyph glyph-name="uni0656" unicode="&#x656;" 
d="M-57 -582v373h114v-342l-102 -31h-12z" />
    <glyph glyph-name="uni0658" unicode="&#x658;" 
d="M-147 1397l92 -33q-23 -65 -23 -92q0 -74 82 -74q74 0 74 86v111h104v-111q0 -89 -47.5 -139.5t-130.5 -50.5q-86 0 -136 42.5t-50 118.5q0 58 35 142z" />
    <glyph glyph-name="uni0660" unicode="&#x660;" horiz-adv-x="1105" 
d="M553 391l-211 211l211 205l209 -207z" />
    <glyph glyph-name="uni0661" unicode="&#x661;" horiz-adv-x="1105" 
d="M434 0v1337h242v-1337h-242z" />
    <glyph glyph-name="uni0662" unicode="&#x662;" horiz-adv-x="1105" 
d="M139 0v1337h242v-258q107 -47 207 -47q102 0 138 66.5t24 228.5l241 12q20 -278 -70 -403t-311 -125q-119 0 -229 43v-854h-242z" />
    <glyph glyph-name="uni0663" unicode="&#x663;" horiz-adv-x="1105" 
d="M63 1337h242v-262q42 -10 80 -10q69 0 90 55t8 205l205 14q12 -165 -8 -268q27 -6 57 -6q83 0 107 54t10 204l219 16q19 -248 -52.5 -366.5t-236.5 -118.5q-111 0 -202 43q-61 -43 -156 -43q-62 0 -121 16v-870h-242v1337z" />
    <glyph glyph-name="uni0664" unicode="&#x664;" horiz-adv-x="1105" 
d="M938 219l10 -221q-132 -18 -274 -18q-265 0 -399 76.5t-134 250.5q0 115 68.5 212t200.5 167q-99 41 -154 111.5t-55 163.5q0 184 152.5 282t453.5 98q51 0 78 -2v-221q-27 2 -78 2q-358 0 -358 -168q0 -68 68 -107.5t196 -39.5q53 0 135 10v-225q-124 -11 -216.5 -37
t-143.5 -60t-75 -69.5t-24 -73.5q0 -73 75.5 -107t250.5 -34q96 0 223 10z" />
    <glyph glyph-name="uni0665" unicode="&#x665;" horiz-adv-x="1105" 
d="M553 -16q-114 0 -200 31t-150.5 98.5t-97.5 181.5t-33 272q0 375 132.5 573.5t348.5 198.5q217 0 349 -198t132 -574q0 -158 -33 -272t-97.5 -181.5t-150.5 -98.5t-200 -31zM553 211q238 0 238 369q0 233 -65 382.5t-173 149.5t-173 -149.5t-65 -382.5q0 -369 238 -369z
" />
    <glyph glyph-name="uni0666" unicode="&#x666;" horiz-adv-x="1105" 
d="M682 0v1112h-586v225h828v-1337h-242z" />
    <glyph glyph-name="uni0667" unicode="&#x667;" horiz-adv-x="1105" 
d="M848 1358l246 -62l-394 -1296h-292l-398 1298l248 60l295 -1043z" />
    <glyph glyph-name="uni0668" unicode="&#x668;" horiz-adv-x="1105" 
d="M1094 25l-246 -60l-295 1041l-295 -1041l-248 62l396 1296h292z" />
    <glyph glyph-name="uni0669" unicode="&#x669;" horiz-adv-x="1105" 
d="M80 913q0 198 121 311t340 113h403v-1335h-242v524q-41 -4 -114 -4q-254 0 -381 102t-127 289zM328 922q0 -86 66.5 -132.5t201.5 -46.5q38 0 106 7v362h-120q-254 0 -254 -190z" />
    <glyph glyph-name="uni066A" unicode="&#x66a;" horiz-adv-x="1105" 
d="M350 -39l-176 66l586 1339l176 -66zM258 979l-186 186l186 189l191 -189zM848 0l-186 186l186 187l190 -187z" />
    <glyph glyph-name="uni066B" unicode="&#x66b;" horiz-adv-x="552" 
d="M444 152l-174 -539h-215l144 539h245z" />
    <glyph glyph-name="uni066C" unicode="&#x66c;" horiz-adv-x="491" 
d="M383 264l-123 -385h-205l103 385h225z" />
    <glyph glyph-name="uni066D" unicode="&#x66d;" horiz-adv-x="1724" 
d="M416 -201l-49 41l231 545l-514 307l16 76l613 -76l129 590h61l121 -590l612 76l23 -76l-535 -305l250 -547l-55 -41l-447 406z" />
    <glyph glyph-name="uni066E" unicode="&#x66e;" horiz-adv-x="1947" 
d="M1606 856h241v-512q0 -159 -94.5 -251.5t-273.5 -92.5h-918q-233 0 -368.5 113.5t-135.5 298.5q0 152 66 327l213 -55q-39 -147 -39 -223q0 -119 79 -181.5t222 -62.5h809q107 0 153 48t46 165v426z" />
    <glyph glyph-name="uni066F" unicode="&#x66f;" horiz-adv-x="1619" 
d="M797 -358q-752 0 -752 497q0 130 53 281l217 -58q-26 -101 -26 -186q0 -73 23.5 -127t80 -97t159.5 -65t253 -22q228 0 346.5 49.5t124.5 136.5q-83 -28 -199 -28q-205 0 -323.5 107.5t-118.5 299.5q0 121 53.5 222t159.5 164t246 63q107 0 190.5 -36.5t134 -99t76 -141
t25.5 -168.5v-272q0 -170 -71.5 -283t-233.5 -175t-418 -62zM1116 246q94 0 162 20v115q0 274 -199 274q-88 0 -144 -55.5t-56 -150.5q0 -203 237 -203z" />
    <glyph glyph-name="uni0670" unicode="&#x670;" 
d="M-57 1124v373h114v-342l-102 -31h-12z" />
    <glyph glyph-name="uni0671" unicode="&#x671;" horiz-adv-x="512" 
d="M377 0h-242v1548h242v-1548zM487 1649h-512v110h93v207h104v-86q72 92 172 92q78 0 125 -50t47 -134q0 -68 -29 -139zM164 1759h235q4 10 4 27q0 34 -22 55t-59 21q-42 0 -84.5 -26.5t-73.5 -76.5z" />
    <glyph glyph-name="uni0679" unicode="&#x679;" horiz-adv-x="1947" 
d="M57 412q0 152 66 327l213 -55q-39 -147 -39 -223q0 -119 79 -181.5t222 -62.5h809q107 0 153 48t46 165v426h241v-512q0 -159 -94.5 -251.5t-273.5 -92.5h-918q-233 0 -368.5 113.5t-135.5 298.5zM643 889v121h94v350h117v-199q75 94 180 94q89 0 144 -59t55 -158
q0 -60 -29 -149h-561zM850 1010h258q2 10 2 28q0 44 -24.5 70.5t-65.5 26.5q-46 0 -91.5 -32.5t-78.5 -92.5z" />
    <glyph glyph-name="uni067E" unicode="&#x67e;" horiz-adv-x="1947" 
d="M1606 856h241v-512q0 -159 -94.5 -251.5t-273.5 -92.5h-918q-233 0 -368.5 113.5t-135.5 298.5q0 152 66 327l213 -55q-39 -147 -39 -223q0 -119 79 -181.5t222 -62.5h809q107 0 153 48t46 165v426zM899 -299q0 -57 -36 -94t-93 -37q-56 0 -93.5 37t-37.5 94
q0 55 37.5 93t93.5 38t92.5 -37.5t36.5 -93.5zM1106 -168q54 0 90.5 -37.5t36.5 -93.5q0 -57 -36.5 -94t-90.5 -37q-58 0 -95.5 37t-37.5 94q0 56 37.5 93.5t95.5 37.5zM942 -442q57 0 92 -37t35 -96q0 -55 -35.5 -91t-91.5 -36t-93.5 36.5t-37.5 90.5q0 58 37.5 95.5
t93.5 37.5z" />
    <glyph glyph-name="uni0686" unicode="&#x686;" horiz-adv-x="1243" 
d="M592 879q144 0 251.5 -41.5t172 -118.5t96 -179.5t31.5 -232.5q0 -146 -37 -307h-619q-86 0 -133 -42t-47 -116q0 -77 56 -119t145 -42q17 0 45 4l18 -213q-36 -4 -67 -4q-196 0 -320.5 98.5t-124.5 269.5q0 177 112 279t304 102h434q4 40 4 62q0 188 -83.5 282
t-258.5 94q-89 0 -204 -28l-54 204q136 48 279 48zM748 -166q0 -40 -25.5 -66t-65.5 -26q-38 0 -64 26t-26 66q0 38 26 65t64 27q39 0 65 -26.5t26 -65.5zM893 -74q38 0 64 -27t26 -65q0 -40 -26 -66t-64 -26q-40 0 -66 26t-26 66q0 39 26.5 65.5t65.5 26.5zM778 -266
q40 0 65 -26.5t25 -67.5q0 -37 -25.5 -63t-64.5 -26q-38 0 -65 26t-27 63q0 41 26.5 67.5t65.5 26.5z" />
    <glyph glyph-name="uni0688" unicode="&#x688;" horiz-adv-x="1032" 
d="M70 217h620v4q0 74 -33.5 151t-89 142.5t-117.5 118.5t-128 94l145 195q141 -92 235 -186.5t143 -194t68 -193.5t19 -211v-137h-862v217zM61 1081v121h95v350h116v-198q75 94 181 94q89 0 143.5 -59t54.5 -158q0 -64 -28 -150h-562zM268 1202h258q2 10 2 29
q0 44 -24.5 70t-65.5 26q-46 0 -91.5 -32.5t-78.5 -92.5z" />
    <glyph glyph-name="uni0691" unicode="&#x691;" horiz-adv-x="628" 
d="M27 -375l-37 209q143 21 202.5 77t59.5 183v762h242v-713q0 -249 -112.5 -375t-354.5 -143zM53 1104v121h94v350h117v-199q75 94 180 94q89 0 144 -59t55 -158q0 -60 -29 -149h-561zM260 1225h258q2 10 2 28q0 44 -24.5 70.5t-65.5 26.5q-46 0 -91.5 -32.5t-78.5 -92.5z
" />
    <glyph glyph-name="uni0698" unicode="&#x698;" horiz-adv-x="628" 
d="M377 1358q-55 0 -92 38t-37 95q0 55 37 93t92 38q56 0 92.5 -38t36.5 -93q0 -57 -36 -95t-93 -38zM203 1079q-56 0 -93.5 38t-37.5 95q0 56 37.5 92.5t93.5 36.5q57 0 93 -36t36 -93t-36 -95t-93 -38zM539 1079q-58 0 -95.5 38t-37.5 95t37 93t96 36q55 0 91 -36.5
t36 -92.5q0 -57 -36.5 -95t-90.5 -38zM27 -375l-37 209q143 21 202.5 77t59.5 183v762h242v-713q0 -249 -112.5 -375t-354.5 -143z" />
    <glyph glyph-name="uni06A1" unicode="&#x6a1;" horiz-adv-x="2191" 
d="M70 412q0 155 65 327l213 -55q-39 -147 -39 -223q0 -119 79 -181.5t222 -62.5h602q-49 86 -49 205q0 198 131.5 327.5t352.5 129.5q98 0 176.5 -28.5t127.5 -74.5t81.5 -107t45.5 -121.5t13 -123.5q0 -203 -82 -424h-1436q-233 0 -368 113t-135 299zM1407 424
q0 -102 59 -207h359q24 99 24 184q0 112 -52.5 183t-160.5 71q-109 0 -169 -64t-60 -167z" />
    <glyph glyph-name="uni06A4" unicode="&#x6a4;" horiz-adv-x="2191" 
d="M573 0q-233 0 -368 113t-135 299q0 155 65 327l213 -55q-39 -147 -39 -223q0 -119 79 -181.5t222 -62.5h602q-49 86 -49 205q0 198 131.5 327.5t352.5 129.5q98 0 176.5 -28.5t127.5 -74.5t81.5 -107t45.5 -121.5t13 -123.5q0 -203 -82 -424h-1436zM1407 424
q0 -102 59 -207h359q24 99 24 184q0 112 -52.5 183t-160.5 71q-109 0 -169 -64t-60 -167zM1477 1102q-56 0 -93.5 38t-37.5 95q0 56 37.5 92.5t93.5 36.5q57 0 93 -36t36 -93t-36 -95t-93 -38zM1812 1102q-58 0 -95.5 38t-37.5 95t37 93t96 36q54 0 90.5 -36t36.5 -93
t-36.5 -95t-90.5 -38zM1651 1380q-55 0 -92 38t-37 95q0 55 37 93.5t92 38.5q56 0 92.5 -38.5t36.5 -93.5q0 -57 -36 -95t-93 -38z" />
    <glyph glyph-name="uni06A9" unicode="&#x6a9;" horiz-adv-x="1765" 
d="M1098 901q143 -44 246.5 -103t164.5 -122.5t97 -146t47.5 -160.5t11.5 -179v-190h-1104q-233 0 -368.5 113.5t-135.5 298.5q0 152 66 327l213 -55q-39 -147 -39 -223q0 -119 79 -181.5t222 -62.5h827v21q0 100 -25.5 173.5t-89.5 138t-175.5 113t-280.5 87.5v227l580 559
l155 -160z" />
    <glyph glyph-name="uni06AF" unicode="&#x6af;" horiz-adv-x="1765" 
d="M1362 1612l-528 -506l-127 127l530 504zM1098 901q143 -44 246.5 -103t164.5 -122.5t97 -146t47.5 -160.5t11.5 -179v-190h-1104q-233 0 -368.5 113.5t-135.5 298.5q0 152 66 327l213 -55q-39 -147 -39 -223q0 -119 79 -181.5t222 -62.5h827v21q0 100 -25.5 173.5
t-89.5 138t-175.5 113t-280.5 87.5v227l580 559l155 -160z" />
    <glyph glyph-name="uni06BA" unicode="&#x6ba;" horiz-adv-x="1329" 
d="M621 -358q-141 0 -251.5 42t-177 113t-101 158.5t-34.5 183.5q0 175 93 379l210 -74q-59 -152 -59 -272q0 -150 86.5 -228.5t239.5 -78.5q159 0 242 80t83 266v496h242v-557q0 -128 -42 -226t-119 -159t-180.5 -92t-231.5 -31z" />
    <glyph glyph-name="uni06BE" unicode="&#x6be;" horiz-adv-x="1556" 
d="M442 0q-221 0 -372 59l55 209q139 -51 317 -51h13q-74 100 -74 232q0 76 28.5 147t86.5 121l-144 6l33 195q137 -6 249.5 -17.5t228 -34.5t204 -56t168 -84.5t131 -118t81.5 -158t30 -203.5q0 -116 -29 -246h-467q-150 0 -256 41q-103 -41 -283 -41zM733 651
q-65 0 -107 -51.5t-42 -130.5q0 -80 40 -141t105 -97q70 34 112 95t42 141q0 83 -42 133.5t-108 50.5zM1087 455q0 -138 -77 -238h256q4 32 4 53q0 218 -215 328q32 -63 32 -143z" />
    <glyph glyph-name="uni06C1" unicode="&#x6c1;" horiz-adv-x="1071" 
d="M518 -10q-213 0 -336 113.5t-123 304.5q0 205 124.5 338t334.5 133q140 0 245 -63.5t158.5 -169.5t53.5 -238q0 -193 -121.5 -305.5t-335.5 -112.5zM522 213q94 0 149.5 53t55.5 156q0 106 -55.5 169.5t-153.5 63.5q-101 0 -156 -63t-55 -168t57 -158t158 -53z" />
    <glyph glyph-name="uni06C2" unicode="&#x6c2;" horiz-adv-x="1071" 
d="M59 408q0 205 124.5 338t334.5 133q140 0 245 -63.5t158.5 -169.5t53.5 -238q0 -193 -121.5 -305.5t-335.5 -112.5q-213 0 -336 113.5t-123 304.5zM518 655q-101 0 -156 -63t-55 -168t57 -158t158 -53q94 0 149.5 53t55.5 156q0 106 -55.5 169.5t-153.5 63.5zM733 1122
h-450v144h86q-31 57 -31 116q0 91 64.5 147t170.5 56q58 0 136 -16l-27 -139q-38 10 -84 10q-47 0 -79 -22t-32 -66q0 -39 29 -86h217v-144z" />
    <glyph glyph-name="uni06C3" unicode="&#x6c3;" horiz-adv-x="1071" 
d="M348 1116q-56 0 -93.5 38t-37.5 93q0 56 37.5 92.5t93.5 36.5q57 0 93 -36t36 -93q0 -56 -36.5 -93.5t-92.5 -37.5zM684 1116q-58 0 -95.5 37.5t-37.5 93.5q0 57 37 93t96 36q54 0 90.5 -36t36.5 -93q0 -56 -36.5 -93.5t-90.5 -37.5zM518 -10q-213 0 -336 113.5
t-123 304.5q0 205 124.5 338t334.5 133q140 0 245 -63.5t158.5 -169.5t53.5 -238q0 -193 -121.5 -305.5t-335.5 -112.5zM522 213q94 0 149.5 53t55.5 156q0 106 -55.5 169.5t-153.5 63.5q-101 0 -156 -63t-55 -168t57 -158t158 -53z" />
    <glyph glyph-name="uni06CC" unicode="&#x6cc;" horiz-adv-x="1570" 
d="M768 -371q-166 0 -297 29t-227.5 88t-147.5 154.5t-51 222.5q0 118 53 280l224 -57q-29 -125 -29 -180q0 -156 119 -228.5t356 -72.5q218 0 336.5 42.5t118.5 110.5q0 27 -27.5 53.5t-71.5 51t-97.5 52t-107 62t-97.5 74.5t-71.5 97t-27.5 122q0 146 123 247.5t340 101.5
q105 0 233 -31l-43 -230q-94 25 -186 25q-104 0 -159.5 -33t-55.5 -86q0 -34 27.5 -64.5t71 -54.5t96 -49.5t105.5 -55.5t96.5 -65t71 -86t27.5 -112q0 -60 -23.5 -116.5t-78 -110t-133.5 -93.5t-199.5 -64t-267.5 -24z" />
    <glyph glyph-name="uni06D2" unicode="&#x6d2;" horiz-adv-x="1556" 
d="M745 -25q-259 0 -410.5 33.5t-212.5 96.5t-61 167q0 62 22.5 114t58 87.5t78.5 65.5t86 55.5t78.5 50.5t58 56.5t22.5 68.5v76h225v-88q0 -60 -22 -110t-57.5 -84.5t-78 -64t-85.5 -53t-78.5 -45t-57.5 -47t-22 -53.5q0 -39 39 -61t149 -33.5t314 -11.5q362 0 749 63
l8 -215q-428 -68 -803 -68z" />
    <glyph glyph-name="uni06D3" unicode="&#x6d3;" horiz-adv-x="1556" 
d="M745 -25q-259 0 -410.5 33.5t-212.5 96.5t-61 167q0 62 22.5 114t58 87.5t78.5 65.5t86 55.5t78.5 50.5t58 56.5t22.5 68.5v76h225v-88q0 -60 -22 -110t-57.5 -84.5t-78 -64t-85.5 -53t-78.5 -45t-57.5 -47t-22 -53.5q0 -39 39 -61t149 -33.5t314 -11.5q362 0 749 63
l8 -215q-428 -68 -803 -68zM795 1087h-451v144h86q-31 57 -31 117q0 91 65 146.5t171 55.5q57 0 135 -16l-27 -139q-38 10 -84 10q-47 0 -78.5 -22t-31.5 -66q0 -39 29 -86h217v-144z" />
    <glyph glyph-name="uni06D4" unicode="&#x6d4;" horiz-adv-x="745" 
d="M147 287q76 -70 220 -70h317v-217h-317q-101 0 -175.5 24.5t-130.5 88.5z" />
    <glyph glyph-name="uni06D5" unicode="&#x6d5;" horiz-adv-x="1071" 
d="M518 -10q-213 0 -336 113.5t-123 304.5q0 205 124.5 338t334.5 133q140 0 245 -63.5t158.5 -169.5t53.5 -238q0 -193 -121.5 -305.5t-335.5 -112.5zM522 213q94 0 149.5 53t55.5 156q0 106 -55.5 169.5t-153.5 63.5q-101 0 -156 -63t-55 -168t57 -158t158 -53z" />
    <glyph glyph-name="uni06F0" unicode="&#x6f0;" horiz-adv-x="1105" 
d="M553 391l-211 211l211 205l209 -207z" />
    <glyph glyph-name="uni06F1" unicode="&#x6f1;" horiz-adv-x="1105" 
d="M434 0v1337h242v-1337h-242z" />
    <glyph glyph-name="uni06F2" unicode="&#x6f2;" horiz-adv-x="1105" 
d="M139 0v1337h242v-258q107 -47 207 -47q102 0 138 66.5t24 228.5l241 12q20 -278 -70 -403t-311 -125q-119 0 -229 43v-854h-242z" />
    <glyph glyph-name="uni06F3" unicode="&#x6f3;" horiz-adv-x="1105" 
d="M63 1337h242v-262q42 -10 80 -10q69 0 90 55t8 205l205 14q12 -165 -8 -268q27 -6 57 -6q83 0 107 54t10 204l219 16q19 -248 -52.5 -366.5t-236.5 -118.5q-111 0 -202 43q-61 -43 -156 -43q-62 0 -121 16v-870h-242v1337z" />
    <glyph glyph-name="uni06F4" unicode="&#x6f4;" horiz-adv-x="1105" 
d="M57 0v1337h242v-325q110 -30 215 -41q-20 56 -20 121q0 266 282 266q98 0 199 -29l-51 -194q-58 22 -123 22q-119 0 -119 -110q0 -41 16 -84q167 3 336 34l27 -204q-201 -39 -399 -39q-195 0 -363 49v-803h-242z" />
    <glyph glyph-name="uni06F5" unicode="&#x6f5;" horiz-adv-x="1105" 
d="M371 -12q-314 0 -314 530q0 195 44 355t116 259.5t159.5 153t178.5 53.5q75 0 146 -32t134 -99.5t110.5 -163t75.5 -231t28 -295.5q0 -272 -81 -401t-223 -129q-113 0 -190 88q-78 -88 -184 -88zM434 215q18 0 37 7.5t30.5 15t29 20.5t22.5 16q1 0 20.5 -15.5t30 -22
t31 -14t39.5 -7.5q60 0 93.5 80t33.5 235q0 144 -28 275t-85.5 219t-132.5 88q-73 0 -132 -89.5t-88.5 -221t-29.5 -269.5q0 -160 35.5 -238.5t93.5 -78.5z" />
    <glyph glyph-name="uni06F6" unicode="&#x6f6;" horiz-adv-x="1105" 
d="M834 905l188 -157l-688 -799l-189 157l385 449q-172 34 -268 134t-96 253q0 192 146 295.5t433 103.5q70 0 109 -2v-221q-74 4 -100 4q-172 0 -256 -47.5t-84 -132.5q0 -72 76.5 -119t222.5 -59z" />
    <glyph glyph-name="uni06F7" unicode="&#x6f7;" horiz-adv-x="1105" 
d="M848 1358l246 -62l-394 -1296h-292l-398 1298l248 60l295 -1043z" />
    <glyph glyph-name="uni06F8" unicode="&#x6f8;" horiz-adv-x="1105" 
d="M1094 25l-246 -60l-295 1041l-295 -1041l-248 62l396 1296h292z" />
    <glyph glyph-name="uni06F9" unicode="&#x6f9;" horiz-adv-x="1105" 
d="M80 913q0 198 121 311t340 113h403v-1335h-242v524q-41 -4 -114 -4q-254 0 -381 102t-127 289zM328 922q0 -86 66.5 -132.5t201.5 -46.5q38 0 106 7v362h-120q-254 0 -254 -190z" />
    <glyph glyph-name="Germandbls" unicode="&#x1e9e;" horiz-adv-x="1474" 
d="M1257 1241q-58 0 -109 -7.5t-106 -27t-87.5 -61.5t-32.5 -103q0 -31 14 -61t33 -53t54 -51.5t59.5 -45t66.5 -43.5q91 -59 145 -114.5t81.5 -126.5t27.5 -164q0 -205 -120 -312.5t-320 -107.5q-285 0 -453 178l188 183q107 -127 252 -127q79 0 131 45t52 120
q0 44 -12.5 78t-43.5 66t-58.5 53.5t-81.5 58.5q-4 3 -6.5 4.5t-6 4t-6.5 4.5q-51 35 -81.5 58t-71 61t-63 71.5t-39 79.5t-16.5 96q0 174 187 269l-50 2q-86 0 -150 -12.5t-116.5 -42.5t-80 -86.5t-27.5 -139.5v-987h-258v985q0 111 31 197t86 143t136 93.5t176 52.5
t212 16q211 0 464 -23v-223z" />
    <glyph glyph-name="uni2002" unicode="&#x2002;" horiz-adv-x="1171" 
 />
    <glyph glyph-name="uni2003" unicode="&#x2003;" horiz-adv-x="2340" 
 />
    <glyph glyph-name="uni2009" unicode="&#x2009;" horiz-adv-x="233" 
 />
    <glyph glyph-name="uni200A" unicode="&#x200a;" horiz-adv-x="47" 
 />
    <glyph glyph-name="uni200C" unicode="&#x200c;" 
d="M-160 2122l37 41l123 -125l121 123l37 -39l-119 -121l119 -121l-37 -39l-121 121l-123 -123l-37 41l121 121z" />
    <glyph glyph-name="uni200D" unicode="&#x200d;" 
d="M-231 2030h464v-162h-53v108h-358v-108h-53v162z" />
    <glyph glyph-name="uni200E" unicode="&#x200e;" 
d="M61 1839l-38 41l96 96h-295v54h295l-96 92l38 41l162 -162z" />
    <glyph glyph-name="uni200F" unicode="&#x200f;" 
d="M-61 1841l-162 160l162 162l38 -37l-96 -96h297v-54h-295l94 -96z" />
    <glyph glyph-name="uni2011" unicode="&#x2011;" horiz-adv-x="645" 
d="M575 608v-209h-505v209h505z" />
    <glyph glyph-name="endash" unicode="&#x2013;" horiz-adv-x="1024" 
d="M1024 602v-196h-1024v196h1024z" />
    <glyph glyph-name="emdash" unicode="&#x2014;" horiz-adv-x="2048" 
d="M2048 602v-196h-2048v196h2048z" />
    <glyph glyph-name="quoteleft" unicode="&#x2018;" horiz-adv-x="606" 
d="M500 1450l-144 -541h-250l175 541h219z" />
    <glyph glyph-name="quoteright" unicode="&#x2019;" horiz-adv-x="606" 
d="M500 1450l-174 -541h-220l144 541h250z" />
    <glyph glyph-name="quotesinglbase" unicode="&#x201a;" horiz-adv-x="606" 
d="M500 283l-174 -541h-220l144 541h250z" />
    <glyph glyph-name="quotedblleft" unicode="&#x201c;" horiz-adv-x="1062" 
d="M801 909h-250l174 541h219zM119 909l174 541h219l-143 -541h-250z" />
    <glyph glyph-name="quotedblright" unicode="&#x201d;" horiz-adv-x="1062" 
d="M770 909h-219l143 541h250zM119 909l143 541h250l-174 -541h-219z" />
    <glyph glyph-name="quotedblbase" unicode="&#x201e;" horiz-adv-x="1062" 
d="M768 -258h-219l143 541h250zM121 -258l143 541h250l-174 -541h-219z" />
    <glyph glyph-name="dagger" unicode="&#x2020;" horiz-adv-x="1214" 
d="M84 838v196h405v416h234v-416h407v-196h-407v-1096h-234v1096h-405z" />
    <glyph glyph-name="daggerdbl" unicode="&#x2021;" horiz-adv-x="1214" 
d="M96 874v197h393v379h234v-379h395v-197h-395v-555h395v-196h-395v-381h-234v381h-393v196h393v555h-393z" />
    <glyph glyph-name="bullet" unicode="&#x2022;" horiz-adv-x="1024" 
d="M512 1087q149 0 255.5 -105t106.5 -257t-105.5 -257.5t-256.5 -105.5q-147 0 -254.5 104.5t-107.5 258.5q0 150 105 256t257 106z" />
    <glyph glyph-name="ellipsis" unicode="&#x2026;" horiz-adv-x="2048" 
d="M342 303q66 0 115 -45.5t49 -110.5q0 -68 -48.5 -113.5t-115.5 -45.5q-66 0 -115 45t-49 110t49.5 112.5t114.5 47.5zM1024 303q67 0 115.5 -46.5t48.5 -109.5q0 -64 -49 -111.5t-115 -47.5t-115 45t-49 110t49.5 112.5t114.5 47.5zM1706 303q66 0 115 -45t49 -111
q0 -68 -48.5 -113.5t-115.5 -45.5q-65 0 -114.5 45t-49.5 110q0 66 47.5 113t116.5 47z" />
    <glyph glyph-name="uni202A" unicode="&#x202a;" 
d="M119 1976h-117v54h117l-96 92l38 41l162 -162l-162 -162l-38 41zM-66 1976h-133v54h133v-54z" />
    <glyph glyph-name="uni202B" unicode="&#x202b;" 
d="M-223 2001l162 162l38 -37l-96 -96h117v-54h-115l94 -96l-38 -39zM66 1976v54h133v-54h-133z" />
    <glyph glyph-name="uni202C" unicode="&#x202c;" 
d="M-29 1837v238l-92 -95l-39 39l160 160l160 -160l-39 -39l-94 95v-238h-56z" />
    <glyph glyph-name="uni202D" unicode="&#x202d;" 
d="M-49 1839l-37 41l96 96h-252v54h250l-94 92l37 41l162 -162zM102 1839l-36 41l124 121l-124 121l36 41l162 -162z" />
    <glyph glyph-name="uni202E" unicode="&#x202e;" 
d="M-102 1896l-162 162l162 162l36 -39l-122 -123l122 -123zM49 1896l-160 162l160 162l39 -39l-96 -98h252v-51h-252l96 -97z" />
    <glyph glyph-name="perthousand" unicode="&#x2030;" horiz-adv-x="2390" 
d="M274 12l852 1504l170 -78l-852 -1504zM375 1475q148 0 255 -106t107 -255q0 -151 -106.5 -256.5t-255.5 -105.5q-151 0 -256 106.5t-105 255.5q0 93 46 175.5t130 134t185 51.5zM199 1114q0 -79 50 -128.5t126 -49.5t127 50t51 128q0 76 -51 126t-127 50
q-75 0 -125.5 -50t-50.5 -126zM1202 698q149 0 256 -104.5t107 -255.5t-107 -257t-256 -106q-148 0 -254 106.5t-106 256.5q0 151 106 255.5t254 104.5zM2013 698q149 0 256 -104.5t107 -255.5t-107 -257t-256 -106q-148 0 -254 106.5t-106 256.5q0 151 106 255.5t254 104.5
zM1026 338q0 -78 50 -128t126 -50q74 0 126 48t52 130q0 80 -51.5 128t-128.5 48q-75 0 -124.5 -50.5t-49.5 -125.5zM1837 338q0 -76 49.5 -127t126.5 -51q75 0 126.5 50t51.5 128q0 80 -51.5 128t-128.5 48q-75 0 -124.5 -50t-49.5 -126z" />
    <glyph glyph-name="guilsinglleft" unicode="&#x2039;" horiz-adv-x="606" 
d="M526 862l-235 -354l237 -358l-155 -105l-312 463l312 459z" />
    <glyph glyph-name="guilsinglright" unicode="&#x203a;" horiz-adv-x="606" 
d="M233 967l312 -463l-312 -459l-153 105l235 354l-237 358z" />
    <glyph glyph-name="fraction" unicode="&#x2044;" horiz-adv-x="342" 
d="M512 1516l170 -78l-852 -1504l-170 78z" />
    <glyph glyph-name="Euro" unicode="&#x20ac;" horiz-adv-x="1249" 
d="M31 455l57 176h92q-2 8 -2 98q0 43 6 90h-147l61 176h113q65 233 238.5 362.5t410.5 129.5q195 0 328 -68l-78 -205q-94 58 -260 58q-135 0 -245 -77t-146 -200h590l-58 -176h-571q-6 -47 -6 -119q0 -37 4 -69h524l-55 -176h-438q33 -126 143 -200.5t252 -74.5
q153 0 268 68l84 -197q-64 -41 -159.5 -64.5t-200.5 -23.5q-249 0 -412.5 128.5t-220.5 363.5h-172z" />
    <glyph glyph-name="uni20B9" unicode="&#x20b9;" horiz-adv-x="1212" 
d="M643 958h-483l2 158h485q-11 49 -42 84t-75.5 54t-93 27.5t-104.5 8.5h-172v160h977v-160h-328q72 -72 84 -174h244v-158h-246q-18 -161 -129 -247.5t-283 -94.5l447 -616h-301l-461 637v145h143q284 0 336 176z" />
    <glyph glyph-name="uni20BA" unicode="&#x20ba;" horiz-adv-x="1212" 
d="M55 852v174l178 74v350h246v-244l357 152v-174l-357 -152v-178l357 150v-175l-357 -149v-461q6 -2 29 -2q107 1 187 43t127 116t70 168.5t23 207.5h246q0 -174 -41.5 -314t-124 -242t-212 -157t-298.5 -55q-137 0 -252 16v573l-178 -75v174l178 76v178z" />
    <glyph glyph-name="uni2113" unicode="&#x2113;" horiz-adv-x="1024" 
d="M152 285l-86 129l202 174v495q0 171 94.5 282.5t243.5 111.5q127 0 204 -79t77 -214q0 -155 -94 -309.5t-285 -325.5v-254q0 -67 34.5 -107.5t98.5 -40.5q84 0 180 78h4l82 -125q-144 -129 -323 -129q-148 0 -231 79t-83 208v133l-114 -106h-4zM508 1141v-387
q184 205 184 411q0 69 -25.5 110.5t-64.5 41.5t-66.5 -52.5t-27.5 -123.5z" />
    <glyph glyph-name="trademark" unicode="&#x2122;" horiz-adv-x="2048" 
d="M983 606v844h291l201 -549l200 549h291v-844h-209v549h-4l-207 -549h-143l-207 549h-4v-549h-209zM332 1266h-250v184h709v-184h-250v-660h-209v660z" />
    <glyph glyph-name="Omega" unicode="&#x2126;" horiz-adv-x="1554" 
d="M94 217h352v66q-121 38 -201.5 121t-115.5 188.5t-35 234.5q0 186 89.5 335.5t242.5 232t338 82.5q187 0 340 -80t242.5 -228t89.5 -335q0 -131 -34.5 -238t-115.5 -191t-205 -122v-66h355v-217h-566v387q152 30 237 148.5t85 277.5q0 187 -119.5 318t-304.5 131
q-188 0 -308 -130.5t-120 -320.5q0 -164 79.5 -273.5t235.5 -150.5v-387h-561v217z" />
    <glyph glyph-name="estimated" unicode="&#x212e;" horiz-adv-x="1998" 
d="M1001 -39q-197 0 -359 60t-267.5 162t-163 235.5t-57.5 283.5t59 290t165 249t267.5 174.5t351.5 65.5q135 0 251 -24.5t201 -67.5t153 -103t112.5 -128.5t74 -147t42 -155.5t12.5 -157h-1366q-12 0 -12 -12v-389q0 -42 16 -61q84 -107 216 -164.5t298 -57.5
q168 0 298 63t253 179h148q-86 -104 -177 -166.5t-217.5 -95.5t-298.5 -33zM465 754q0 -13 12 -13h1045q12 0 12 13v397q0 28 -25 57q-50 63 -118 108t-140 68t-136 33t-126 10q-133 0 -266 -53t-238 -162q-20 -23 -20 -59v-399z" />
    <glyph glyph-name="partialdiff" unicode="&#x2202;" horiz-adv-x="1138" 
d="M496 1477q267 0 412 -199.5t145 -546.5q0 -369 -133 -563.5t-390 -194.5q-198 0 -323 131.5t-125 335.5q0 202 125.5 327.5t316.5 125.5q155 0 293 -113v76q0 202 -85 322t-224 120q-125 0 -250 -100l-121 143q96 75 177.5 105.5t181.5 30.5zM305 428q0 -127 62 -205
t172 -78q118 0 197 111.5t79 263.5q0 12 -1 36t-1 36q-63 69 -122.5 100t-135.5 31q-113 0 -181.5 -81t-68.5 -214z" />
    <glyph glyph-name="Delta" unicode="&#x2206;" horiz-adv-x="1402" 
d="M805 1458l581 -1458h-1370l553 1458h236zM330 213h733l-379 977z" />
    <glyph glyph-name="product" unicode="&#x220f;" horiz-adv-x="1517" 
d="M127 -438v2048h1264v-2048h-234v1837h-797v-1837h-233z" />
    <glyph glyph-name="summation" unicode="&#x2211;" horiz-adv-x="1327" 
d="M1251 1610v-211h-864l563 -799l-600 -827h928v-211h-1227v182l621 854l-594 829v183h1173z" />
    <glyph glyph-name="minus" unicode="&#x2212;" horiz-adv-x="1363" 
d="M1237 725v-209h-1110v209h1110z" />
    <glyph glyph-name="uni2215" unicode="&#x2215;" horiz-adv-x="342" 
d="M512 1516l170 -78l-852 -1504l-170 78z" />
    <glyph glyph-name="uni2219" unicode="&#x2219;" horiz-adv-x="606" 
d="M303 756q68 0 116 -46t48 -110t-47.5 -112t-116.5 -48q-66 0 -115 46t-49 110q0 66 48 113t116 47z" />
    <glyph glyph-name="radical" unicode="&#x221a;" horiz-adv-x="1099" 
d="M1124 1610l-432 -2048h-217l-311 649l-105 -51l-84 184l304 139l264 -559l344 1686h237z" />
    <glyph glyph-name="infinity" unicode="&#x221e;" horiz-adv-x="1669" 
d="M1233 905q151 0 247.5 -102t96.5 -264q0 -158 -93.5 -265.5t-252.5 -107.5q-203 0 -395 229q-119 -129 -206 -178t-188 -49q-157 0 -253.5 105.5t-96.5 263.5t94 262t248 104q104 0 195 -53t207 -191q108 132 200.5 189t196.5 57zM952 530q146 -168 283 -168
q71 0 114.5 47t43.5 123q0 74 -43 125.5t-121 51.5q-118 0 -277 -179zM276 532q0 -76 45 -121.5t119 -45.5q62 0 134 42t143 123q-163 177 -285 177q-65 0 -110.5 -50.5t-45.5 -124.5z" />
    <glyph glyph-name="integral" unicode="&#x222b;" horiz-adv-x="1251" 
d="M768 1610q94 0 160.5 -43t66.5 -115q0 -47 -29.5 -76.5t-76.5 -29.5q-44 0 -70 23.5t-41 74.5t-45 51q-18 0 -25.5 -12.5t-7.5 -44.5q0 -36 4.5 -121t4.5 -113v-1229q0 -213 -72.5 -314t-220.5 -101q-100 0 -165 41.5t-65 113.5q0 47 31 78t78 31q42 0 68 -22.5t53 -96.5
q9 -31 30 -31q35 0 35 64q0 57 -4 129.5t-4 97.5v1227q0 219 73 318.5t222 99.5z" />
    <glyph glyph-name="approxequal" unicode="&#x2248;" horiz-adv-x="1363" 
d="M432 926q14 0 28 -1t30.5 -4t27.5 -4.5t30 -7.5t27.5 -8t31 -10t28.5 -10t32 -11.5t31 -11.5q7 -2 44.5 -15.5t48 -17t40.5 -13t46 -12.5t39.5 -6t44.5 -3q50 0 82 35.5t44 97.5h146q-17 -170 -95.5 -261.5t-207.5 -91.5q-84 0 -260 64q-25 9 -59.5 21.5t-50.5 18.5
t-39.5 14t-35 11t-27 7t-26.5 5t-22 1q-48 0 -81.5 -38.5t-49.5 -103.5h-146q19 167 97 261t202 94zM428 500q91 0 258 -64q185 -71 268 -71q51 0 84 35.5t45 97.5h146q-17 -171 -95 -262t-208 -91q-46 0 -98.5 12.5t-165.5 53.5q-15 5 -58 21t-60.5 22.5t-48 16t-51 13
t-38.5 3.5q-96 0 -132 -140h-145q19 168 97 260.5t202 92.5z" />
    <glyph glyph-name="notequal" unicode="&#x2260;" horiz-adv-x="1363" 
d="M164 332v209h371l77 159h-448v209h553l147 293l185 -90l-105 -203h256v-209h-360l-78 -159h438v-209h-541l-151 -295l-180 92l102 203h-266z" />
    <glyph glyph-name="lessequal" unicode="&#x2264;" horiz-adv-x="1363" 
d="M164 643v221l1036 363v-232l-735 -241l735 -230v-229zM164 8v219h1036v-219h-1036z" />
    <glyph glyph-name="greaterequal" unicode="&#x2265;" horiz-adv-x="1363" 
d="M164 524l735 230l-735 241v232l1036 -363v-221l-1036 -348v229zM1200 8h-1036v219h1036v-219z" />
    <glyph glyph-name="lozenge" unicode="&#x25ca;" horiz-adv-x="1214" 
d="M709 1530l364 -801l-364 -801h-205l-363 801l363 801h205zM365 729l241 -586l244 586l-244 584z" />
    <glyph glyph-name="uni25CC" unicode="&#x25cc;" horiz-adv-x="942" 
d="M471 700q-55 0 -55 58q0 55 55 55t55 -55q0 -58 -55 -58zM293 655q-53 0 -53 60q0 53 53 53q59 0 59 -53q0 -60 -59 -60zM647 655q-59 0 -59 60q0 53 59 53q53 0 53 -53q0 -60 -53 -60zM164 526q-53 0 -53 58q0 55 53 55q57 0 57 -55q0 -58 -57 -58zM776 526
q-55 0 -55 58q0 55 55 55t55 -55q0 -58 -55 -58zM119 352q-53 0 -53 56q0 55 53 55q57 0 57 -55q0 -56 -57 -56zM821 352q-55 0 -55 56q0 55 55 55q56 0 56 -55q0 -56 -56 -56zM164 176q-53 0 -53 55q0 56 53 56q57 0 57 -56q0 -55 -57 -55zM776 176q-55 0 -55 55
q0 56 55 56t55 -56q0 -55 -55 -55zM293 47q-53 0 -53 55q0 56 53 56q59 0 59 -56q0 -55 -59 -55zM647 47q-59 0 -59 55q0 26 15.5 41t43.5 15q53 0 53 -56q0 -55 -53 -55zM471 2q-55 0 -55 55q0 58 55 58t55 -58q0 -55 -55 -55z" />
    <glyph glyph-name="uni274A" unicode="&#x274a;" horiz-adv-x="1298" 
d="M510 -6l-201 96l199 336l-367 -113l-49 213l383 52l-323 219l139 172l280 -271l-30 389h221l-33 -389l283 269l137 -172l-324 -220l381 -53l-49 -211l-366 117l194 -338l-197 -96l-137 366z" />
    <glyph glyph-name="fi" unicode="&#xfb01;" horiz-adv-x="1214" 
d="M227 774h-202v209h202v154q0 238 87 337t282 99q88 0 154 -14l-17 -209q-57 14 -102 14q-82 0 -120 -46t-38 -149v-186h227v-209h-227v-774h-246v774zM860 0v983h246v-983h-246zM981 1169q-65 0 -110.5 43.5t-45.5 104.5t45.5 104t110.5 43q68 0 114 -42t46 -105
q0 -65 -46.5 -106.5t-113.5 -41.5z" />
    <glyph glyph-name="fl" unicode="&#xfb02;" horiz-adv-x="1214" 
d="M227 774h-202v209h202v154q0 238 87 337t282 99q88 0 154 -14l-17 -209q-57 14 -102 14q-82 0 -120 -46t-38 -149v-186h227v-209h-227v-774h-246v774zM860 0v1548h246v-1548h-246z" />
    <glyph glyph-name="uniFBB2" unicode="&#xfbb2;" 
d="M2 1118q-58 0 -94.5 37.5t-36.5 93.5q0 57 36.5 93t94.5 36t92.5 -35.5t34.5 -93.5q0 -57 -35 -94t-92 -37z" />
    <glyph glyph-name="uniFBB3" unicode="&#xfbb3;" 
d="M2 -428q-58 0 -94.5 36.5t-36.5 92.5q0 58 36.5 95.5t94.5 37.5t92.5 -37.5t34.5 -95.5q0 -56 -34.5 -92.5t-92.5 -36.5z" />
    <glyph glyph-name="uniFBB4" unicode="&#xfbb4;" 
d="M-166 1118q-56 0 -93.5 38t-37.5 93q0 56 37.5 92.5t93.5 36.5q57 0 93 -36t36 -93q0 -56 -36.5 -93.5t-92.5 -37.5zM170 1118q-58 0 -95.5 37.5t-37.5 93.5q0 57 37 93t96 36q54 0 90.5 -36t36.5 -93q0 -56 -36.5 -93.5t-90.5 -37.5z" />
    <glyph glyph-name="uniFBB5" unicode="&#xfbb5;" 
d="M-166 -428q-56 0 -93.5 37t-37.5 92q0 57 37.5 95t93.5 38q57 0 93 -38t36 -95q0 -56 -36 -92.5t-93 -36.5zM170 -428q-58 0 -95.5 36.5t-37.5 92.5q0 57 37.5 95t95.5 38q54 0 90.5 -38t36.5 -95q0 -55 -36.5 -92t-90.5 -37z" />
    <glyph glyph-name="uniFBB6" unicode="&#xfbb6;" 
d="M8 1382q-55 0 -92 38.5t-37 95.5q0 55 37 93t92 38q56 0 92.5 -38t36.5 -93q0 -58 -36 -96t-93 -38zM-166 1104q-56 0 -93.5 38t-37.5 95q0 56 37.5 92.5t93.5 36.5q57 0 93 -36t36 -93t-36 -95t-93 -38zM170 1104q-58 0 -95.5 38t-37.5 95t37 93t96 36q54 0 90.5 -36
t36.5 -93t-36.5 -95t-90.5 -38z" />
    <glyph glyph-name="uniFBB9" unicode="&#xfbb9;" 
d="M-166 -430q-56 0 -93.5 37t-37.5 94q0 55 37.5 93t93.5 38t92.5 -37.5t36.5 -93.5q0 -57 -36 -94t-93 -37zM170 -430q-58 0 -95.5 37t-37.5 94q0 56 37.5 93.5t95.5 37.5q54 0 90.5 -37.5t36.5 -93.5q0 -57 -36.5 -94t-90.5 -37zM6 -702q-56 0 -93.5 36.5t-37.5 90.5
q0 58 37.5 95.5t93.5 37.5q57 0 92 -37t35 -96q0 -55 -35.5 -91t-91.5 -36z" />
    <glyph glyph-name="uniFD3E" unicode="&#xfd3e;" horiz-adv-x="1048" 
d="M182 604q-121 59 -121 101q0 39 121 98v112q0 41 29 41q5 0 29 -18l147 -131q20 -14 29 -14q24 0 24 18q0 22 -16 35l-117 162q-11 17 -5.5 32t22.5 15h6l139 -23q22 82 90 187t144.5 188t147 141t99.5 58q17 0 17.5 -11t-13.5 -26q-128 -153 -203.5 -270t-99.5 -224
q-4 -13 -8 -47l98 12q2 0 7.5 1t7.5 1q21 0 24.5 -11.5t-10.5 -26.5l-129 -152q-23 -27 -23 -35q0 -14 21 -14h12q1 1 7.5 2.5t9.5 3.5l151 111q22 16 37 16q14 0 14 -21v-112q46 -16 84.5 -42t38.5 -56q0 -31 -38.5 -58t-84.5 -43v-115q0 -20 -14 -20q-15 0 -37 16
l-151 113q-3 2 -9.5 3.5t-7.5 2.5h-12q-21 0 -21 -16q0 -2 23 -37l129 -148q14 -15 10.5 -26.5t-24.5 -11.5q-2 0 -7.5 1t-7.5 1l-90 12h-8q35 -264 311 -541q10 -9 13 -17.5t-1.5 -14t-15.5 -5.5q-29 0 -99.5 58t-147 141t-144.5 188t-90 187l-139 -23h-6q-17 0 -23 15
t6 32l117 162q16 13 16 35q0 16 -24 16q-15 0 -29 -14l-147 -131q-16 -16 -29 -16q-29 0 -29 38v115zM498 975l-125 31l96 -140v56h45l41 65v-65h37v-54l129 131l-137 -26q10 80 67 215v86q-50 -52 -92 -137.5t-61 -161.5zM469 539l-96 -138l125 29q20 -75 61.5 -161.5
t91.5 -137.5v88q-57 132 -67 213l137 -26l-129 133v-58h-37v-63l-41 63h-45v58zM434 705q0 -41 35 -76q29 -25 61 -25q43 0 71 29t28 72q0 41 -29 69.5t-70 28.5q-38 0 -67 -30t-29 -68zM684 643l143 -108v106q117 32 117 64q0 19 -41 36.5t-76 24.5v106l-143 -108h82v-37
q35 -3 61 -25q-27 -19 -61 -22v-37h-82zM182 748q-69 -25 -69 -43q0 -13 42.5 -33.5t73.5 -30.5v-109l148 115h-90v35q-40 10 -58 23q16 10 58 20v33h90l-148 116v-108q-23 -8 -47 -18z" />
    <glyph glyph-name="uniFD3F" unicode="&#xfd3f;" horiz-adv-x="1048" 
d="M61 705q0 30 38.5 56t84.5 42v112q0 21 15 21t37 -16l151 -111q3 -2 9 -3.5t7 -2.5h13q20 0 20 14q0 9 -22 35l-129 152q-14 15 -10.5 26.5t24.5 11.5q2 0 7 -1t7 -1l99 -12q-3 28 -9 47q-24 107 -99.5 224t-203.5 270q-14 15 -13.5 26t17.5 11q40 0 143 -93t207 -233
t132 -248l139 23h6q17 0 22.5 -15t-5.5 -32l-117 -162q-17 -14 -17 -35q0 -18 25 -18q9 0 29 14l147 131q24 18 29 18q28 0 28 -41v-112q121 -59 121 -98q0 -42 -121 -101v-115q0 -38 -28 -38q-13 0 -29 16l-147 131q-14 14 -29 14q-25 0 -25 -16q0 -21 17 -35l117 -162
q12 -17 6 -32t-23 -15h-6l-139 23q-28 -108 -132 -248t-207 -233t-143 -93q-11 0 -15.5 5.5t-1.5 14t13 17.5q278 278 312 541h-9l-90 -12q-2 0 -7 -1t-7 -1q-21 0 -24.5 11.5t10.5 26.5l129 148q22 33 22 37q0 16 -20 16h-13q-1 -1 -7 -2.5t-9 -3.5l-151 -113
q-22 -16 -37 -16t-15 20v115q-46 16 -84.5 43t-38.5 58zM334 999l129 -131v54h37v65l41 -65h45v-56l96 140l-125 -31q-19 75 -61.5 161t-92.5 138v-86q59 -139 68 -215zM471 432q-9 -78 -68 -213v-88q50 51 92 137.5t62 161.5l125 -29l-96 138v-58h-45l-41 -63v63h-37v58
l-129 -133zM426 705q0 -43 28 -72t70 -29q33 0 62 25q35 35 35 76q0 38 -29.5 68t-67.5 30q-41 0 -69.5 -28.5t-28.5 -69.5zM227 641v-106l144 108h-82v37q-38 3 -62 27q31 17 62 20v37h82l-144 108v-106q-34 -7 -75 -24.5t-41 -36.5q0 -32 116 -64zM678 758h90v-33
q41 -10 57 -20q-18 -14 -57 -23v-35h-90l147 -115v109q31 10 74 30.5t43 33.5q0 18 -70 43q-24 10 -47 18v108z" />
    <glyph glyph-name="uniFEFF" unicode="&#xfeff;" 
 />
    <glyph glyph-name="uni066E.fina" horiz-adv-x="2066" 
d="M2066 217q41 0 41 -115q0 -102 -41 -102q-210 0 -292 115q-95 -115 -295 -115h-918q-233 0 -368.5 113.5t-135.5 298.5q0 152 66 327l213 -55q-39 -147 -39 -223q0 -119 79 -181.5t222 -62.5h809q107 0 153 48t46 165v426h241v-432q0 -207 219 -207z" />
    <glyph glyph-name="uniFBE9.wide" horiz-adv-x="712" 
d="M713 217q41 0 41 -115q0 -102 -41 -102q-217 0 -301 123q-101 -123 -369 -123h-43v217h41q122 0 166.5 51.5t44.5 188.5v399h242v-432q0 -207 219 -207z" />
    <glyph glyph-name="uniFBE8.wide" horiz-adv-x="655" 
d="M0 0v217h41q122 0 166.5 51.5t44.5 188.5v399h242v-432q0 -230 -107.5 -327t-343.5 -97h-43z" />
    <glyph glyph-name="uni06A1.fina" horiz-adv-x="2238" 
d="M2238 217q41 0 41 -115q0 -102 -41 -102h-229q-208 0 -373 33q-176 -33 -358 -33h-705q-233 0 -368 113t-135 299q0 155 65 327l213 -55q-39 -147 -39 -223q0 -119 79 -181.5t222 -62.5h674q-102 105 -102 260q0 168 126 285t341 117q211 0 332.5 -115t121.5 -281
q0 -150 -104 -266h239zM1640 236q75 10 148.5 77.5t73.5 157.5q0 80 -60 132t-157 52t-158.5 -50.5t-61.5 -133.5q0 -85 69 -151.5t146 -83.5z" />
    <glyph glyph-name="uni06A1.medi" horiz-adv-x="1204" 
d="M1204 217q41 0 41 -115q0 -102 -41 -102h-229q-208 0 -373 33q-176 -33 -358 -33h-244v217h250q-103 106 -103 260q0 168 126 285t341 117q211 0 333 -115t122 -281q0 -150 -104 -266h239zM606 236q75 10 148 77.5t73 157.5q0 80 -60 132t-157 52t-158 -50.5t-61 -133.5
q0 -85 69 -151.5t146 -83.5z" />
    <glyph glyph-name="uni06A1.init" horiz-adv-x="1175" 
d="M993 0h-993v217h197q-50 88 -50 205q0 198 131.5 327.5t352.5 129.5q98 0 176.5 -28.5t127.5 -74.5t81.5 -107t45.5 -121.5t13 -123.5q0 -203 -82 -424zM391 424q0 -100 60 -207h358q25 103 25 184q0 112 -52.5 183t-160.5 71q-109 0 -169.5 -64t-60.5 -167z" />
    <glyph glyph-name="uni066F.fina" horiz-adv-x="1695" 
d="M45 139q0 130 53 281l221 -58q-26 -101 -26 -186q0 -73 23 -127t78.5 -97t158 -65t252.5 -22q219 0 328 32.5t139 102.5h-125q-252 0 -377 111t-125 311q0 90 32 172.5t89.5 146t144.5 101t191 37.5q201 0 309.5 -117.5t108.5 -308.5v-236h176q41 0 41 -115
q0 -102 -41 -102h-195q-45 -183 -214 -270.5t-484 -87.5q-758 0 -758 497zM893 432q0 -215 254 -215h131v195q0 243 -191 243q-88 0 -141 -61t-53 -162z" />
    <glyph glyph-name="uni06C2.fina" horiz-adv-x="1105" 
d="M182 82q-129 122 -129 311q0 90 31.5 168.5t92 140t159 97t223.5 35.5h348v-443q0 -108 37.5 -141t161.5 -33q41 0 41 -115q0 -102 -41 -102h-119q-171 0 -253.5 90t-82.5 252v264h-92q-121 0 -192.5 -54.5t-71.5 -160.5q0 -52 15.5 -89.5t49.5 -76.5zM324 1077v144h86
q-31 57 -31 116q0 91 64.5 147t170.5 56q58 0 136 -16l-27 -140q-42 11 -84 11q-47 0 -79 -22t-32 -66q0 -39 29 -86h217v-144h-450z" />
    <glyph glyph-name="uni06C3.fina" horiz-adv-x="1150" 
d="M414 1094q-56 0 -93.5 38t-37.5 93q0 56 37.5 92.5t93.5 36.5q57 0 93 -36t36 -93q0 -56 -36.5 -93.5t-92.5 -37.5zM750 1094q-58 0 -96 37.5t-38 93.5q0 57 37.5 93t96.5 36q54 0 90.5 -36t36.5 -93q0 -56 -36.5 -93.5t-90.5 -37.5zM1151 217q41 0 41 -115
q0 -102 -41 -102q-272 0 -354 88q-129 -61 -279 -61q-130 0 -232 43t-164.5 133t-62.5 215q0 89 33 167t96.5 139t165.5 96.5t230 35.5h389v-461q0 -103 37.5 -140.5t140.5 -37.5zM719 285v354h-172q-111 0 -177.5 -52.5t-66.5 -148.5q0 -186 248 -186q104 0 168 33z" />
    <glyph glyph-name="uniFBAF.wide" horiz-adv-x="1636" 
d="M731 -532q-370 0 -527 88.5t-157 285.5q0 375 533 375h1056q41 0 41 -115q0 -102 -41 -102h-1075q-150 0 -217.5 -38t-67.5 -114q0 -57 42 -91t152.5 -52t305.5 -18q357 0 750 61l8 -213q-418 -67 -803 -67z" />
    <glyph glyph-name="uniFBB1.wide" horiz-adv-x="1636" 
d="M47 -158q0 375 533 375h1056q41 0 41 -115q0 -102 -41 -102h-1075q-150 0 -217.5 -38t-67.5 -114q0 -57 42 -91t152.5 -52t305.5 -18q357 0 750 61l8 -213q-418 -67 -803 -67q-370 0 -527 88.5t-157 285.5zM702 434h-348v113h68q-25 45 -25 92q0 71 50 114.5t133 43.5
q41 0 104 -13l-20 -108q-32 8 -66 8q-84 0 -84 -70q0 -27 21 -67h167v-113z" />
    <glyph glyph-name="uni06D5.fina" horiz-adv-x="1150" 
d="M1151 217q41 0 41 -115q0 -102 -41 -102q-272 0 -354 88q-129 -61 -279 -61q-130 0 -232 43t-164.5 133t-62.5 215q0 89 33 167t96.5 139t165.5 96.5t230 35.5h389v-461q0 -103 37.5 -140.5t140.5 -37.5zM719 285v354h-172q-111 0 -177.5 -52.5t-66.5 -148.5
q0 -186 248 -186q104 0 168 33z" />
    <glyph glyph-name="uni06440671" horiz-adv-x="1366" 
d="M49 217h387v909h242v-909h106q108 0 156.5 53t48.5 168v1110h242v-1171q0 -174 -99.5 -275.5t-289.5 -101.5h-793v217zM276 1282v111h93v206h104v-86q73 93 172 93q78 0 125 -50t47 -135q0 -68 -29 -139h-512zM465 1393h235q5 13 5 26q0 34 -22.5 55t-59.5 21
q-43 0 -85 -26t-73 -76z" />
    <glyph glyph-name="uni06440671.fina" horiz-adv-x="1449" 
d="M49 0v217h387v909h242v-909h106q108 0 156.5 53t48.5 168v1110h242v-1124q0 -207 219 -207q41 0 41 -115q0 -102 -41 -102q-215 0 -299 123q-104 -123 -309 -123h-793zM276 1282v111h93v206h104v-86q73 93 172 93q78 0 125 -50t47 -135q0 -68 -29 -139h-512zM465 1393
h235q5 13 5 26q0 34 -22.5 55t-59.5 21q-43 0 -85 -26t-73 -76z" />
    <glyph glyph-name="uni0660.lf" horiz-adv-x="559" 
d="M281 391l-211 211l211 205l208 -207z" />
    <glyph glyph-name="uni0661.lf" horiz-adv-x="626" 
d="M193 0v1337h241v-1337h-241z" />
    <glyph glyph-name="uni0662.lf" horiz-adv-x="1116" 
d="M193 0v1337h241v-258q107 -47 207 -47q102 0 138 66.5t24 228.5l241 12q20 -278 -69.5 -403t-310.5 -125q-120 0 -230 43v-854h-241z" />
    <glyph glyph-name="uni0663.lf" horiz-adv-x="1273" 
d="M193 1337h241v-262q42 -10 80 -10q69 0 90 55t8 205l205 14q12 -165 -8 -268q27 -6 57 -6q83 0 107 54t10 204l219 16q19 -248 -52.5 -366.5t-236.5 -118.5q-111 0 -202 43q-61 -43 -156 -43q-62 0 -121 16v-870h-241v1337z" />
    <glyph glyph-name="uni0664.lf" horiz-adv-x="1015" 
d="M918 219l10 -221q-132 -18 -275 -18q-265 0 -398.5 76.5t-133.5 250.5q0 115 68 212t200 167q-99 41 -154 111.5t-55 163.5q0 184 152.5 282t453.5 98q51 0 78 -2v-221q-27 2 -78 2q-358 0 -358 -168q0 -68 68 -107.5t196 -39.5q53 0 135 10v-225q-124 -11 -216.5 -37
t-143 -60t-74.5 -69.5t-24 -73.5q0 -73 75 -107t250 -34q97 0 224 10z" />
    <glyph glyph-name="uni0665.lf" horiz-adv-x="1220" 
d="M610 -16q-114 0 -200 31t-150.5 98.5t-97.5 181.5t-33 272q0 375 132.5 573.5t348.5 198.5q218 0 350 -198t132 -574q0 -158 -33.5 -272t-97.5 -181.5t-150.5 -98.5t-200.5 -31zM610 211q238 0 238 369q0 233 -65 382.5t-173 149.5t-172.5 -149.5t-64.5 -382.5
q0 -369 237 -369z" />
    <glyph glyph-name="uni0666.lf" horiz-adv-x="1056" 
d="M623 0v1112h-586v225h827v-1337h-241z" />
    <glyph glyph-name="uni0667.lf" horiz-adv-x="1198" 
d="M895 1358l246 -62l-393 -1296h-293l-398 1298l248 60l295 -1043z" />
    <glyph glyph-name="uni0668.lf" horiz-adv-x="1198" 
d="M1141 25l-246 -60l-295 1041l-295 -1041l-248 62l396 1296h292z" />
    <glyph glyph-name="uni0669.lf" horiz-adv-x="1155" 
d="M98 913q0 198 121 311t340 113h404v-1335h-242v524q-41 -4 -115 -4q-254 0 -381 102t-127 289zM346 922q0 -86 66.5 -132.5t201.5 -46.5q39 0 107 7v362h-121q-254 0 -254 -190z" />
    <glyph glyph-name="uni06F0.lf" horiz-adv-x="559" 
d="M281 391l-211 211l211 205l208 -207z" />
    <glyph glyph-name="uni06F1.lf" horiz-adv-x="626" 
d="M193 0v1337h241v-1337h-241z" />
    <glyph glyph-name="uni06F2.lf" horiz-adv-x="1116" 
d="M193 0v1337h241v-258q107 -47 207 -47q102 0 138 66.5t24 228.5l241 12q20 -278 -69.5 -403t-310.5 -125q-120 0 -230 43v-854h-241z" />
    <glyph glyph-name="uni06F3.lf" horiz-adv-x="1273" 
d="M193 1337h241v-262q42 -10 80 -10q69 0 90 55t8 205l205 14q12 -165 -8 -268q27 -6 57 -6q83 0 107 54t10 204l219 16q19 -248 -52.5 -366.5t-236.5 -118.5q-111 0 -202 43q-61 -43 -156 -43q-62 0 -121 16v-870h-241v1337z" />
    <glyph glyph-name="uni06F4.lf" horiz-adv-x="1263" 
d="M193 0v1337h241v-325q110 -30 215 -41q-20 56 -20 121q0 266 282 266q97 0 199 -29l-51 -194q-58 22 -123 22q-119 0 -119 -110q0 -38 17 -84q166 3 335 34l27 -204q-201 -39 -399 -39q-195 0 -363 49v-803h-241z" />
    <glyph glyph-name="uni06F5.lf" horiz-adv-x="1249" 
d="M442 -12q-313 0 -313 530q0 195 44 355t116 259.5t159.5 153t178.5 53.5q75 0 146 -32t134 -99.5t110.5 -163t75 -231t27.5 -295.5q0 -272 -80.5 -401t-222.5 -129q-113 0 -190 88q-78 -88 -185 -88zM506 215q18 0 37 7.5t30.5 15t29 20.5t22.5 16q2 -1 20.5 -16
t29 -21.5t31 -14t39.5 -7.5q60 0 93.5 80t33.5 235q0 107 -16.5 210t-47 186.5t-78 134.5t-103.5 51q-73 0 -132 -89.5t-88.5 -221t-29.5 -269.5q0 -160 35.5 -238.5t93.5 -78.5z" />
    <glyph glyph-name="uni06F6.lf" horiz-adv-x="1026" 
d="M782 905l189 -157l-688 -799l-189 157l385 449q-172 34 -268 134t-96 253q0 192 146 295.5t433 103.5q70 0 109 -2v-221q-74 4 -101 4q-172 0 -256 -47.5t-84 -132.5q0 -72 77 -119t223 -59z" />
    <glyph glyph-name="uni06F7.lf" horiz-adv-x="1198" 
d="M895 1358l246 -62l-393 -1296h-293l-398 1298l248 60l295 -1043z" />
    <glyph glyph-name="uni06F8.lf" horiz-adv-x="1198" 
d="M1141 25l-246 -60l-295 1041l-295 -1041l-248 62l396 1296h292z" />
    <glyph glyph-name="uni06F9.lf" horiz-adv-x="1155" 
d="M98 913q0 198 121 311t340 113h404v-1335h-242v524q-41 -4 -115 -4q-254 0 -381 102t-127 289zM346 922q0 -86 66.5 -132.5t201.5 -46.5q39 0 107 7v362h-121q-254 0 -254 -190z" />
    <glyph glyph-name="uni06F4.urdu" horiz-adv-x="1105" 
d="M694 934q-68 182 -172 182q-50 0 -78 -40t-28 -118v-958h-242v956q0 207 89 309.5t229 102.5q93 0 161.5 -51t128.5 -150q69 88 164 176l152 -151q-128 -118 -228 -258h-176z" />
    <glyph glyph-name="uni06F7.urdu" horiz-adv-x="1105" 
d="M227 0l-139 227l522 1121l230 -103l-490 -1028h619v-217h-742z" />
    <glyph glyph-name="uni06F4.urdu.lf" horiz-adv-x="1073" 
d="M670 934q-68 182 -172 182q-51 0 -79 -40t-28 -118v-958h-241v956q0 207 88.5 309.5t228.5 102.5q93 0 162.5 -51t128.5 -150q69 88 164 176l151 -151q-125 -115 -227 -258h-176z" />
    <glyph glyph-name="uni06F7.urdu.lf" horiz-adv-x="968" 
d="M188 0l-139 227l522 1121l230 -103l-490 -1028h619v-217h-742z" />
    <glyph glyph-name="acute.case" horiz-adv-x="532" 
d="M651 1843l-289 -295h-192l203 295h278z" />
    <glyph glyph-name="breve.case" horiz-adv-x="532" 
d="M-82 1843h137q21 -135 211 -135q98 0 145 28t68 107h135q-15 -147 -105.5 -221t-244.5 -74q-161 0 -249 76.5t-97 218.5z" />
    <glyph glyph-name="caron.case" horiz-adv-x="532" 
d="M129 1548l-233 295h233l141 -184l142 184h225l-236 -295h-272z" />
    <glyph glyph-name="circumflex.case" horiz-adv-x="532" 
d="M123 1548h-229l235 295h277l233 -295h-233l-142 185z" />
    <glyph glyph-name="dieresis.case" horiz-adv-x="532" 
d="M53 1843q68 0 114 -42t46 -105q0 -64 -46.5 -106t-113.5 -42q-65 0 -110 42.5t-45 105.5q0 60 44 103.5t111 43.5zM475 1843q70 0 115 -43.5t45 -103.5q0 -62 -46 -105t-114 -43q-66 0 -111 42.5t-45 105.5q0 61 44.5 104t111.5 43z" />
    <glyph glyph-name="dotaccent.case" horiz-adv-x="532" 
d="M264 1843q70 0 115 -43.5t45 -103.5q0 -64 -46.5 -106t-113.5 -42q-65 0 -110 42.5t-45 105.5q0 61 44 104t111 43z" />
    <glyph glyph-name="grave.case" horiz-adv-x="532" 
d="M160 1843l202 -295h-192l-289 295h279z" />
    <glyph glyph-name="hungarumlaut.case" horiz-adv-x="532" 
d="M571 1548h-192l203 295h278zM152 1548h-193l203 295h278z" />
    <glyph glyph-name="macron.case" horiz-adv-x="532" 
d="M594 1772v-160h-655v160h655z" />
    <glyph glyph-name="ring.case" horiz-adv-x="532" 
d="M266 1923q94 0 154.5 -59t60.5 -150q0 -92 -61 -150.5t-154 -58.5q-95 0 -155 59t-60 148q0 91 61.5 151t153.5 60zM150 1714q0 -47 34 -78.5t82 -31.5q50 0 83.5 32t33.5 78q0 49 -34.5 80t-84.5 31q-46 0 -80 -33t-34 -78z" />
    <glyph glyph-name="tilde.case" horiz-adv-x="532" 
d="M643 1827q-43 -260 -229 -260q-61 0 -154 35q-107 43 -141 43q-68 0 -94 -89h-136q22 129 78 195t152 66q67 0 172 -41q89 -35 123 -35q69 0 94 86h135z" />
    <glyph glyph-name="waslaar" 
d="M-270 1102v110h92v207h104v-86q72 92 172 92q78 0 125 -50t47 -134q0 -70 -28 -139h-512zM76 1315q-42 0 -84.5 -26.5t-73.5 -76.5h236q4 10 4 27q0 34 -22.5 55t-59.5 21z" />
    <glyph glyph-name="gafsarkashabovear" 
d="M-201 819l-127 127l531 504l125 -125z" />
    <glyph glyph-name="uni0654.big" 
d="M-225 1268h86q-31 57 -31 116q0 91 65 147t171 56q57 0 135 -16l-27 -139q-38 10 -84 10q-47 0 -78.5 -22t-31.5 -66q0 -41 28 -86h217v-144h-450v144z" />
    <glyph glyph-name="uni0654064F" 
d="M-53 1554q-73 0 -129 35l43 94q44 -20 86 -20q72 0 106 66h-12q-75 0 -121.5 32.5t-46.5 100.5t45.5 121t112.5 53q66 0 106.5 -54.5t40.5 -142.5q0 -140 -67.5 -212.5t-163.5 -72.5zM-174 1210h68q-25 45 -25 93q0 71 49.5 114t132.5 43q47 0 105 -12l-21 -109
q-36 9 -65 9q-84 0 -84 -70q0 -30 20 -68h168v-112h-348v112zM23 1927q-25 0 -39.5 -16.5t-14.5 -38.5q0 -51 82 -51h27v14q0 41 -14.5 66.5t-40.5 25.5z" />
    <glyph glyph-name="uni0654064C" 
d="M-276 1630l-68 58q32 52 71.5 80t73.5 28t65.5 -21t52.5 -45.5t49 -45.5t55 -21q66 0 100 66h-21q-68 0 -113.5 33t-45.5 100q0 68 45 121t112 53q65 0 105.5 -54.5t40.5 -142.5q0 -136 -68.5 -210.5t-161.5 -74.5q-36 0 -67 13.5t-51.5 33t-37.5 39t-33.5 33t-31.5 13.5
q-27 0 -71 -56zM-174 1210h68q-25 45 -25 93q0 71 49.5 114t132.5 43q47 0 105 -12l-21 -109q-36 9 -65 9q-84 0 -84 -70q0 -30 20 -68h168v-112h-348v112zM92 1927q-24 0 -37.5 -17t-13.5 -40q0 -49 72 -49q24 0 34 2v12q0 92 -55 92z" />
    <glyph glyph-name="uni0654064E" 
d="M-174 1210h68q-25 45 -25 93q0 71 49.5 114t132.5 43q47 0 105 -12l-21 -109q-36 9 -65 9q-84 0 -84 -70q0 -30 20 -68h168v-112h-348v112zM-229 1544l18 109l459 69l6 -2l-18 -108l-459 -70z" />
    <glyph glyph-name="uni0654064B" 
d="M174 1098h-348v112h68q-25 45 -25 93q0 71 49.5 114t132.5 43q47 0 105 -12l-21 -109q-36 9 -65 9q-84 0 -84 -70q0 -30 20 -68h168v-112zM-223 1542l-6 2l18 109l459 69l6 -2l-18 -108zM-223 1759l-6 2l18 109l459 69l6 -2l-18 -108z" />
    <glyph glyph-name="uni06540652" 
d="M35 1554q-75 0 -116.5 42t-41.5 114q0 70 43.5 127t114.5 57q73 0 117.5 -57t44.5 -127q0 -72 -42 -114t-120 -42zM-174 1210h68q-25 45 -25 93q0 71 49.5 114t132.5 43q47 0 105 -12l-21 -109q-36 9 -65 9q-84 0 -84 -70q0 -30 20 -68h168v-112h-348v112zM35 1786
q-23 0 -37 -21t-14 -49q0 -51 51 -51q55 0 55 51q0 29 -14.5 49.5t-40.5 20.5z" />
    <glyph glyph-name="uni06550650" 
d="M-174 -522v112h68q-25 45 -25 93q0 71 49.5 114t132.5 43q47 0 105 -12l-21 -109q-36 9 -65 9q-84 0 -84 -70q0 -30 20 -68h168v-112h-348zM-219 -784l-6 2l18 106l459 70l6 -2l-18 -107z" />
    <glyph glyph-name="uni0655064D" 
d="M174 -522h-348v112h68q-25 45 -25 93q0 71 49.5 114t132.5 43q47 0 105 -12l-21 -109q-36 9 -65 9q-84 0 -84 -70q0 -30 20 -68h168v-112zM-219 -979l-6 2l18 107l459 69l6 -2l-18 -106zM-219 -784l-6 2l18 106l459 70l6 -2l-18 -107z" />
    <glyph glyph-name="uni06510670" 
d="M57 1470l-102 -30h-12v372h114v-342zM211 1411q35 -71 35 -135q0 -65 -35.5 -104t-93.5 -39q-55 0 -105 36q-38 -55 -112 -55q-68 0 -107 38t-39 103q0 53 23 109l71 -16q-8 -27 -8 -54q0 -67 62 -67q53 0 53 69q0 21 -2 33l74 17q10 -45 10 -78v-4q28 -21 59 -21
q51 0 51 57q0 37 -14 80z" />
    <glyph glyph-name="uni0651064F" 
d="M152 1724q0 -140 -67.5 -212t-164.5 -72q-73 0 -129 35l43 94q46 -21 86 -21q73 0 107 66h-13q-75 0 -121.5 32.5t-46.5 100.5t45.5 121t112.5 53q66 0 107 -54.5t41 -142.5zM25 1706h26q0 106 -55 106q-25 0 -39 -16.5t-14 -38.5q0 -51 82 -51zM211 1411q35 -71 35 -135
q0 -65 -35.5 -104t-93.5 -39q-55 0 -105 36q-38 -55 -112 -55q-68 0 -107 38t-39 103q0 53 23 109l71 -16q-8 -27 -8 -54q0 -67 62 -67q53 0 53 69q0 21 -2 33l74 17q10 -45 10 -78v-4q28 -21 59 -21q51 0 51 57q0 37 -14 80z" />
    <glyph glyph-name="uni0651064C" 
d="M-10 1440q-44 0 -81.5 20.5t-57 45t-42 45t-40.5 20.5q-29 0 -72 -55l-68 57q32 52 72 80t74 28t65.5 -21t52 -45.5t48.5 -45.5t55 -21q66 0 100 66h-20q-68 0 -114 33t-46 100q0 68 45.5 121t112.5 53q65 0 105 -54.5t40 -142.5q0 -136 -68 -210t-161 -74zM86 1706
q25 0 35 2v12q0 92 -55 92q-24 0 -38 -17t-14 -40q0 -49 72 -49zM211 1411q35 -71 35 -135q0 -65 -35.5 -104t-93.5 -39q-55 0 -105 36q-38 -55 -112 -55q-68 0 -107 38t-39 103q0 53 23 109l71 -16q-8 -27 -8 -54q0 -67 62 -67q53 0 53 69q0 21 -2 33l74 17q10 -45 10 -78
v-4q28 -21 59 -21q51 0 51 57q0 37 -14 80z" />
    <glyph glyph-name="uni0651064E" 
d="M227 1606l-18 -109l-459 -70l-6 3l18 108l459 70zM211 1411q35 -71 35 -135q0 -65 -35.5 -104t-93.5 -39q-55 0 -105 36q-38 -55 -112 -55q-68 0 -107 38t-39 103q0 53 23 109l71 -16q-8 -27 -8 -54q0 -67 62 -67q53 0 53 69q0 21 -2 33l74 17q10 -45 10 -78v-4
q28 -21 59 -21q51 0 51 57q0 37 -14 80z" />
    <glyph glyph-name="uni0651064B.1" 
d="M209 1714l-459 -69l-6 2l18 108l459 70l6 -2zM227 1606l-18 -109l-459 -70l-6 3l18 108l459 70zM211 1411q35 -71 35 -135q0 -65 -35.5 -104t-93.5 -39q-55 0 -105 36q-38 -55 -112 -55q-68 0 -107 38t-39 103q0 53 23 109l71 -16q-8 -27 -8 -54q0 -67 62 -67q53 0 53 69
q0 21 -2 33l74 17q10 -45 10 -78v-4q28 -21 59 -21q51 0 51 57q0 37 -14 80z" />
    <glyph glyph-name="uni06510650" 
d="M-86 1331q-68 0 -106.5 38.5t-38.5 103.5q0 54 22 108l72 -16q-8 -27 -8 -54q0 -67 61 -67q53 0 53 69q0 21 -2 33l74 17q10 -45 10 -78v-4q28 -21 60 -21q51 0 51 58q0 32 -15 79l78 31q35 -71 35 -135q0 -65 -35.5 -104t-93.5 -39q-54 0 -104 36q-38 -55 -113 -55z
M-223 1212l459 70l6 -2l-19 -109l-459 -69l-6 2z" />
    <glyph glyph-name="uni0651064D" 
d="M-86 1548q-68 0 -106.5 38.5t-38.5 103.5q0 54 22 108l72 -16q-8 -27 -8 -53q0 -68 61 -68q53 0 53 70q0 20 -2 32l74 17q10 -45 10 -78v-4q28 -21 60 -21q51 0 51 58q0 33 -15 80l78 30q35 -71 35 -135q0 -65 -35.5 -104t-93.5 -39q-53 0 -104 37q-39 -56 -113 -56z
M-223 1430l459 69l6 -2l-19 -108l-459 -70l-6 2zM-223 1212l459 70l6 -2l-19 -109l-459 -69l-6 2z" />
    </font>
</defs>
</svg>
